#TITLE:NGO;
#SUBTITLE:;
#ARTIST:鍋嶋圭一;
#TITLETRANSLIT:;
#SUBTITLETRANSLIT:;
#ARTISTTRANSLIT:Keiichi Nabeshima;
#GENRE:;
#CREDIT:;
#BANNER:NGO.png;
#BACKGROUND:NGO-bg.png;
#LYRICSPATH:;
#CDTITLE:;
#MUSIC:NGO.ogg;
#OFFSET:0.000000;
#SAMPLESTART:3.510000;
#SAMPLELENGTH:15.000000;
#SELECTABLE:YES;
#DISPLAYBPM:68.000000:274.000000;
#BPMS:0.000000=274.808990
,4.000000=273.889008
,54.000000=68.702003
,56.000000=136.709000
,62.000000=274.024994
,222.000000=75.418999
,234.000000=78.602997
,236.000000=128.878006
,242.000000=168.750000
,248.000000=216.867004
,252.000000=274.046997
,359.000000=274.311005
;
#STOPS:
;
#BGCHANGES:;
#KEYSOUNDS:;
#ATTACKS:;

//---------------dance-single - ----------------
#NOTES:
     dance-single:
     :
     Beginner:
     6:
     0.226753,0.417825,0.238609,0.000000,0.000000,153.000000,130.000000,23.000000,0.000000,0.000000,0.000000,0.226753,0.417825,0.238609,0.000000,0.000000,153.000000,130.000000,23.000000,0.000000,0.000000,0.000000:
0000
0000
0000
0000
,
0000
0000
0000
0000
,
0000
0000
0000
0000
,
0000
0000
0000
0000
,
0000
0000
0000
0000
,
0000
0000
0000
0000
,
0000
0000
0000
0000
,
0000
0000
0000
0000
,
0000
0000
0000
0000
,
0000
0000
0100
0000
,
1001
0000
1000
0000
,
0100
0000
1001
0000
,
0000
0001
0000
0000
,
0010
0000
1000
0000
,
0000
0000
0001
0000
,
0000
0001
0000
0000
,
0001
0000
0000
0100
,
0000
1000
0000
1000
,
0000
0010
0000
0001
,
0000
1001
0000
0000
,
0110
0000
0000
0100
,
0000
0010
0000
0010
,
0000
0001
0000
0000
,
0010
0000
1000
0000
,
0000
1000
0000
0001
,
0000
0000
0001
0000
,
0000
0001
0000
0000
,
1000
0000
0010
0000
,
1001
0000
0001
0000
,
1001
0000
0010
0000
,
0000
0110
0000
0000
,
0001
0000
0010
0010
,
0000
0000
0000
0000
,
0000
0000
0100
0000
,
1001
0000
0000
0000
,
0100
0000
0100
0000
,
0000
0000
0000
0000
,
0000
0010
0000
1001
,
0000
0000
0100
0000
,
1001
0000
0001
0000
,
0010
0000
0000
0010
,
0000
0001
0000
0001
,
0000
0100
0000
1000
,
0000
1001
0000
0000
,
0110
0000
0000
0010
,
0000
0100
0000
0100
,
0000
1000
0000
0000
,
0001
0000
0110
0000
,
1001
0000
0110
0000
,
1001
0000
1000
0000
,
0000
0100
0000
0000
,
0100
0000
1000
0000
,
0010
0000
0001
0000
,
0100
0000
0010
0000
,
0000
0001
0000
0000
,
0010
0000
1000
0000
,
0001
0000
1000
0000
,
0100
0000
0100
0000
,
0100
0000
0010
0000
,
0100
0000
0000
0000
,
1000
0000
0000
0000
,
0001
0000
0000
0000
,
0000
0000
0000
0000
,
0010
0000
0001
0000
,
0000
0100
0000
1000
,
0000
1000
0000
0010
,
0000
0001
0000
1001
,
0000
0000
0110
0000
,
0000
0000
0000
0000
,
0010
0000
1000
0000
,
0110
0000
1001
0000
,
1000
0000
0000
0000
,
0001
0000
0000
0000
,
0010
0000
0000
0000
,
0010
0000
0000
0000
,
1000
0000
1001
0000
,
0001
0000
1001
0000
,
1000
0000
1000
0000
,
1000
0000
1000
0000
,
1000
0000
1000
0000
,
1000
0000
1000
0000
,
0100
0000
0100
0000
,
0100
0000
0100
0000
,
1000
0000
1000
0000
,
1000
0000
1000
0000
,
1000
0000
1000
0000
,
0010
0000
0010
0000
,
0010
0000
0010
0000
,
0010
0000
0100
0000
,
0000
0000
1001
0000
,
0000
0000
0000
0000
;

//---------------dance-single - ----------------
#NOTES:
     dance-single:
     :
     Easy:
     10:
     0.389777,0.617012,0.622458,0.031123,0.005187,263.000000,203.000000,60.000000,3.000000,0.000000,0.000000,0.389777,0.617012,0.622458,0.031123,0.005187,263.000000,203.000000,60.000000,3.000000,0.000000,0.000000:
0000
0000
0000
0000
,
0000
0000
0000
0000
,
0000
0000
0000
0000
,
0000
0000
0000
0000
,
0000
0000
0000
0000
,
0000
0000
0000
0000
,
0000
0000
0000
0000
,
0000
0000
0000
0000
,
0000
0000
0000
0000
,
0000
0000
0100
0000
,
1001
0000
1000
0000
,
0100
0000
1001
0000
,
0000
0001
1000
0000
,
0010
0000
0000
0000
1200
0000
0000
0001
,
0000
1000
0000
0000
0001
0000
0000
1000
,
0000
0301
1010
0000
,
0101
0000
0000
0100
,
0010
1000
0000
1000
,
0001
0010
0000
0001
,
0000
1001
0100
0000
,
0110
0000
0000
0100
,
0001
0010
0000
0010
,
1000
0001
0100
0000
,
1010
0000
1000
0000
,
0000
1000
0000
0001
,
1001
0000
0001
0000
,
0000
0001
0000
0000
,
1000
1001
1010
0000
,
1001
0000
0101
0000
,
1001
0000
0010
0000
,
0000
0110
0000
0000
,
0001
1001
0010
1010
,
0000
0000
0000
1000
0000
1100
0000
0000
,
0000
0000
0100
0010
,
1001
0000
0000
0000
,
0100
0010
0011
0000
,
0000
0000
0000
0001
0000
0101
0000
0000
,
0000
1010
0000
1001
,
0000
0000
0100
0000
,
1001
0000
0101
0000
,
1010
0000
0000
0010
,
0100
0001
0000
0001
,
1000
0100
0000
1000
,
0000
1001
0010
0000
,
0110
0000
0000
0010
,
1000
0100
0000
0100
,
0001
1000
0010
0000
,
0101
0000
0110
0000
,
1001
0000
0110
0000
,
1001
0000
0000
0000
1100
0000
0000
1001
,
0000
0000
0011
0000
0000
1001
0000
0000
,
0100
0110
1000
0000
,
0010
1001
0001
0000
,
0100
0000
1001
0000
1010
0000
0000
1001
,
0000
0000
0101
0000
0000
1001
0000
0000
,
0010
0110
1000
0100
,
0001
0100
1000
0001
,
0100
1000
0100
0001
,
0100
0000
0010
0000
,
0100
0000
0000
0000
,
1000
0000
0000
0000
,
0001
0000
0000
0000
,
0000
0000
0000
0000
,
1010
0000
0101
0000
,
0000
0100
0010
1000
,
0000
1000
0001
0010
,
0000
0001
0000
1001
,
0100
0000
0110
0000
,
0000
0000
0000
0000
0000
0010
0000
0000
0000
0000
0010
0000
0000
0000
0000
0000
,
0010
0001
1000
0000
,
0110
0000
1001
0000
,
1000
0000
0000
1010
0000
0000
0000
0000
,
0001
0000
0000
0011
0000
0000
0000
0000
,
0010
0000
0000
1010
0000
0000
0000
0000
,
0010
0000
0000
0011
0000
0000
0000
0000
,
1100
0000
1001
0000
,
0101
0000
1001
0000
,
1000
0100
1000
0001
,
1000
0010
1000
0001
,
1000
0010
1000
0001
,
1000
0100
1000
0001
,
0100
0010
0100
1000
,
0100
0010
0100
0001
,
1000
0100
1000
0001
,
1000
0100
1000
0001
,
1000
0010
1000
0001
,
0010
0100
0010
1000
,
0010
0100
0010
0001
,
0010
1000
0100
0010
,
0000
0000
2002
0000
,
0000
0000
0000
0000
,
0000
0000
3003
0000
,
0000
0000
0000
0000
;

//---------------dance-single - ----------------
#NOTES:
     dance-single:
     :
     Medium:
     12:
     0.443131,0.617012,0.414972,0.114117,0.072620,299.000000,259.000000,40.000000,11.000000,0.000000,0.000000,0.443131,0.617012,0.414972,0.114117,0.072620,299.000000,259.000000,40.000000,11.000000,0.000000,0.000000:
0000
0000
0000
0000
,
0000
0000
0000
0000
,
0000
0000
0000
0000
,
0000
0000
0000
0000
,
0000
0000
0000
0000
,
0000
0000
0000
0000
,
0000
0000
0000
0000
,
0000
0000
0000
0000
,
0000
0000
0000
0000
,
0000
0000
0100
0000
,
0010
0000
0001
1000
,
0001
0000
0110
0000
,
0000
0001
1000
0000
,
0010
0000
0000
0000
0200
0000
0000
0001
,
0000
1000
0000
0000
0010
0000
0000
1000
,
0000
0301
0010
0000
,
0100
0000
0001
0100
,
0001
1000
0000
0100
,
0010
0001
0000
1000
,
0000
1000
0100
0000
,
1001
0000
0010
0001
,
1000
0100
0000
0100
,
0010
0001
0101
0000
,
1001
0000
0010
0010
,
0011
0001
0001
1001
,
0110
0100
0010
0010
,
1010
1000
1000
1001
,
0110
0000
0010
0000
1000
0100
0000
0000
,
0010
0001
0000
0000
1000
0010
0000
0000
,
0100
0001
0000
0000
1010
0000
0000
1001
,
0000
0000
0101
0000
0000
0110
0000
0000
,
0010
1001
1000
0100
,
0000
0000
0000
0001
0000
0100
0000
0000
,
0000
0000
0000
0010
0100
0000
0010
0000
,
1000
0010
0001
0000
,
0100
0001
0100
1000
,
0000
0000
0000
0100
0000
0010
0000
0000
,
0000
0000
1000
0100
0000
0001
0010
0000
,
0001
1000
0000
0000
0100
0000
0010
0000
,
1001
0000
0100
0000
,
0010
0000
1000
0010
,
1000
0001
0000
0010
,
0100
1000
0000
0001
,
0000
0001
0010
0000
,
1001
0000
0100
1000
,
0001
0010
0000
0010
,
0100
1000
1010
0000
,
1001
0000
0000
0000
0010
1000
0000
0000
,
0001
0010
0000
0000
0100
1000
0000
0000
,
0001
0100
0000
0000
0010
0000
0000
1010
,
0000
0000
0101
0000
0000
0011
0000
0000
,
1100
0000
1001
0000
0100
0010
0000
0000
,
0001
0000
1001
0000
0100
0010
0000
0000
,
1000
0000
1001
0000
0100
0000
0000
0011
,
0000
0000
1100
0000
0000
1010
0000
0000
,
0101
1001
0020
0032
,
0203
2300
3100
0020
,
2030
3200
0302
0103
,
0010
0000
0000
0000
0000
0000
0000
0001
0000
0000
0000
0000
0000
1000
0000
0000
0100
0000
0000
0000
0000
0000
0000
0001
0000
0000
0000
0000
0000
1000
0000
0000
,
0010
0000
0000
0000
0000
0000
0000
0000
0000
0000
0000
0000
0000
0001
0000
0000
0000
0000
0000
0000
0000
0000
0000
1000
0000
0000
0000
0000
0000
0000
0000
0000
,
0010
0000
0000
0000
0000
0000
0000
0100
0000
0000
0000
0000
0000
1000
0000
0000
0000
0000
0000
0000
0000
0000
0000
0000
0000
0000
0000
0000
0000
0000
0000
0001
,
0000
0000
0000
0000
0000
0000
0000
0000
0000
0100
0000
0010
0000
0000
0000
0000
,
0000
0000
0000
0000
0000
1010
0000
0000
0000
0000
0000
0101
0000
0000
0000
0000
,
0010
0000
0100
0000
,
0001
0100
0001
1000
,
0000
0100
0010
0001
,
0000
1000
0000
1000
,
0100
0000
1001
0000
,
0000
0000
0000
0000
0000
0010
0000
0000
0000
0000
0010
0000
0000
0000
0000
0000
,
0001
0100
0010
1000
,
0100
0000
1001
0000
,
0110
0000
0000
0010
0000
0000
1000
0000
,
0110
0000
0000
0010
0000
0000
0001
0000
,
0110
0000
0000
1000
0000
0000
0100
0000
,
0110
0000
0000
0001
0000
0000
0100
0000
,
0010
1000
0000
0000
0100
0001
0000
0000
,
0010
0001
0000
0000
0100
1000
0000
0000
,
0010
0001
0010
0100
,
0010
1000
0010
0001
,
0100
0001
0100
0010
,
0100
1000
0100
0001
,
1000
0010
1000
0001
,
0100
1000
0100
0001
,
0010
1000
0010
0001
,
0010
1000
0010
0001
,
0100
1000
0100
0001
,
0100
0010
1000
0001
,
0010
1000
0010
0001
,
0100
1000
0100
0001
,
0000
0000
2002
0000
,
0000
0000
0000
0000
,
0000
0000
3003
0000
,
0000
0000
0000
0000
;

//---------------dance-single - ----------------
#NOTES:
     dance-single:
     :
     Hard:
     15:
     0.603192,0.806862,0.373475,0.114117,0.072620,407.000000,371.000000,36.000000,11.000000,0.000000,0.000000,0.603192,0.806862,0.373475,0.114117,0.072620,407.000000,371.000000,36.000000,11.000000,0.000000,0.000000:
0000
0000
0000
0000
,
0000
0000
0000
0000
,
0000
0000
0000
0000
,
0000
0000
0000
0000
,
0000
0000
0000
0000
,
0000
0000
0000
0000
,
0000
0000
0000
0000
,
0000
0000
0000
0000
,
0000
0000
0000
0000
,
0000
0000
0100
0000
,
1001
0000
0010
1000
,
0001
0000
0110
0000
,
0000
0100
0010
0000
,
1001
0000
0000
0000
0200
0000
0000
1000
,
0000
0001
0000
0000
0010
0000
0000
1000
,
0000
0301
1000
0100
,
1000
0000
0101
0010
,
0100
1000
0000
0100
,
0001
0010
0000
1000
,
0010
0001
0100
0000
,
1001
0000
0100
0010
,
0001
0010
0000
0100
,
1000
0001
1100
0000
,
0101
0000
0000
0000
0010
1000
0010
0000
,
1100
0000
0010
0001
0010
0000
0101
0000
,
0010
1000
0010
0000
0100
0001
0100
0000
,
0011
0000
0100
1000
0100
0000
1010
0000
,
0100
0001
0100
0000
0010
0100
1000
0000
,
1000
0100
0001
0000
0010
0100
0001
0000
,
0001
0100
1000
0000
0010
0100
0000
0001
,
0010
0000
0100
1000
0000
0100
0010
0000
,
0011
0000
1100
0000
0010
0001
0010
0100
,
0000
0000
0000
0100
0010
1000
0010
0100
,
0000
0000
0000
1000
0001
0000
0100
0000
,
0100
0000
0001
1000
0001
0000
0100
0000
,
0010
0001
0010
0100
1000
0001
1000
0000
,
0000
0000
0000
1000
0001
1000
0010
0100
,
0000
0000
0001
0100
0000
0100
0010
0000
,
0010
1000
0000
0000
0001
0100
1000
0100
,
0001
0010
0100
0000
0001
0000
0100
0000
,
0001
0000
1100
0010
,
0100
0001
0000
0100
,
1000
0010
0000
0001
,
0010
1000
0100
0000
,
1001
0000
0100
0010
,
1000
0010
0000
0100
,
0001
1000
0101
0000
,
1100
0000
0000
0000
0010
0001
0010
0000
,
0001
0100
0001
0000
0010
1000
0010
0000
,
1000
0100
1000
0000
0010
0001
0000
0010
,
0100
0000
0010
1000
0000
1010
0100
0000
,
0011
0000
1100
0000
0010
0100
0010
0000
,
1000
0000
1100
0000
0010
0100
0010
0000
,
0001
0000
0101
0000
0010
0000
1000
0001
,
0000
0010
0100
0000
1000
0001
0000
0000
,
0110
1001
2000
3200
,
0302
0000
0023
0000
0031
0100
0002
0000
,
0203
0000
2300
0000
3020
0000
1030
0100
,
0010
0000
0000
0000
0000
0000
0000
1000
0000
0000
0000
0000
0000
0001
0000
0000
0100
0000
0000
0000
0000
0000
0000
1000
0000
0000
0000
0000
0000
0001
0000
0000
,
0010
0000
0000
0000
0000
0000
0000
0000
0000
0000
0000
0000
0000
1000
0000
0000
0000
0000
0000
0000
0000
0000
0000
0001
0000
0000
0000
0000
0000
0000
0000
0000
,
0010
0000
0000
0000
0000
0000
0000
0100
0000
0000
0000
0000
0000
0001
0000
0000
0000
0000
0000
0000
0000
0000
0000
0000
0000
0000
0000
0000
0000
0000
0000
1000
,
0000
0000
0000
0000
0000
0000
0000
0000
0000
0100
0000
0010
0000
0000
0000
0000
,
0000
0000
0000
0000
0000
0011
0000
0000
0000
0000
0000
1100
0000
0000
0000
0000
,
1000
0001
0010
0000
,
0110
1000
0010
0001
,
0000
1000
0010
0001
,
0000
0100
0010
1000
,
0001
0000
1010
0000
,
0100
0000
0000
0000
0000
0011
0000
0000
0000
0000
1010
0000
0000
0000
0000
0000
,
0100
0001
0010
1000
,
0010
0000
1001
0000
,
0010
1000
0000
1000
0010
0000
0101
0000
,
0010
0001
0000
0001
0010
0000
1100
0000
,
0100
0001
0000
0001
0100
0000
1010
0000
,
0100
1000
0000
1000
0100
0000
0011
0000
,
0100
0010
0100
0000
0001
1000
0001
0000
,
0010
0100
0010
0000
1000
0001
1000
0000
,
0010
1000
0100
1000
0010
0001
0010
1000
,
0100
0001
0100
0010
0001
0100
1000
0100
,
0010
1000
0010
0001
0010
1000
0100
0001
,
0100
1000
0010
0001
0010
1000
0100
0001
,
0100
0010
0001
0100
1000
0100
0001
1000
,
0010
0100
1000
0100
0001
0010
0100
1000
,
0010
0100
0010
0001
0010
0100
0010
1000
,
0001
0100
0001
1000
0001
0010
0001
1000
,
0100
0010
0100
0001
0100
0010
0100
1000
,
0010
1000
0010
0100
0010
0001
0010
0100
,
1000
0100
1000
0001
0010
0001
0010
1000
,
0100
0010
0100
0001
0100
0010
0001
0000
,
0000
0000
2002
0000
,
0000
0000
0000
0000
,
0000
0000
3003
0000
,
0000
0000
0000
0000
;

//---------------dance-single - ----------------
#NOTES:
     dance-single:
     :
     Challenge:
     18:
     0.789929,1.044174,1.193045,0.114117,0.082994,533.000000,418.000000,115.000000,11.000000,0.000000,0.000000,0.789929,1.044174,1.193045,0.114117,0.082994,533.000000,418.000000,115.000000,11.000000,0.000000,0.000000:
// measure 0
0000
0000
0000
0000
,  // measure 1
0000
0000
0000
0000
,  // measure 2
0000
0000
0000
0000
,  // measure 3
0000
0000
0000
0000
,  // measure 4
0000
0000
0000
0000
,  // measure 5
0000
0000
0000
0000
,  // measure 6
0000
0000
0000
0000
,  // measure 7
0000
0000
0000
0000
,  // measure 8
0000
0000
0000
0000
,  // measure 9
0000
0000
1001
0010
,  // measure 10
1100
0000
0000
0000
0010
0001
0010
0000
,  // measure 11
1001
0100
1010
0000
,  // measure 12
0000
0100
0110
1000
,  // measure 13
0101
0000
0000
0000
0020
0000
0000
1000
,  // measure 14
0000
0001
0000
0000
0100
0000
0000
1000
,  // measure 15
0000
0000
0031
0000
1000
0100
1000
0000
,  // measure 16
0011
0000
0100
0000
1100
0000
0010
0001
,  // measure 17
1000
0000
1001
0000
0100
0000
0010
1000
,  // measure 18
0001
0000
1001
0000
0010
0000
0100
0010
,  // measure 19
1001
0100
0101
0010
,  // measure 20
1001
0000
0100
0000
0010
0100
0010
0000
,  // measure 21
0101
0000
0010
0000
1001
0000
0100
0010
,  // measure 22
0001
0100
1010
0100
,  // measure 23
1001
0000
0010
0000
1000
0100
1000
0000
,  // measure 24
1010
0000
0001
0100
0001
0000
0011
0000
,  // measure 25
1000
0001
1001
0000
1000
0010
1000
0000
,  // measure 26
1100
0000
0001
0010
0001
0000
0101
0000
,  // measure 27
1000
0001
1001
0000
1000
0100
1100
0000
,  // measure 28
1000
0001
1001
0000
0010
0001
0011
0000
,  // measure 29
0010
0100
0110
0000
1000
1100
0000
0001
,  // measure 30
0101
0000
0010
1010
0000
0010
0011
0000
,  // measure 31
0110
0000
1001
0000
0010
1000
0001
0101
,  // measure 32
0000
0000
0000
0100
0010
0001
1000
1100
,  // measure 33
0000
0000
0000
0001
1100
0000
1001
0000
,  // measure 34
0101
0000
0010
1000
1010
0000
1001
0000
,  // measure 35
0100
0001
0100
0010
0100
1000
0110
0000
,  // measure 36
0000
0000
0000
0100
0010
1000
0100
0001
,  // measure 37
0000
0000
0001
0101
0000
0010
1010
0000
,  // measure 38
0100
0110
0000
0000
0001
0100
0010
1000
,  // measure 39
0100
0010
1001
0000
1000
0100
1000
0000
,  // measure 40
0011
0000
0100
0000
1100
0000
0010
0001
,  // measure 41
1000
0000
1001
0000
0100
0000
0010
1000
,  // measure 42
0001
0000
1001
0000
0010
0000
0100
0010
,  // measure 43
1001
0100
0101
0010
,  // measure 44
1001
0000
0100
0000
0010
0100
0010
0000
,  // measure 45
0101
0000
0010
0000
1001
0000
0100
0010
,  // measure 46
0001
0100
1010
0100
,  // measure 47
1001
0000
0010
0000
0100
0010
1001
0000
,  // measure 48
0010
0100
1001
0000
1000
0001
0110
0000
,  // measure 49
0001
1000
0110
0000
0001
0110
0000
1000
,  // measure 50
0110
0000
0001
0110
0000
1000
0110
0000
,  // measure 51
1001
0100
1001
0000
1010
0100
1001
0000
,  // measure 52
0110
0000
0101
0000
0011
0100
1001
0000
,  // measure 53
0110
0000
1100
0000
0110
0000
0001
0101
,  // measure 54
0000
1000
1100
0000
0001
0101
0000
0000
,  // measure 55
1010
0100
1001
0000
0002
0000
0023
0000
,  // measure 56
2030
0000
3200
0000
1300
0010
2000
0000
,  // measure 57
3020
0000
0032
0000
0203
0000
0301
0010
,  // measure 58
0100
0000
0000
0000
0000
0000
0000
0001
0000
0000
0000
0000
0000
1000
0000
0000
0010
0000
0000
0000
0000
0000
0000
0001
0000
0000
0000
0000
0000
1000
0000
0000
,  // measure 59
0100
0000
0000
0000
0000
0000
0000
0000
0000
0000
0000
0000
0000
0001
0000
0000
0000
0000
0000
0000
0000
0000
0000
1000
0000
0000
0000
0000
0000
0000
0000
0000
,  // measure 60
0100
0000
0000
0000
0000
0000
0000
0010
0000
0000
0000
0000
0000
1000
0000
0000
0000
0000
0000
0000
0000
0000
0000
0000
0000
0000
0000
0000
0000
0000
0000
0001
,  // measure 61
0000
0000
0000
0000
0000
0000
0000
0000
0000
0010
0000
0100
0000
0000
0000
0000
,  // measure 62
0000
0000
0000
0000
0000
1100
0000
0000
0000
0000
0000
0011
0000
0000
0000
0000
,  // measure 63
1000
0100
1000
0000
0011
0000
0100
0000
,  // measure 64
1100
0000
0010
0001
1000
0000
1001
0000
,  // measure 65
0100
0000
0010
1000
0001
0000
1001
0000
,  // measure 66
0010
0000
0100
0010
1001
0000
0100
0000
,  // measure 67
0101
0010
1001
0100
,  // measure 68
1001
0000
0000
0000
0000
0110
0000
0000
0000
0000
1001
0000
0000
0000
0000
0000
,  // measure 69
1010
0100
1001
0000
0101
0100
1001
0000
,  // measure 70
1000
0100
0000
0000
0000
0000
0000
0000
0001
0100
0000
0000
0000
0000
0000
0000
,  // measure 71
1000
1010
0000
0001
0011
0000
0110
0000
,  // measure 72
1000
0100
0000
0001
0100
0000
0110
0000
,  // measure 73
0001
0011
0000
1000
1010
0000
0110
0000
,  // measure 74
0001
0101
0000
1000
1100
0000
0110
0000
,  // measure 75
1001
0100
0101
0000
1001
0100
1100
0000
,  // measure 76
1001
0010
0011
0000
1001
0010
1010
0000
,  // measure 77
0100
1000
0010
1000
0100
0001
0100
1000
,  // measure 78
0010
0001
0010
0100
0001
0010
1000
0010
,  // measure 79
0100
1000
0100
0001
0100
1000
0010
0001
,  // measure 80
0010
1000
0100
0001
0100
1000
0010
0001
,  // measure 81
0010
0100
0001
0010
1000
0010
0001
1000
,  // measure 82
0100
0010
1000
0010
0001
0100
0010
1000
,  // measure 83
0100
0010
0100
0001
0100
0010
0100
1000
,  // measure 84
0001
0010
0001
1000
0001
0100
0001
1000
,  // measure 85
0010
0100
0010
0001
0010
0100
0010
1000
,  // measure 86
0100
1000
0100
0010
0100
0001
0100
0010
,  // measure 87
1000
0010
1000
0001
0100
0001
0100
1000
,  // measure 88
0010
0100
0010
0001
0010
0100
0001
0000
,  // measure 89
0000
0000
2002
0000
,  // measure 90
0000
0000
0000
0000
,  // measure 91
0000
0000
3003
0000
;

//---------------dance-double - ----------------
#NOTES:
     dance-double:
     :
     Easy:
     10:
     0.389777,0.617012,0.622458,0.031123,0.000000,263.000000,203.000000,60.000000,3.000000,0.000000,0.000000,0.389777,0.617012,0.622458,0.031123,0.000000,263.000000,203.000000,60.000000,3.000000,0.000000,0.000000:
00000000
00000000
00000000
00000000
,
00000000
00000000
00000000
00000000
,
00000000
00000000
00000000
00000000
,
00000000
00000000
00000000
00000000
,
00000000
00000000
00000000
00000000
,
00000000
00000000
00000000
00000000
,
00000000
00000000
00000000
00000000
,
00000000
00000000
00000000
00000000
,
00000000
00000000
00000000
00000000
,
00000000
00000000
01000000
00000000
,
01010000
00000000
00010000
00000000
,
00001000
00000000
00011000
00000000
,
00000000
00000010
00000001
00000000
,
00001000
00000000
00000000
00000000
00000201
00000000
00000000
00001000
,
00000000
00000001
00000000
00000000
00001000
00000000
00000000
00000001
,
00000000
00001300
00000011
00000000
,
00001001
00000000
00000000
00000100
,
00001000
00010000
00000000
00010000
,
00100000
10000000
00000000
00010000
,
00000000
10010000
01000000
00000000
,
01100000
00000000
00000000
01000000
,
00010000
00001000
00000000
00001000
,
00000010
00000001
00000100
00000000
,
00000110
00000000
00000001
00000000
,
00000000
00000100
00000000
00001000
,
00011000
00000000
00010000
00000000
,
00000000
00100000
00000000
00000000
,
10000000
10010000
10100000
00000000
,
10010000
00000000
11000000
00000000
,
01010000
00000000
00010000
00000000
,
00000000
00001000
00000000
00000000
,
00000010
00000100
00001000
00001001
,
00000000
00000000
00000000
00000001
00000000
00001001
00000000
00000000
,
00000000
00000000
00000100
00001000
,
00001100
00000000
00000000
00000000
,
00001000
00010000
00011000
00000000
,
00000000
00000000
00000000
00010000
00000000
01010000
00000000
00000000
,
00000000
01100000
00000000
11000000
,
00000000
00000000
10100000
00000000
,
10010000
00000000
00000000
01000000
,
00010000
00001000
00000000
00001000
,
00000010
00000001
00000000
00001000
,
00000000
00001001
00000100
00000000
,
00000110
00000000
00000000
00000100
,
00001000
00010000
00000000
00010000
,
00100000
10000000
01000000
00000000
,
01100000
00000000
00100000
00000000
,
01010000
00000000
01100000
00000000
,
10010000
00000000
01100000
00000000
,
00101000
00000000
00000000
00000000
00011000
00000000
00000000
00010100
,
00000000
00000000
00000110
00000000
00000000
00001001
00000000
00000000
,
00000100
00000110
00000001
00000000
,
00000100
00001001
00000100
00000000
,
00001000
00000000
00011000
00000000
01001000
00000000
00000000
01100000
,
00000000
00000000
10010000
00000000
00000000
11000000
00000000
00000000
,
00100000
01100000
10000000
01000000
,
00010000
00001000
00000100
00000001
,
00000100
00001000
00010000
01000000
,
10000000
00000000
00100000
00000000
,
00010000
00000000
00000000
00000000
,
00000010
00000000
00000000
00000000
,
00000001
00000000
00000000
00000000
,
00000000
00000000
00000000
00000000
,
00000011
00000000
00001001
00000000
,
00000000
00000100
00001000
00010000
,
00000000
00010000
00100000
10000000
,
00000000
00010000
00000000
10010000
,
01000000
00000000
01100000
00000000
,
01010000
00000000
00011000
00000000
,
00001000
00000010
00000001
00000000
,
00000110
00000000
00001001
00000000
,
00000010
00000000
00000000
00001010
00000000
00000000
00000000
00000000
,
00000100
00000000
00000000
00011000
00000000
00000000
00000000
00000000
,
00001000
00000000
00000000
00101000
00000000
00000000
00000000
00000000
,
01000000
00000000
00000000
01100000
00000000
00000000
00000000
00000000
,
11000000
00000000
00101000
00000000
,
00010100
00000000
00001010
00000000
,
00000001
00000100
00001000
00010000
,
01000000
00010000
00001000
00010000
,
00100000
10000000
01000000
00010000
,
00001000
00000100
00001000
00010000
,
00001000
00000010
00000001
00000100
,
00001000
00010000
00100000
10000000
,
01000000
00100000
00001000
00010000
,
00000100
00000010
00000001
00000010
,
00000100
00010000
00001000
01000000
,
00100000
10000000
00100000
00010000
,
00001000
00000100
00000001
00000100
,
00001000
00010000
00100000
10000000
,
00000000
00000000
20020000
00000000
,
00000000
00000000
00000000
00000000
,
00000000
00000000
30030000
00000000
,
00000000
00000000
00000000
00000000
;

//---------------dance-double - ----------------
#NOTES:
     dance-double:
     :
     Medium:
     11:
     0.441649,0.617012,0.404598,0.114117,0.072620,298.000000,259.000000,39.000000,11.000000,0.000000,0.000000,0.441649,0.617012,0.404598,0.114117,0.072620,298.000000,259.000000,39.000000,11.000000,0.000000,0.000000:
00000000
00000000
00000000
00000000
,
00000000
00000000
00000000
00000000
,
00000000
00000000
00000000
00000000
,
00000000
00000000
00000000
00000000
,
00000000
00000000
00000000
00000000
,
00000000
00000000
00000000
00000000
,
00000000
00000000
00000000
00000000
,
00000000
00000000
00000000
00000000
,
00000000
00000000
00000000
00000000
,
00000000
00000000
01000000
00000000
,
00100000
00000000
10000000
01000000
,
00010000
00000000
00011000
00000000
,
00000000
00001000
00000010
00000000
,
00000001
00000000
00000000
00000000
00000200
00000000
00000000
00001000
,
00000000
00000001
00000000
00000000
00000010
00000000
00000000
00000001
,
00000000
00001300
00000100
00000000
,
00001000
00000000
00010000
00100000
,
00010000
00001000
00000000
01000000
,
00100000
10000000
00000000
00010000
,
00000000
10000000
01000000
00000000
,
01100000
00000000
00100000
00001000
,
00010000
00000100
00000000
00000010
,
00000001
00001000
00001001
00000000
,
00000110
00000000
00000001
00000100
,
00000101
00000100
00001000
00001100
,
00001000
00011000
00100000
10000000
,
10100000
10000000
01000000
11000000
,
00010000
00000000
00011000
00000000
00001000
00000010
00000000
00000000
,
00000010
00000100
00000000
00000000
00000100
00010000
00000000
00000000
,
00010000
00001000
00000000
00000000
01001000
00000000
00000000
01100000
,
00000000
00000000
10010000
00000000
00000000
11000000
00000000
00000000
,
00100000
00011000
00000100
00000010
,
00000000
00000000
00000000
00000001
00001000
00000000
00000000
00000000
,
00000000
00000000
00000000
00000100
00000010
00000000
00000001
00000000
,
00000100
00001000
00010000
00000000
,
00001000
00010000
01000000
10000000
,
00000000
00000000
00000000
00100000
00000000
01000000
00000000
00000000
,
00000000
00000000
00100000
10000000
00000000
01000000
00100000
00000000
,
00001000
00010000
00000000
00000000
00001000
00000000
00000100
00000000
,
00000110
00000000
00000010
00000000
,
00010000
00000000
00001000
00010000
,
00001000
01000000
00000000
00100000
,
01000000
00010000
00000000
10000000
,
00000000
01000000
00100000
00000000
,
10010000
00000000
01000000
00001000
,
00010000
00000010
00000000
00000100
,
00000001
00001000
00001001
00000000
,
00000110
00000000
00000000
00000000
00000010
00000001
00000000
00000000
,
00000001
00000100
00000000
00000000
00000100
00001000
00000000
00000000
,
00001000
00010000
00000000
00000000
00100000
00000000
00000000
10010000
,
00000000
00000000
01010000
00000000
00000000
00100000
00000000
00000000
,
10010000
00000000
11000000
00000000
01000000
00100000
00000000
00000000
,
00001000
00000000
00011000
00000000
00010000
00001000
00000000
00000000
,
00000100
00000000
00000110
00000000
00000010
00000000
00000000
00000101
,
00000000
00000000
00000110
00000000
00000000
00001010
00000000
00000000
,
00001001
00000110
00000020
00000032
,
00000203
00002300
00013000
00002000
,
00023000
02030000
23000000
30010000
,
00100000
00000000
00000000
00000000
00000000
00000000
00000000
00010000
00000000
00000000
00000000
00000000
00000000
10000000
00000000
00000000
01000000
00000000
00000000
00000000
00000000
00000000
00000000
00010000
00000000
00000000
00000000
00000000
00000000
00001000
00000000
00000000
,
00000010
00000000
00000000
00000000
00000000
00000000
00000000
00000000
00000000
00000000
00000000
00000000
00000000
00000001
00000000
00000000
00000000
00000000
00000000
00000000
00000000
00000000
00000000
00001000
00000000
00000000
00000000
00000000
00000000
00000000
00000000
00000000
,
00000010
00000000
00000000
00000000
00000000
00000000
00000000
00000100
00000000
00000000
00000000
00000000
00000000
00000001
00000000
00000000
00000000
00000000
00000000
00000000
00000000
00000000
00000000
00000000
00000000
00000000
00000000
00000000
00000000
00000000
00000000
00000100
,
00000000
00000000
00000000
00000000
00000000
00000000
00000000
00000000
00000000
00001000
00000000
00010000
00000000
00000000
00000000
00000000
,
00000000
00000000
00000000
00000000
00000000
00010010
00000000
00000000
00000000
00000000
00000000
00001001
00000000
00000000
00000000
00000000
,
00000100
00000000
00001000
00000000
,
00010000
00100000
00010000
00001000
,
00000000
01000000
00100000
10000000
,
00000000
00010000
00000000
10000000
,
01000000
00000000
01100000
00000000
,
00000000
00000000
00000000
00000000
00000000
00010000
00000000
00000000
00000000
00000000
00010000
00000000
00000000
00000000
00000000
00000000
,
00001000
00000010
00000100
00000001
,
00000100
00000000
00001001
00000000
,
00000101
00000000
00000000
00000100
00000000
00000000
00001000
00000000
,
00011000
00000000
00000000
00100000
00000000
00000000
10000000
00000000
,
11000000
00000000
00000000
01000000
00000000
00000000
00010000
00000000
,
00011000
00000000
00000000
00000100
00000000
00000000
00000010
00000000
,
00001000
00000100
00000000
00000000
00000010
00000001
00000000
00000000
,
00000100
00001000
00000000
00000000
00010000
00100000
00000000
00000000
,
10000000
01000000
00010000
00001000
,
00000100
00001000
00010000
00001000
,
00000010
00000001
00000100
00001000
,
00010000
01000000
00010000
00001000
,
00010000
00100000
10000000
01000000
,
00010000
00001000
00000010
00000001
,
00000100
00000010
00010000
00001000
,
01000000
00100000
10000000
00100000
,
01000000
00001000
00010000
00000100
,
00000010
00000001
00000010
00001000
,
00010000
01000000
10000000
01000000
,
00010000
00001000
00000010
00000001
,
00000000
00000000
00002002
00000000
,
00000000
00000000
00000000
00000000
,
00000000
00000000
00003003
00000000
,
00000000
00000000
00000000
00000000
;

//---------------dance-double - ----------------
#NOTES:
     dance-double:
     :
     Hard:
     16:
     0.600228,0.806862,0.363101,0.114117,0.072620,405.000000,370.000000,35.000000,11.000000,0.000000,0.000000,0.600228,0.806862,0.363101,0.114117,0.072620,405.000000,370.000000,35.000000,11.000000,0.000000,0.000000:
00000000
00000000
00000000
00000000
,
00000000
00000000
00000000
00000000
,
00000000
00000000
00000000
00000000
,
00000000
00000000
00000000
00000000
,
00000000
00000000
00000000
00000000
,
00000000
00000000
00000000
00000000
,
00000000
00000000
00000000
00000000
,
00000000
00000000
00000000
00000000
,
00000000
00000000
00000000
00000000
,
00000000
00000000
01000000
00000000
,
01100000
00000000
00100000
00010000
,
00001000
00000000
00011000
00000000
,
00000000
00010000
00000100
00000000
,
00000110
00000000
00000000
00000000
00000020
00000000
00000000
00000001
,
00000000
00001000
00000000
00000000
00000100
00000000
00000000
00000001
,
00000000
00001030
00000010
00000001
,
00000100
00000000
00000110
00000100
,
00001000
00010000
00000000
00010000
,
00100000
10000000
00000000
10000000
,
01000000
10000000
01000000
00000000
,
01100000
00000000
01000000
00010000
,
00001000
00000010
00000000
00000010
,
00000001
00001000
00001100
00000000
,
00000011
00000000
00000000
00000000
00000010
00000001
00000100
00000000
,
00000101
00000000
00000100
00001000
00010000
00000000
00011000
00000000
,
00010000
00100000
10000000
00000000
10000000
01000000
00010000
00000000
,
01010000
00000000
00010000
00001000
00000100
00000000
00001100
00000000
,
00000100
00000001
00000010
00000000
00000010
00001000
00010000
00000000
,
00001000
00010000
00100000
00000000
01000000
00010000
00001000
00000000
,
00010000
00001000
00000100
00000000
00000010
00000001
00000000
00000001
,
00000100
00000000
00000100
00001000
00000000
00001000
00010000
00000000
,
00011000
00000000
01001000
00000000
00100000
10000000
00100000
01000000
,
00000000
00000000
00000000
01000000
00100000
10000000
00010000
01000000
,
00000000
00000000
00000000
00001000
00010000
00000000
00001000
00000000
,
00001000
00010000
00010000
00000100
,
00000010
00000001
00000010
00000100
00010000
00001000
00010000
00000000
,
00000000
00000000
00000000
00010000
00001000
01000000
00100000
10000000
,
00000000
00000000
10000000
01000000
00000000
01000000
00010000
00000000
,
00010000
00001000
00000000
00000000
00000010
00000001
00001000
00000010
,
00000100
00001000
00010000
00000000
01000000
00000000
10000000
00000000
,
00100000
00000000
01100000
00100000
,
00010000
00001000
00000000
00001000
,
00000100
00000001
00000000
00000001
,
00000010
00000001
00000010
00000000
,
00000110
00000000
00000010
00001000
,
00010000
01000000
00000000
01000000
,
10000000
00010000
00110000
00000000
,
11000000
00000000
00000000
00000000
00100000
00010000
00100000
00000000
,
00001000
00010000
00001000
00000000
00010000
00000100
00010000
00000000
,
00000100
00000010
00000100
00000000
00000010
00000001
00000000
00000001
,
00000100
00000000
00000100
00001000
00000000
00001000
00010000
00000000
,
00011000
00000000
01001000
00000000
00100000
01000000
00100000
00000000
,
10000000
00000000
11000000
00000000
01000000
00010000
01000000
00000000
,
00010000
00000000
00011000
00000000
00000010
00000000
00000001
00000100
,
00000000
00000100
00001000
00000000
00001000
00010000
00000000
00000000
,
01100000
10010000
20000000
32000000
,
03020000
00000000
00032000
00000000
00003010
00000100
00000020
00000000
,
00000032
00000000
00000203
00000000
00002300
00000000
00013000
01000000
,
00100000
00000000
00000000
00000000
00000000
00000000
00000000
00010000
00000000
00000000
00000000
00000000
00000000
10000000
00000000
00000000
01000000
00000000
00000000
00000000
00000000
00000000
00000000
00010000
00000000
00000000
00000000
00000000
00000000
00001000
00000000
00000000
,
00000010
00000000
00000000
00000000
00000000
00000000
00000000
00000000
00000000
00000000
00000000
00000000
00000000
00000001
00000000
00000000
00000000
00000000
00000000
00000000
00000000
00000000
00000000
00000100
00000000
00000000
00000000
00000000
00000000
00000000
00000000
00000000
,
00001000
00000000
00000000
00000000
00000000
00000000
00000000
00010000
00000000
00000000
00000000
00000000
00000000
00001000
00000000
00000000
00000000
00000000
00000000
00000000
00000000
00000000
00000000
00000000
00000000
00000000
00000000
00000000
00000000
00000000
00000000
00000100
,
00000000
00000000
00000000
00000000
00000000
00000000
00000000
00000000
00000000
00000010
00000000
00001000
00000000
00000000
00000000
00000000
,
00000000
00000000
00000000
00000000
00000000
00000011
00000000
00000000
00000000
00000000
00000000
00001100
00000000
00000000
00000000
00000000
,
00000010
00000001
00000100
00000000
,
00000110
00000100
00001000
00010000
,
00000000
00010000
00100000
10000000
,
00000000
10000000
01000000
10000000
,
01000000
00000000
01100000
00000000
,
00010000
00000000
00000000
00000000
00000000
00011000
00000000
00000000
00000000
00000000
00001010
00000000
00000000
00000000
00000000
00000000
,
00000010
00000001
00000100
00001000
,
00010000
00000000
00011000
00000000
,
00100000
10000000
00000000
10000000
01000000
00000000
00110000
00000000
,
10000000
01000000
00000000
01000000
00010000
00000000
00011000
00000000
,
00001000
00000100
00000000
00000100
00000001
00000000
00001010
00000000
,
00000001
00000100
00000000
00000100
00001000
00000000
00011000
00000000
,
01000000
00100000
01000000
00000000
00010000
10000000
00010000
00000000
,
10000000
01000000
00010000
00000000
00010000
00001000
00000010
00000000
,
00000001
00000100
00001000
00000100
00001000
00010000
01000000
00010000
,
01000000
10000000
00100000
00010000
00100000
00010000
00001000
00000010
,
00001000
00000010
00000001
00000100
00001000
00010000
01000000
10000000
,
00100000
10000000
01000000
00010000
00001000
00010000
00000010
00000100
,
00000001
00000010
00000100
00010000
00001000
00100000
00010000
10000000
,
01000000
00010000
00001000
00010000
00001000
00000100
00000010
00001000
,
00000001
00000100
00001000
00000100
00000001
00000010
00001000
00010000
,
01000000
00010000
00001000
00010000
00100000
10000000
01000000
00100000
,
00001000
00010000
00000100
00000010
00000100
00010000
00001000
00010000
,
00100000
00010000
00001000
00000100
00000010
00010000
00001000
00000010
,
00000001
00000100
00001000
00010000
01000000
00100000
00001000
01000000
,
00100000
00010000
00001000
00000100
00001000
00010000
00001000
00000000
,
00000000
00000000
00022000
00000000
,
00000000
00000000
00000000
00000000
,
00000000
00000000
00033000
00000000
,
00000000
00000000
00000000
00000000
;

//---------------dance-double - ----------------
#NOTES:
     dance-double:
     :
     Challenge:
     17:
     0.755842,0.854324,0.902565,0.114117,0.067433,510.000000,423.000000,87.000000,11.000000,0.000000,0.000000,0.755842,0.854324,0.902565,0.114117,0.067433,510.000000,423.000000,87.000000,11.000000,0.000000,0.000000:
00000000
00000000
00000000
00000000
,
00000000
00000000
00000000
00000000
,
00000000
00000000
00000000
00000000
,
00000000
00000000
00000000
00000000
,
00000000
00000000
00000000
00000000
,
00000000
00000000
00000000
00000000
,
00000000
00000000
00000000
00000000
,
00000000
00000000
00000000
00000000
,
00000000
00000000
00000000
00000000
,
00000000
00000000
10100000
01000000
,
01100000
00000000
00000000
00000000
00100000
00001000
00100000
00000000
,
00011000
00001000
00010100
00000000
,
00000000
00001000
00000110
00000001
,
00001001
00000000
00000000
00000000
00000200
00000000
00000000
00001000
,
00000000
00000001
00000000
00000000
00000010
00000000
00000000
00000001
,
00000000
00000000
00001300
00000000
00000010
00000100
00000010
00000000
,
00001100
00000000
00001000
00000000
00011000
00000000
00100000
00001000
,
00010000
00000000
00011000
00000000
01000000
00000000
00100000
10000000
,
00010000
00000000
10010000
00000000
00100000
00000000
10000000
01000000
,
01100000
00010000
00011000
00001000
,
00010100
00000000
00001000
00000000
00000010
00000100
00000010
00000000
,
00000101
00000000
00000010
00000000
00000110
00000000
00000100
00001000
,
00000100
00000010
00010010
00001000
,
00011000
00000000
00010000
00000000
00000100
00010000
00001000
00000000
,
00101000
00000000
00010000
00100000
00010000
00000000
10010000
00000000
,
01000000
00100000
10100000
00000000
00100000
10000000
01000000
00000000
,
11000000
00000000
01000000
00010000
00001000
00000000
00011000
00000000
,
00001000
00000100
00001000
00000000
00000100
00000001
00000101
00000000
,
00000001
00000010
00000011
00000000
00000010
00001000
00001010
00000000
,
00001000
00010000
00011000
00000000
00010000
00010100
00000000
00001000
,
01001000
00000000
00010000
00010010
00000000
00001000
00101000
00000000
,
00011000
00000000
00011000
00000000
00010000
00100000
00010000
01100000
,
00000000
00000000
00000000
00100000
10000000
00100000
10000000
11000000
,
00000000
00000000
00000000
01000000
01100000
00000000
01010000
00000000
,
00011000
00000000
00010000
00001000
00001010
00000000
00000110
00000000
,
00000100
00000010
00000001
00000010
00000100
00000010
00000011
00000000
,
00000000
00000000
00000000
00000001
00000010
00001000
00000010
00000001
,
00000000
00000000
00000001
00000101
00000000
00000100
00001100
00000000
,
00001000
00011000
00000000
00000000
00010000
01000000
00010000
00001000
,
00010000
01000000
01010000
00000000
01000000
00100000
01000000
00000000
,
00110000
00000000
00001000
00000000
00011000
00000000
00000100
00010000
,
00001000
00000000
00011000
00000000
00000010
00000000
00000100
00000001
,
00001000
00000000
00001001
00000000
00000100
00000000
00000001
00000010
,
00000110
00001000
00011000
00010000
,
00101000
00000000
00010000
00000000
01000000
00100000
01000000
00000000
,
10100000
00000000
01000000
00000000
01100000
00000000
00100000
00010000
,
00100000
01000000
01001000
00010000
,
00011000
00000000
00001000
00000000
00010000
01000000
01010000
00000000
,
01000000
10000000
11000000
00000000
10000000
00100000
10100000
00000000
,
00100000
00010000
00110000
00000000
00010000
00001000
00000000
00001000
,
00000100
00000000
00000100
00000001
00000000
00000001
00000100
00000000
,
00000100
00001000
00001100
00000000
00000100
00001000
00010000
00000000
,
00001000
00000000
00011000
00000000
00001000
00010000
00100000
00000000
,
00010000
00000000
00110000
00000000
01100000
00000000
00010000
01010000
,
00000000
10000000
11000000
00000000
01000000
01010000
00000000
00000000
,
01000000
00010000
00001000
00000000
00020000
00000000
00032000
00000000
,
00003200
00000000
00000302
00000000
00000013
00000100
00000020
00000000
,
00002030
00000000
00023000
00000000
02030000
00000000
03100000
10000000
,
01000000
00000000
00000000
00000000
00000000
00000000
00000000
00010000
00000000
00000000
00000000
00000000
00000000
00001000
00000000
00000000
00000100
00000000
00000000
00000000
00000000
00000000
00000000
00000001
00000000
00000000
00000000
00000000
00000000
00000010
00000000
00000000
,
00001000
00000000
00000000
00000000
00000000
00000000
00000000
00000000
00000000
00000000
00000000
00000000
00000000
00010000
00000000
00000000
00000000
00000000
00000000
00000000
00000000
00000000
00000000
00100000
00000000
00000000
00000000
00000000
00000000
00000000
00000000
00000000
,
10000000
00000000
00000000
00000000
00000000
00000000
00000000
00100000
00000000
00000000
00000000
00000000
00000000
00010000
00000000
00000000
00000000
00000000
00000000
00000000
00000000
00000000
00000000
00000000
00000000
00000000
00000000
00000000
00000000
00000000
00000000
00001000
,
00000000
00000000
00000000
00000000
00000000
00000000
00000000
00000000
00000000
00000100
00000000
00000010
00000000
00000000
00000000
00000000
,
00000000
00000000
00000000
00000000
00000000
00000101
00000000
00000000
00000000
00000000
00000000
00001010
00000000
00000000
00000000
00000000
,
00000010
00000100
00000010
00000000
00001100
00000000
00001000
00000000
,
00011000
00000000
00100000
00001000
00010000
00000000
00011000
00000000
,
01000000
00000000
00100000
10000000
00010000
00000000
10010000
00000000
,
00100000
00000000
10000000
01000000
01100000
00000000
00010000
00000000
,
00011000
00001000
00010100
00001000
,
00000010
00000100
00000010
00000000
00000101
00000000
00000010
00000000
,
00000110
00000000
00000100
00001000
00000100
00000000
00000010
00000000
,
00010010
00001000
00011000
00010000
,
00100000
10000000
00000000
10000000
01000000
10000000
11000000
00000000
,
10000000
01000000
00000000
01000000
00010000
01000000
01010000
00000000
,
00010000
00001000
00000000
00001000
00000010
00001000
00001010
00000000
,
00000010
00000001
00000000
00000001
00000100
00000001
00000001
00000000
,
00000100
00000010
00000110
00000000
00000010
00010000
00010010
00000000
,
00001000
00010000
00011000
00000000
00001000
01000000
01001000
00000000
,
00001000
01000000
00100000
10000000
01000000
00010000
01000000
10000000
,
00100000
00010000
00001000
00010000
00000100
00000010
00000001
00000100
,
00001000
00000100
00000001
00000010
00001000
00000010
00000001
00000100
,
00001000
00010000
00001000
01000000
00010000
00100000
01000000
00010000
,
00001000
00010000
00000100
00000010
00000001
00000100
00000010
00000100
,
00001000
00010000
00100000
00010000
00001000
01000000
00100000
10000000
,
01000000
00010000
01000000
00100000
00001000
00010000
00001000
01000000
,
00100000
10000000
01000000
00010000
01000000
10000000
00100000
01000000
,
00100000
00010000
00001000
00010000
00100000
01000000
00001000
00010000
,
00001000
00000010
00000001
00000010
00000100
00001000
00000001
00000100
,
00000010
00010000
00001000
01000000
00010000
00100000
00001000
00010000
,
00000100
00000010
00000001
00000100
00000001
00000010
00001000
00000000
,
00000000
00000000
00022000
00000000
,
00000000
00000000
00000000
00000000
,
00000000
00000000
00033000
00000000
,
00000000
00000000
00000000
00000000
;

//---------------dance-single - NGO----------------
#NOTES:
     dance-single:
     :
     Edit:
     1:
     0.066692,0.184922,0.051872,0.010374,0.046684,45.000000,40.000000,5.000000,1.000000,0.000000,0.000000,0.066692,0.184922,0.051872,0.010374,0.046684,45.000000,40.000000,5.000000,1.000000,0.000000,0.000000:
// measure 0
0000
0000
0000
0000
,  // measure 1
0000
0000
0000
0000
,  // measure 2
0000
0000
0000
0000
,  // measure 3
0000
0000
0000
0000
,  // measure 4
0000
0000
0000
0000
,  // measure 5
0000
0000
0000
0000
,  // measure 6
0000
0000
0000
0000
,  // measure 7
0000
0000
0000
0000
,  // measure 8
0000
0000
0000
0000
,  // measure 9
0000
0000
1001
0001
,  // measure 10
0101
0000
0000
0000
1000
0001
1000
0010
,  // measure 11
1000
0000
0100
0000
0010
0001
0010
0000
,  // measure 12
0001
1000
1001
0001
,  // measure 13
0101
0000
0000
0000
0000
0000
0000
0000
0100
0000
0000
0000
0000
0000
0000
0000
0020
0000
0000
0000
0000
0000
0000
0000
0000
0000
0000
0000
1030
0001
1000
0001
,  // measure 14
1000
0000
0010
1000
0010
1000
0010
0000
0100
0001
0100
0001
0100
0000
0001
0010
,  // measure 15
0001
0010
0001
0000
0000
0000
0000
0000
1001
0000
0000
0000
0000
0000
0000
0000
;
