#TITLE:Midnight Blaze;
#SUBTITLE:SySF Mix;
#ARTIST:System S.F.;
#TITLETRANSLIT:;
#SUBTITLETRANSLIT:;
#ARTISTTRANSLIT:;
#GENRE:;
#CREDIT:;
#BANNER:Midnight Blaze (SySF Mix).png;
#BACKGROUND:Midnight Blaze (SySF Mix)-bg.png;
#LYRICSPATH:Midnight Blaze (SySF Mix).lrc;
#CDTITLE:;
#MUSIC:Midnight Blaze (SySF Mix).mp3;
#OFFSET:-0.024000;
#SAMPLESTART:71.042000;
#SAMPLELENGTH:12.000000;
#SELECTABLE:YES;
#BPMS:0.000000=152.000000
;
#STOPS:
;
#BGCHANGES:;
#KEYSOUNDS:;
#ATTACKS:;

//---------------dance-single - ----------------
#NOTES:
     dance-single:
     :
     Easy:
     4:
     0.194591,0.272866,0.131819,0.096668,0.000000,155.000000,140.000000,15.000000,11.000000,0.000000,0.000000,0.194591,0.272866,0.131819,0.096668,0.000000,155.000000,140.000000,15.000000,11.000000,0.000000,0.000000:
0000
0000
0000
0000
,
0000
0000
0000
0000
,
0000
0000
0000
0000
,
0000
0000
0000
0000
,
1000
0000
0001
0000
,
0200
0000
0300
0000
,
0001
0000
0010
0000
,
0200
0000
0300
0000
,
1000
0000
0001
0000
,
0100
0000
0010
0010
,
0100
0000
0001
0000
,
1000
0000
0010
0010
,
1000
0000
0001
0000
,
1000
0000
0001
0001
,
0010
0000
0100
0000
,
0020
0000
0030
0000
,
0001
0000
1000
0000
,
0200
0000
0300
0000
,
1000
0000
0010
0000
,
0200
0000
0300
0000
,
0001
0000
1000
0000
,
0002
0000
0003
0000
,
0010
0000
0100
0000
,
0020
0000
0030
0000
,
0001
0000
0010
0000
,
0100
0100
0100
0000
,
1000
0000
0001
0000
,
1000
1000
1000
0000
,
0010
0000
0100
0000
,
0001
0001
0001
0000
,
0100
0000
0010
0000
,
1000
1000
1000
0000
,
0001
0000
0100
0000
,
0010
0000
0110
0000
,
1000
0000
0001
0000
,
0100
0000
1001
0000
,
1000
0000
0001
0000
,
0010
0000
0110
0000
,
0100
0000
1000
0000
,
0001
0000
1001
0000
,
2000
0000
3000
0000
,
0002
0000
0003
0000
,
0200
0000
0300
0000
,
0020
0000
0030
0000
,
0110
0000
0000
0000
,
0010
0010
0010
0000
,
0001
1000
0001
1000
,
0010
0000
0100
0000
,
0110
0000
0000
0000
,
1000
1000
1000
0000
,
0001
0100
0001
0100
,
0010
0000
1000
0000
,
0001
0000
0100
0000
,
0010
1000
1000
0000
,
0100
0000
0010
0000
,
0001
1000
0001
1000
,
1001
0000
0000
0000
,
0100
0010
0010
0000
,
1000
0001
0001
0000
,
1000
0000
0100
0000
,
0010
0000
0001
0001
,
0001
0000
1000
0000
,
0001
0000
1001
1001
,
1000
0000
0010
0000
,
0100
0000
0110
0110
,
0010
0000
1000
0000
,
0001
0000
1001
1001
,
1000
0000
0100
0000
,
0010
0000
0110
0110
,
0010
0000
0000
0000
;

//---------------dance-single - ----------------
#NOTES:
     dance-single:
     :
     Medium:
     8:
     0.308834,0.424459,0.131819,0.000000,0.000000,246.000000,231.000000,15.000000,0.000000,0.000000,0.000000,0.308834,0.424459,0.131819,0.000000,0.000000,246.000000,231.000000,15.000000,0.000000,0.000000,0.000000:
0000
0000
0000
0000
,
0000
0000
0000
0000
,
0000
0000
0000
0000
,
0000
0000
0000
0000
,
1000
0000
0001
0000
,
0100
0000
0000
0000
0010
1000
0010
0000
,
1000
0000
0100
0000
,
0010
0000
0000
0000
0001
1000
0001
0000
,
1000
0000
0001
0000
,
0100
0010
1000
0001
,
0001
0000
1000
0000
,
0010
1000
0100
0010
,
0010
0000
0100
0000
,
1000
0001
1000
0100
,
0100
0000
1000
0000
,
0001
0000
1000
0000
0100
1000
0010
0000
,
0100
0100
0001
0001
,
1000
0000
0000
0000
0001
0100
1000
0000
,
0100
0100
0001
0001
,
0010
0000
0000
0000
0001
0010
0100
0000
,
0001
0001
1000
1000
,
0001
0000
0000
0000
1000
0100
0001
0000
,
0100
0100
1000
1000
,
0010
0000
1000
0100
0010
0001
0010
0000
,
0011
0010
1100
0100
,
0011
0000
0000
0000
1000
0001
0100
0000
,
1010
1000
0101
0001
,
1010
0000
0000
0000
1000
0001
0010
0000
,
1100
0100
0110
0010
,
0011
0000
0000
0000
1000
0010
0100
0000
,
0101
0001
0110
1000
,
1010
0000
0000
0000
0001
1000
0100
0010
,
0001
0000
1000
0000
,
0001
0000
1000
0001
,
0100
0000
0010
0000
,
0100
0000
0001
1000
,
0010
0000
0100
0000
,
0001
0000
1000
0100
,
0010
0000
0001
0000
,
1000
0000
0001
0100
,
0010
0000
1000
1000
,
0100
0100
0010
0010
,
0001
0000
0001
0001
,
0100
0100
0010
0010
,
1000
0000
0000
0000
,
0001
1000
0100
0000
,
0010
0000
0001
0000
0100
0001
0100
0000
,
0001
1000
0100
0010
,
0001
1000
0001
0000
0000
0000
1000
0000
,
0001
0100
0010
0000
,
1000
0000
0100
0010
0100
0000
0000
0000
,
1000
0001
0100
0010
,
1000
0000
0001
1000
,
0100
0010
0001
0000
,
1000
0000
0010
1000
0010
0000
0100
0000
,
0001
0100
0010
1000
,
0100
0010
0100
0000
0000
0000
1000
0000
,
0010
0100
0001
0000
,
1000
0100
0001
0000
,
0100
0000
1000
0000
0001
0000
0010
0100
,
0010
0000
0001
1000
,
0001
0000
1001
0000
,
0100
0000
1000
0000
0001
0100
0010
0000
,
1000
0000
1100
0000
,
0010
0000
0001
0000
1000
0001
0100
0000
,
0001
0000
0101
0000
,
0010
0000
1000
0000
0100
1000
0001
0000
,
1000
1000
0001
0001
,
0100
0000
0100
0000
0001
0100
0010
1000
,
0001
0000
0000
0000
;

//---------------dance-single - ----------------
#NOTES:
     dance-single:
     :
     Hard:
     14:
     0.645288,0.879236,0.298791,0.017576,0.558036,514.000000,480.000000,34.000000,2.000000,0.000000,0.000000,0.645288,0.879236,0.298791,0.017576,0.558036,514.000000,480.000000,34.000000,2.000000,0.000000,0.000000:
// measure 0
0000
0000
0000
0000
,  // measure 1
0000
0000
0000
0000
,  // measure 2
0000
0000
0000
0000
,  // measure 3
0000
0000
0000
0000
,  // measure 4
1000
0100
0010
1001
,  // measure 5
0001
0100
0010
1001
,  // measure 6
0010
0101
0010
1100
,  // measure 7
0010
0101
1100
1001
,  // measure 8
1000
0000
0001
0000
1000
0010
0000
0100
0010
0000
0001
0010
0000
0100
0010
0000
,  // measure 9
1000
0001
0000
0010
0001
0000
1000
0001
0000
0100
0001
0000
1000
0000
1000
0000
,  // measure 10
0010
1000
0010
1000
0010
1000
0000
0001
1000
0000
0100
1000
0000
0001
1000
0000
,  // measure 11
0001
0100
0000
0010
0100
0000
1000
0100
0000
0010
0100
0000
0001
0000
1000
0000
,  // measure 12
0001
0000
1000
0000
0001
0100
0000
0001
1000
0000
0001
0010
0000
0001
1000
0000
,  // measure 13
0010
1000
0000
0010
0100
0000
0010
0001
0000
0010
0100
0000
0010
0000
1000
0000
,  // measure 14
0100
1000
0100
1000
0100
1000
0000
0100
0010
0000
0100
0001
0000
0100
0010
0000
,  // measure 15
0001
0010
0001
0010
0100
0010
0100
0010
0100
1000
0100
1000
0001
1000
0001
1000
,  // measure 16
0001
0000
0010
0000
0100
0000
0000
1000
0000
0000
0001
0000
1000
0000
0000
0000
,  // measure 17
1000
0001
0000
1000
0100
0001
0100
0000
,  // measure 18
0010
0000
0001
0010
0001
0000
0010
0100
0000
0100
1000
0000
0001
0000
0000
0000
,  // measure 19
1000
0000
0100
0000
0010
0000
0001
1000
0000
1000
0001
0000
0100
0000
0000
0000
,  // measure 20
0010
0000
1000
0000
0001
0000
0100
0000
0010
1000
0000
1000
0000
0000
0001
0000
,  // measure 21
1000
0000
0100
0000
0010
0000
0001
0010
0001
0000
0100
0000
0010
0000
0000
0000
,  // measure 22
1000
0000
0001
0000
0100
0000
0010
0000
1000
0001
0000
0001
0000
0000
0000
0000
,  // measure 23
1000
0100
0001
0100
1000
0010
0100
0000
,  // measure 24
0001
0000
0100
0000
1000
0000
0100
0000
0001
0000
1000
0001
0000
0000
0000
0000
,  // measure 25
1000
0000
0100
0000
0001
0000
0100
0000
1000
0000
0001
1000
0000
0000
0000
0000
,  // measure 26
1001
0000
0001
0010
1000
0010
0001
0000
,  // measure 27
1000
0000
0010
0000
0001
0000
0010
0000
1000
0001
0000
0001
0000
0000
0000
0000
,  // measure 28
0110
0000
0010
0001
0100
0001
0010
0000
,  // measure 29
0002
0000
0000
0000
0003
0000
1000
0000
0010
0000
0100
0010
0000
0000
0000
0000
,  // measure 30
0100
0000
0001
0000
0010
0000
0100
0000
1000
0000
0010
1000
0000
0000
0001
0000
,  // measure 31
0100
0000
0010
0000
1000
0000
0100
0000
1000
0001
0000
0001
0000
0000
0000
0000
,  // measure 32
1000
0000
0100
0000
1000
0000
0000
0001
1000
0000
0000
0001
0000
0000
0100
0010
,  // measure 33
0100
0000
0001
0000
1000
0000
0100
0000
0010
0000
0000
0001
0000
0100
0001
0100
,  // measure 34
0001
0000
1000
0000
0010
0000
0000
0100
0010
0000
0000
1000
0000
0000
0001
1000
,  // measure 35
0001
0000
1000
0000
0100
0000
0010
0000
0001
0000
0000
1000
0000
0010
0100
0010
,  // measure 36
1000
0100
0010
0000
1001
0100
0010
0000
,  // measure 37
1001
0100
0010
1000
0001
0000
1001
0000
,  // measure 38
0110
1000
0100
0000
0110
0001
0100
0000
,  // measure 39
0210
0000
0310
1001
,  // measure 40
1000
0000
0100
0000
1000
0000
0001
0000
0100
0000
0010
0000
1000
0001
0000
0100
,  // measure 41
0000
0010
0000
1000
0001
0000
0010
0000
0100
1000
0000
0100
1000
0000
0001
0000
,  // measure 42
0100
0000
0100
0000
0100
0000
0010
1000
0000
0010
1000
0000
0001
0000
1000
0000
,  // measure 43
0100
1000
0000
1000
0000
0100
0000
0100
0000
0100
0000
0010
0000
0010
0000
0001
,  // measure 44
0000
0000
0000
0000
,  // measure 45
0011
0000
1010
0000
1001
0000
0000
0001
,  // measure 46
0000
1000
0100
0001
0100
1000
0010
0000
,  // measure 47
0101
0000
1001
0000
1010
0000
1000
0100
,  // measure 48
0000
0010
0001
0000
0000
0100
0001
0010
,  // measure 49
1100
0000
0101
0000
1001
0000
0000
1000
,  // measure 50
0000
0001
0100
0010
1000
0000
0000
0000
,  // measure 51
0001
0100
1000
0100
0001
0000
0010
0100
,  // measure 52
1000
0000
0000
0001
0000
1000
0001
0010
,  // measure 53
1100
0000
0110
0000
0011
0000
0000
0001
,  // measure 54
0000
1000
0100
0001
0100
1000
0010
0000
,  // measure 55
0101
0000
0110
0000
1010
0000
1000
0001
,  // measure 56
0000
0010
0100
0000
0000
1000
0010
0100
,  // measure 57
0011
0000
0110
0000
0101
0000
0000
1000
,  // measure 58
0000
0001
0100
1000
0100
0000
0000
0000
,  // measure 59
0001
1000
0100
1000
0010
0000
0100
0001
,  // measure 60
1000
0000
0000
0001
0000
0010
0100
1000
,  // measure 61
0001
0000
1000
0000
0001
0100
0000
0100
0010
0000
0010
1000
0000
1000
0001
0000
,  // measure 62
0001
0010
0000
0010
0100
0000
0100
1000
0000
1000
0001
0000
1000
0000
1000
0000
,  // measure 63
0010
0100
0010
0100
0010
0100
0000
0100
0001
0000
0001
1000
0000
1000
0100
0000
,  // measure 64
0100
0010
0000
0010
0001
0000
0001
0100
0000
0100
0010
0000
1000
0000
0001
0000
,  // measure 65
1000
0000
0001
0000
1000
0100
0000
0001
0010
0000
0001
0100
0000
1000
0010
0000
,  // measure 66
1000
0100
0000
0001
1000
0000
0001
0010
0000
1000
0001
0000
1000
0000
0001
0000
,  // measure 67
1000
0100
1000
0010
1000
0100
0000
0010
0001
0000
0010
1000
0000
0001
1000
0000
,  // measure 68
0001
0100
0001
0100
0010
0100
0010
0100
0010
1000
0010
1000
0001
1000
0001
1000
,  // measure 69
0100
0000
0000
0000
;

//---------------dance-double - ----------------
#NOTES:
     dance-double:
     :
     Easy:
     3:
     0.194591,0.272866,0.131819,0.096668,0.000000,155.000000,140.000000,15.000000,11.000000,0.000000,0.000000,0.194591,0.272866,0.131819,0.096668,0.000000,155.000000,140.000000,15.000000,11.000000,0.000000,0.000000:
00000000
00000000
00000000
00000000
,
00000000
00000000
00000000
00000000
,
00000000
00000000
00000000
00000000
,
00000000
00000000
00000000
00000000
,
10000000
00000000
00010000
00000000
,
02000000
00000000
03000000
00000000
,
00001000
00000000
00010000
00000000
,
00000200
00000000
00000300
00000000
,
00001000
00000000
00000001
00000000
,
00000100
00000000
00000010
00000010
,
00001000
00000000
00000001
00000000
,
00000100
00000000
00000010
00000010
,
00010000
00000000
00001000
00000000
,
01000000
00000000
00010000
00010000
,
00100000
00000000
01000000
00000000
,
20000000
00000000
30000000
00000000
,
00010000
00000000
01000000
00000000
,
00002000
00000000
00003000
00000000
,
00010000
00000000
00000010
00000000
,
00002000
00000000
00003000
00000000
,
00000001
00000000
00000100
00000000
,
00000020
00000000
00000030
00000000
,
00010000
00000000
00001000
00000000
,
00020000
00000000
00030000
00000000
,
00001000
00000000
00100000
00000000
,
01000000
01000000
01000000
00000000
,
10000000
00000000
00010000
00000000
,
00100000
00100000
00100000
00000000
,
00001000
00000000
00010000
00000000
,
00000100
00000100
00000100
00000000
,
00001000
00000000
00000010
00000000
,
00000100
00000100
00000100
00000000
,
00000001
00000000
00001000
00000000
,
00000100
00000000
00001001
00000000
,
00000100
00000000
00010000
00000000
,
00001000
00000000
00011000
00000000
,
01000000
00000000
00010000
00000000
,
00100000
00000000
01100000
00000000
,
01000000
00000000
10000000
00000000
,
00010000
00000000
10010000
00000000
,
02000000
00000000
03000000
00000000
,
00002000
00000000
00003000
00000000
,
00020000
00000000
00030000
00000000
,
00000200
00000000
00000300
00000000
,
00001001
00000000
00000000
00000000
,
00000001
00000001
00000001
00000000
,
00001000
00000100
00001000
00000100
,
00000010
00000000
00000100
00000000
,
00000110
00000000
00000000
00000000
,
00010000
00010000
00010000
00000000
,
00001000
01000000
00001000
01000000
,
00010000
00000000
00100000
00000000
,
01000000
00000000
10000000
00000000
,
00100000
10000000
10000000
00000000
,
01000000
00000000
00100000
00000000
,
00001000
00010000
00001000
00010000
,
00011000
00000000
00000000
00000000
,
00000100
00000010
00000010
00000000
,
00000001
00001000
00001000
00000000
,
00000001
00000000
00000100
00000000
,
00000010
00000000
00001000
00001000
,
00001000
00000000
00000100
00000000
,
00010000
00000000
00011000
00011000
,
00001000
00000000
01000000
00000000
,
00100000
00000000
10010000
10010000
,
10000000
00000000
00010000
00000000
,
00100000
00000000
00011000
00011000
,
00001000
00000000
00010000
00000000
,
00000100
00000000
00000110
00000110
,
00000010
00000000
00000000
00000000
;

//---------------dance-double - ----------------
#NOTES:
     dance-double:
     :
     Medium:
     5:
     0.308834,0.424459,0.131819,0.000000,0.000000,246.000000,231.000000,15.000000,0.000000,0.000000,0.000000,0.308834,0.424459,0.131819,0.000000,0.000000,246.000000,231.000000,15.000000,0.000000,0.000000,0.000000:
00000000
00000000
00000000
00000000
,
00000000
00000000
00000000
00000000
,
00000000
00000000
00000000
00000000
,
00000000
00000000
00000000
00000000
,
10000000
00000000
00010000
00000000
,
00100000
00000000
00000000
00000000
00001000
00010000
00001000
00000000
,
00010000
00000000
00000100
00000000
,
00000010
00000000
00000000
00000000
00000001
00001000
00000001
00000000
,
00001000
00000000
00000001
00000000
,
00000100
00000010
00010000
00001000
,
00001000
00000000
01000000
00000000
,
00100000
10000000
01000000
00010000
,
00010000
00000000
00001000
00000000
,
00010000
00001000
00010000
00000100
,
00000100
00000000
00001000
00000000
,
00000001
00000000
00000100
00000000
00000010
00001000
00000100
00000000
,
00010000
00010000
00001000
00001000
,
01000000
00000000
00000000
00000000
00010000
00100000
01000000
00000000
,
10000000
10000000
01000000
01000000
,
00100000
00000000
00000000
00000000
00001000
00010000
00000100
00000000
,
00001000
00001000
00000010
00000010
,
00000100
00000000
00000000
00000000
00000001
00000100
00001000
00000000
,
00000100
00000100
00000010
00000010
,
00010000
00000000
00001000
01000000
00010000
00100000
01000000
00000000
,
10010000
00010000
00110000
00100000
,
00101000
00000000
00000000
00000000
00001000
00010000
00000100
00000000
,
00001100
00001000
00001001
00000001
,
00000011
00000000
00000000
00000000
00000010
00000100
00001000
00000000
,
00001010
00000010
00000110
00000100
,
00000101
00000000
00000000
00000000
00000001
00000100
00001000
00000000
,
00001100
00001000
00011000
00010000
,
01010000
00000000
00000000
00000000
00010000
01000000
10000000
01000000
,
00100000
00000000
00010000
00000000
,
10000000
00000000
00100000
10000000
,
01000000
00000000
00100000
00000000
,
00001000
00000000
00010000
00000100
,
00001000
00000000
00000010
00000000
,
00000100
00000000
00000001
00000100
,
00001000
00000000
00010000
00000000
,
00001000
00000000
01000000
00100000
,
10000000
00000000
10000000
10000000
,
01000000
01000000
00010000
00010000
,
00001000
00000000
00010000
00010000
,
00001000
00001000
00000010
00000010
,
00000001
00000000
00000000
00000000
,
00001000
00000001
00000100
00000000
,
00000010
00000000
00001000
00000000
00000001
00000100
00000001
00000000
,
00000100
00001000
00010000
00001000
,
00100000
00010000
00100000
00000000
00000000
00000000
00010000
00000000
,
10000000
01000000
00100000
00000000
,
00010000
00000000
01000000
00001000
01000000
00000000
00000000
00000000
,
00001000
00010000
00000100
00001000
,
00000010
00000000
00000100
00000001
,
00001000
00000001
00000010
00000000
,
00000001
00000000
00001000
00000100
00001000
00000000
00000010
00000000
,
00010000
00001000
01000000
00100000
,
10000000
00010000
10000000
00000000
00000000
00000000
00010000
00000000
,
10000000
01000000
00010000
00000000
,
01000000
00010000
00001000
00000000
,
00010000
00000000
00001000
00000000
00000100
00000000
00000001
00001000
,
00000001
00000000
00000010
00000100
,
00000010
00000000
00000110
00000000
,
00000010
00000000
00000001
00000000
00000100
00000010
00001000
00000000
,
00000100
00000000
00011000
00000000
,
00010000
00000000
00001000
00000000
01000000
00010000
00100000
00000000
,
00010000
00000000
10010000
00000000
,
00100000
00000000
10000000
00000000
01000000
00100000
00010000
00000000
,
01000000
01000000
00001000
00001000
,
00010000
00000000
00010000
00000000
00000100
00001000
00000010
00000100
,
00000001
00000000
00000000
00000000
;

//---------------dance-double - ----------------
#NOTES:
     dance-double:
     :
     Hard:
     9:
     0.637755,0.879236,0.246063,0.017576,0.558036,508.000000,480.000000,28.000000,2.000000,0.000000,0.000000,0.637755,0.879236,0.246063,0.017576,0.558036,508.000000,480.000000,28.000000,2.000000,0.000000,0.000000:
00000000
00000000
00000000
00000000
,
00000000
00000000
00000000
00000000
,
00000000
00000000
00000000
00000000
,
00000000
00000000
00000000
00000000
,
10000000
01000000
00100000
01001000
,
00010000
00001000
00010000
00001100
,
00000010
00001001
00000100
00001001
,
00000010
00000001
00001000
00000110
,
00000001
00000000
00000100
00000000
00000001
00000100
00000000
00000010
00001000
00000000
00000010
00001000
00000000
00000100
00001000
00000000
,
00000100
00001000
00000000
00000100
00010000
00000000
00000100
00010000
00000000
00001000
00010000
00000000
00001000
00000000
00010000
00000000
,
00001000
01000000
00001000
01000000
00001000
01000000
00000000
00010000
01000000
00000000
00010000
01000000
00000000
00100000
01000000
00000000
,
00100000
01000000
00000000
00100000
10000000
00000000
00100000
10000000
00000000
00010000
10000000
00000000
00010000
00000000
10000000
00000000
,
10000000
00000000
00010000
00000000
10000000
00010000
00000000
00100000
00010000
00000000
00100000
00010000
00000000
00100000
00001000
00000000
,
00100000
00001000
00000000
00010000
00001000
00000000
00010000
00001000
00000000
00010000
00000100
00000000
00010000
00000000
00000100
00000000
,
00001000
00000100
00001000
00000100
00001000
00000100
00000000
00000010
00000001
00000000
00000010
00000001
00000000
00001000
00000001
00000000
,
00001000
00000100
00001000
00000100
00000010
00000100
00000010
00000100
00000010
00000001
00000010
00000001
00001000
00000001
00001000
00000001
,
00001000
00000000
00000010
00000000
00000100
00000000
00000000
00000001
00000000
00000000
00001000
00000000
00000001
00000000
00000000
00000000
,
00001000
00000100
00000000
00000010
00000001
00000100
00000001
00000000
,
00000100
00000000
00000010
00001000
00000010
00000000
00001000
00000100
00000000
00000100
00010000
00000000
00001000
00000000
00000000
00000000
,
01000000
00000000
00010000
00000000
00100000
00000000
00010000
10000000
00000000
10000000
00010000
00000000
01000000
00000000
00000000
00000000
,
00100000
00000000
10000000
00000000
01000000
00000000
00100000
00000000
00001000
00010000
00000000
00010000
00000000
00000000
00001000
00000000
,
00010000
00000000
00000100
00000000
00000010
00000000
00000001
00001000
00000001
00000000
00000100
00000000
00000010
00000000
00000000
00000000
,
00001000
00000000
00000001
00000000
00000100
00000000
00001000
00000000
00010000
00001000
00000000
00001000
00000000
00000000
00000000
00000000
,
00010000
00001000
00010000
01000000
10000000
00100000
01000000
00000000
,
00010000
00000000
00100000
00000000
10000000
00000000
00100000
00000000
00010000
00000000
01000000
00001000
00000000
00000000
00000000
00000000
,
00010000
00000000
00001000
00000000
00000010
00000000
00001000
00000000
00010000
00000000
00000100
00001000
00000000
00000000
00000000
00000000
,
00001010
00000000
00000100
00000001
00000010
00000001
00000100
00000000
,
00000001
00000000
00000100
00000000
00001000
00000000
00010000
00000000
00001000
00010000
00000000
00010000
00000000
00000000
00000000
00000000
,
00011000
00000000
00100000
00001000
01000000
00010000
00100000
00000000
,
00020000
00000000
00000000
00000000
00030000
00000000
10000000
00000000
01000000
00000000
00100000
01000000
00000000
00000000
00000000
00000000
,
10000000
00000000
00010000
00000000
00100000
00000000
01000000
00000000
00010000
00000000
00001000
00010000
00000000
00000000
00001000
00000000
,
00000100
00000000
00000010
00000000
00001000
00000000
00000001
00000000
00001000
00000010
00000000
00000010
00000000
00000000
00000000
00000000
,
00001000
00000000
00000001
00000000
00001000
00000000
00000000
00000100
00001000
00000000
00000000
00000100
00000000
00000000
00010000
00001000
,
00010000
00000000
00001000
00000000
01000000
00000000
00010000
00000000
00100000
00000000
00000000
00010000
00000000
01000000
00010000
01000000
,
00010000
00000000
10000000
00000000
00100000
00000000
00000000
01000000
00010000
00000000
00000000
00100000
00000000
00000000
00001000
00010000
,
00001000
00000000
01000000
00000000
00010000
00000000
00100000
00000000
00010000
00000000
00000000
10000000
00000000
00100000
01000000
00100000
,
10000000
01000000
00010000
00000000
01000000
00010000
00001000
00000000
,
00010000
00001000
00000100
00000001
00001000
00000000
00001001
00000000
,
00000001
00000010
00001000
00000000
00000010
00001000
00010000
00000000
,
00012000
00000000
00013000
01010000
,
00100000
00000000
10000000
00000000
01000000
00000000
00100000
00000000
00010000
00000000
01000000
00000000
00100000
10000000
00000000
01000000
,
00000000
00010000
00000000
00001000
00010000
00000000
00001000
00000000
00000100
00000010
00000000
00000010
00001000
00000000
00000001
00000000
,
00000100
00000000
00000100
00000000
00000100
00000000
00000010
00010000
00000000
00000010
00010000
00000000
00000100
00000000
00001000
00000000
,
00000010
00010000
00000000
00010000
00000000
00001000
00000000
00001000
00000000
00001000
00000000
01000000
00000000
01000000
00000000
00100000
,
00000000
00000000
00000000
00000000
,
10100000
00000000
11000000
00000000
01010000
00000000
00000000
00100000
,
00000000
00001000
00010000
00001000
00000100
00000001
00000010
00000000
,
00000101
00000000
00001001
00000000
00001010
00000000
00000100
00010000
,
00000000
00010000
00001000
00000000
00000000
01000000
00010000
00100000
,
11000000
00000000
01010000
00000000
00011000
00000000
00000000
00010000
,
00000000
00000100
00001000
00000010
00000100
00000000
00000000
00000000
,
00000001
00000010
00001000
00010000
00001000
00000000
00010000
00100000
,
10000000
00000000
00000000
00010000
00000000
10000000
01000000
00100000
,
01010000
00000000
00011000
00000000
00001010
00000000
00000000
00000001
,
00000000
00001000
00000100
00000010
00000001
00001000
00000010
00000000
,
00000101
00000000
00001100
00000000
00011000
00000000
00001000
00100000
,
00000000
00100000
01000000
00000000
00000000
10000000
00010000
01000000
,
00110000
00000000
00011000
00000000
00001100
00000000
00000000
00001000
,
00000000
00000001
00000100
00000010
00001000
00000000
00000000
00000000
,
00000001
00000100
00001000
00010000
00001000
00000000
00010000
01000000
,
10000000
00000000
00000000
00100000
00000000
10000000
01000000
00100000
,
00010000
00000000
10000000
00000000
00010000
01000000
00000000
01000000
00100000
00000000
00100000
10000000
00000000
10000000
01000000
00000000
,
01000000
00100000
00000000
00100000
00001000
00000000
00001000
00010000
00000000
00010000
00001000
00000000
00010000
00000000
00010000
00000000
,
00000100
00001000
00000100
00001000
00000100
00001000
00000000
00001000
00000100
00000000
00000100
00000010
00000000
00000010
00000001
00000000
,
00000001
00001000
00000000
00001000
00000010
00000000
00000010
00000100
00000000
00000100
00000001
00000000
00000001
00000000
00000100
00000000
,
00000001
00000000
00000100
00000000
00000001
00000100
00000000
00000010
00001000
00000000
00000010
00001000
00000000
00000100
00010000
00000000
,
00000100
00010000
00000000
00001000
01000000
00000000
00001000
01000000
00000000
00010000
10000000
00000000
00010000
00000000
10000000
00000000
,
00100000
10000000
00100000
10000000
00100000
10000000
00000000
10000000
01000000
00000000
01000000
00010000
00000000
00010000
00001000
00000000
,
00010000
00001000
00010000
00001000
00000100
00001000
00000100
00001000
00000100
00000001
00000100
00000001
00000010
00000001
00000010
00000001
,
00001000
00000000
00000000
00000000
;

//---------------dance-single - ----------------
#NOTES:
     dance-single:
     :
     Beginner:
     1:
     0.112988,0.181911,0.043940,0.035152,0.000000,90.000000,85.000000,5.000000,4.000000,0.000000,0.000000,0.112988,0.181911,0.043940,0.035152,0.000000,90.000000,85.000000,5.000000,4.000000,0.000000,0.000000:
0000
0000
0000
0000
,
0000
0000
0000
0000
,
0000
0000
0000
0000
,
0000
0000
0000
0000
,
1000
0000
0000
0000
,
0001
0000
0000
0000
,
1000
0000
0000
0000
,
0010
0000
0000
0000
,
0100
0000
0001
0000
,
1000
0000
0000
0000
,
0001
0000
0100
0000
,
0010
0000
0000
0000
,
1000
0000
0100
0000
,
0010
0000
0000
0000
,
0001
0000
1000
0000
,
0001
0000
1000
0000
,
1001
0000
0000
0000
,
0100
0000
0000
0000
,
0010
0000
0000
0000
,
0100
0000
0000
0000
,
0110
0000
0000
0000
,
1000
0000
0000
0000
,
0001
0000
0000
0000
,
1000
0000
0000
0000
,
1001
0000
0000
0000
,
1000
0000
0000
0000
,
0100
0000
0000
0000
,
0001
0000
0000
0000
,
1001
0000
0000
0000
,
0001
0000
0000
0000
,
0010
0000
0000
0000
,
0100
0000
0000
0000
,
1000
0000
0000
0000
,
0001
0000
0000
0000
,
1000
0000
0000
0000
,
0100
0000
0000
0000
,
0010
0000
0000
0000
,
0001
0000
0000
0000
,
1000
0000
0000
0000
,
0001
0000
0000
0000
,
0100
0000
0000
0000
,
0000
0000
0000
0000
,
0010
0000
0000
0000
,
1000
0000
0001
0000
,
1001
0000
0000
0000
,
1000
0000
1000
0000
,
0002
0000
0000
0003
,
0001
0000
0001
0000
,
0100
0000
0000
0000
,
0010
0000
0010
0000
,
2000
0000
0000
3000
,
1000
0000
1000
0000
,
0100
0000
0000
0000
,
0010
0000
0010
0000
,
0002
0000
0000
0003
,
0001
0000
0001
0000
,
1000
0000
0000
0000
,
0010
0000
0010
0000
,
0200
0000
0000
0300
,
0100
0000
0100
0000
,
0001
0000
0001
0000
,
1000
0000
0100
0000
,
0001
0000
0000
0000
,
0100
0000
1000
0000
,
0010
0000
0000
0000
,
1000
0000
0001
0000
,
0010
0000
0000
0000
,
0001
0000
0100
0000
,
1000
0000
0100
0000
,
0001
0000
0000
0000
;

//---------------dance-double - ----------------
#NOTES:
     dance-double:
     :
     Beginner:
     1:
     0.114244,0.181911,0.052728,0.035152,0.000000,91.000000,85.000000,6.000000,4.000000,0.000000,0.000000,0.114244,0.181911,0.052728,0.035152,0.000000,91.000000,85.000000,6.000000,4.000000,0.000000,0.000000:
00000000
00000000
00000000
00000000
,
00000000
00000000
00000000
00000000
,
00000000
00000000
00000000
00000000
,
00000000
00000000
00000000
00000000
,
10000000
00000000
00000000
00000000
,
00010000
00000000
00000000
00000000
,
01000000
00000000
00000000
00000000
,
00001000
00000000
00000000
00000000
,
00010000
00000000
00000100
00000000
,
00001000
00000000
00000000
00000000
,
00000001
00000000
00000100
00000000
,
00000010
00000000
00000000
00000000
,
00001000
00000000
00000100
00000000
,
00000010
00000000
00000000
00000000
,
00000001
00000000
00000100
00000000
,
00001000
00000000
00010000
00000000
,
00011000
00000000
00000000
00000000
,
01000000
00000000
00000000
00000000
,
00100000
00000000
00000000
00000000
,
01000000
00000000
00000000
00000000
,
01100000
00000000
00000000
00000000
,
10000000
00000000
00000000
00000000
,
00010000
00000000
00000000
00000000
,
10000000
00000000
00000000
00000000
,
10010000
00000000
00000000
00000000
,
01000000
00000000
00000000
00000000
,
00010000
00000000
00000000
00000000
,
00001000
00000000
00000000
00000000
,
00011000
00000000
00000000
00000000
,
00010000
00000000
00000000
00000000
,
00000100
00000000
00000000
00000000
,
00000010
00000000
00000000
00000000
,
00000001
00000000
00000000
00000000
,
00001000
00000000
00000000
00000000
,
00000010
00000000
00000000
00000000
,
00010000
00000000
00000000
00000000
,
00001000
00000000
00000000
00000000
,
00100000
00000000
00000000
00000000
,
00010000
00000000
00000000
00000000
,
10000000
00000000
00000000
00000000
,
01000000
00000000
00000000
00000000
,
00000000
00000000
00000000
00000000
,
00100000
00000000
00000000
00000000
,
00001000
00000000
00010000
00000000
,
00011000
00000000
00000000
00000000
,
00010000
00000000
00010000
00000000
,
00000200
00000000
00000000
00000300
,
00000100
00000000
00000100
00000000
,
00001000
00000000
00000000
00000000
,
00000001
00000000
00000001
00000000
,
00000020
00000000
00000000
00000030
,
00000010
00000000
00000010
00000000
,
00000100
00000000
00000000
00000000
,
00001000
00000000
00001000
00000000
,
00000200
00000000
00000000
00000300
,
00000100
00000000
00000100
00000000
,
00010000
00000000
00000000
00000000
,
00001000
00000000
00001000
00000000
,
02000000
00000000
00000000
03000000
,
01000000
00000000
01000000
00000000
,
00010000
00000000
00010000
00000000
,
10000000
00000000
01000000
00000000
,
00010000
00000000
00000000
00000000
,
01000000
00000000
00010000
00000000
,
00001000
00000000
00000000
00000000
,
00010000
00000000
00001000
00000000
,
00000010
00000000
00000000
00000000
,
00001000
00000000
00000010
00000000
,
00000001
00000000
00001000
00000000
,
00001001
00000000
00000000
00000000
;

//---------------dance-single - ----------------
#NOTES:
     dance-single:
     :
     Challenge:
     15:
     0.851177,0.939873,0.105456,0.017576,1.023798,678.000000,666.000000,12.000000,2.000000,0.000000,0.000000,0.851177,0.939873,0.105456,0.017576,1.023798,678.000000,666.000000,12.000000,2.000000,0.000000,0.000000:
// measure 0
0000
0000
0000
0000
,  // measure 1
0000
0000
0000
0000
,  // measure 2
0000
0000
0000
0000
,  // measure 3
0000
0000
0000
0000
,  // measure 4
0001
0010
0001
0010
0000
0001
1000
0000
0100
0000
0000
0100
0000
0000
0010
0000
,  // measure 5
0001
1000
0001
1000
0000
0100
0010
0000
0100
0000
0000
0101
0000
0000
0001
0000
,  // measure 6
0100
1000
0100
1000
0000
0010
0100
0001
0100
0000
0000
0110
0000
0000
0010
0000
,  // measure 7
1000
0000
0100
0000
0010
0000
0001
0000
1000
0100
1000
0100
1000
0100
1000
0000
,  // measure 8
0001
0000
0010
0000
0001
0100
0000
1000
0100
0000
0001
0010
0000
1000
0010
0000
,  // measure 9
0001
0100
0000
0010
1000
0000
0100
0010
0000
0001
1000
0000
0010
0000
1000
0010
,  // measure 10
0100
0001
0100
0001
0100
0010
0000
1000
0010
0000
0100
0001
0000
0010
0001
0000
,  // measure 11
1000
0100
0000
1000
0010
0000
0100
0001
0000
0010
0100
0000
1000
0100
1000
0000
,  // measure 12
0010
0000
0100
0000
0001
0100
0000
1000
0100
0000
0001
0010
0000
1000
0010
0000
,  // measure 13
0001
0100
0000
1000
0100
0000
0001
0010
0000
0100
1000
0000
0010
1000
0100
0000
,  // measure 14
0010
0001
0010
0001
0100
0010
0000
1000
0010
0000
1000
0001
0000
0010
0001
0000
,  // measure 15
1000
0100
1000
0100
0010
0001
0010
0001
0100
0010
0100
0010
1000
0001
1000
0001
,  // measure 16
0100
0000
0100
0000
0110
0000
0000
0010
0000
1000
0001
1000
0100
0000
0000
0000
,  // measure 17
0010
0000
0001
0100
0001
0000
1000
0000
0010
0000
0100
0000
0010
0000
0000
0000
,  // measure 18
1000
0000
0001
0000
0010
0000
0001
0000
0100
0000
0010
1000
0100
0000
0000
0000
,  // measure 19
1000
0000
0010
0000
0001
0000
0010
0000
1000
0001
1000
0100
0010
0000
0000
0000
,  // measure 20
0001
0000
0100
0000
0010
0000
0100
0000
0001
1000
0000
0001
0000
0000
0100
0000
,  // measure 21
0010
0000
1000
0000
0010
0000
0100
0001
0010
0000
0001
0000
1000
0000
0000
0000
,  // measure 22
0010
0000
0100
0000
0001
0000
0010
0000
0001
1000
0001
0000
0100
0000
0010
0000
,  // measure 23
1000
0000
0010
0000
0001
0000
0010
1000
0100
0000
0010
0000
0001
1000
0001
1000
,  // measure 24
0010
0000
0100
0000
0001
0000
0100
0000
0010
0000
1000
0010
0000
0000
0000
0000
,  // measure 25
0100
0000
0001
0000
0010
0000
0001
0000
1000
0000
0100
1000
0100
0000
0000
0000
,  // measure 26
0001
0000
0010
0000
0001
0000
0100
0000
0010
1000
0010
0000
0100
0000
0000
0000
,  // measure 27
0001
0000
0010
0000
1000
0000
0010
0000
0001
0100
0000
0001
0100
0000
0000
0000
,  // measure 28
0010
0000
1000
0000
0100
0000
1000
0000
0001
0000
0010
0001
0020
0000
0000
0000
,  // measure 29
0130
0000
0100
0000
0000
0000
1000
0000
0001
0100
0001
0100
0010
1000
0010
0000
,  // measure 30
1000
0000
0100
0000
0010
0000
0100
0000
0010
0000
0001
0100
0010
0000
1000
0000
,  // measure 31
0010
0000
0100
0000
0001
0000
0010
0000
0100
1000
0100
0000
1000
0001
1000
0000
,  // measure 32
1001
0000
0001
0000
1000
0010
0000
0010
0100
0000
0001
0000
0010
0000
0100
0010
,  // measure 33
0100
0000
1000
0000
0001
0010
0000
0010
0001
0000
0000
1000
0000
0001
0100
0001
,  // measure 34
0100
0000
0010
0000
1000
0000
0000
0100
1000
0000
0001
1000
0000
0000
0010
0100
,  // measure 35
0001
0000
0010
0001
0010
0100
1000
0000
0010
0000
1000
0100
0000
0100
0010
0100
,  // measure 36
0001
0000
0100
0000
1000
0001
0000
0000
1000
0010
0100
0000
0001
0000
0010
0000
,  // measure 37
0001
1000
0010
0000
0100
0000
0100
0000
1001
0000
0001
0000
0001
0010
0100
0000
,  // measure 38
1000
0000
0010
0000
0100
0001
0010
0000
0100
0000
0010
0001
1000
0000
0010
0000
,  // measure 39
2000
0000
3010
1001
,  // measure 40
1000
0000
0010
0000
0001
0000
1000
0000
0100
0000
0001
0000
1000
0010
0000
1000
,  // measure 41
0000
0001
0000
0100
0010
0000
0100
0000
0001
0010
0000
0001
1000
0000
1000
0000
,  // measure 42
1010
0000
0010
0000
0110
0000
0100
0001
0000
0010
0100
0000
0010
0000
0001
0000
,  // measure 43
1000
0010
0000
0010
0000
0110
0000
0100
0000
0001
0000
0011
0000
0010
0000
0110
,  // measure 44
0000
0000
0000
0000
,  // measure 45
1000
0000
0001
0000
0010
0001
0000
0010
0100
0000
1000
0000
0001
0000
0010
0000
,  // measure 46
0001
0000
0100
0000
0010
0000
1000
0000
0100
0010
0100
0010
0001
0000
0000
0000
,  // measure 47
1000
0001
1000
0001
0100
0000
0001
0000
1001
0000
0000
0000
0010
0000
0100
0000
,  // measure 48
0001
0000
0100
0000
0010
1000
0010
1000
0001
0000
0100
0000
0001
0000
0010
0100
,  // measure 49
0010
1000
0010
0001
0100
0010
1000
0010
,  // measure 50
0100
0000
0001
0000
0010
0000
0001
0000
1000
0100
1000
0010
0100
0001
0100
0010
,  // measure 51
0100
0001
0010
0100
0010
0000
0001
0000
1000
0000
0010
0000
1000
0000
0100
0000
,  // measure 52
0010
0001
0010
0001
0010
0100
1000
0100
1000
0100
0010
0001
0010
0001
0010
0100
,  // measure 53
1000
0000
0001
1000
0001
0000
1000
0010
1000
0010
1000
0001
1000
0001
1000
0010
,  // measure 54
1000
0010
0100
0001
0100
0001
0100
0010
0100
0010
0100
1000
0100
0000
0010
0000
,  // measure 55
0001
0010
0001
0010
0001
0010
0001
0010
0001
0000
1000
0000
0100
0000
0010
0000
,  // measure 56
0100
1000
0100
1000
0100
1000
0100
1000
0100
0000
0001
0000
0100
0000
1000
0000
,  // measure 57
0010
0100
0001
0100
0010
0100
0001
0100
0010
0100
0001
0100
0010
0000
0100
0000
,  // measure 58
0001
0000
0010
0000
0100
0000
1000
0000
0001
0100
0001
0100
0001
0100
0001
0000
,  // measure 59
0010
0100
0010
0100
0010
0100
0010
0100
0010
0100
1000
0100
1000
0000
0100
0000
,  // measure 60
1000
0100
1000
0100
0010
0001
0010
0001
1000
0010
1000
0010
0100
0001
0100
0001
,  // measure 61
0010
0000
1000
0000
0010
0001
0000
0001
0010
0000
0010
1000
0000
1000
0100
0000
,  // measure 62
0001
0100
0000
0100
1000
0000
0010
0001
0000
0001
0100
0000
1000
0000
0010
0000
,  // measure 63
0100
0001
0010
0001
1000
0010
0000
1000
0010
0000
0010
0100
0000
0100
0001
0000
,  // measure 64
0010
0100
0000
1000
0100
0000
0001
0100
0000
1000
0010
0000
0100
0001
0010
0000
,  // measure 65
0100
0010
0001
0010
0100
1000
0010
0100
0010
1000
0001
0010
0001
0100
0010
0000
,  // measure 66
1000
0001
0000
0001
0100
0000
0010
1000
0000
1000
0100
0000
1000
0000
0001
0000
,  // measure 67
0010
0001
0010
0001
0100
0010
0000
0100
0010
0000
1000
0010
0000
0100
0001
0000
,  // measure 68
0010
0001
0010
0100
0010
1000
0010
0001
0010
0100
0001
1000
0001
1000
0001
1000
,  // measure 69
0001
0000
0000
0000
;
