#TITLE:魔理沙は大変なものを盗んでいきました;
#SUBTITLE:;
#ARTIST:ARM(IOSYS);
#TITLETRANSLIT:Marisa wa taihen na mono wo nusunde ikimashita;
#SUBTITLETRANSLIT:;
#ARTISTTRANSLIT:;
#GENRE:;
#CREDIT:;
#BANNER:Marisa wa taihen na mono wo nusunde ikimashita.png;
#BACKGROUND:Marisa wa taihen na mono wo nusunde ikimashita-bg.png;
#LYRICSPATH:;
#CDTITLE:;
#MUSIC:Marisa wa taihen na mono wo nusunde ikimashita.ogg;
#OFFSET:0.000000;
#SAMPLESTART:103.057999;
#SAMPLELENGTH:15.000000;
#SELECTABLE:YES;
#DISPLAYBPM:170.000000;
#BPMS:0.000000=170.011002
;
#STOPS:
;
#BGCHANGES:0.000=Marisa wa Taihen na Mono o Nusunde Ikimashita.avi=1.000=0=0=0=StretchNoLoop====,
99999=-nosongbg-=1.000=0=0=0 // don't automatically add -songbackground-
;
#KEYSOUNDS:;
#ATTACKS:;

//---------------dance-single - ----------------
#NOTES:
     dance-single:
     :
     Hard:
     12:
     0.607136,0.572664,0.073275,0.000000,0.012212,522.000000,513.000000,9.000000,0.000000,0.000000,0.000000,0.607136,0.572664,0.073275,0.000000,0.012212,522.000000,513.000000,9.000000,0.000000,0.000000,0.000000:
0000
0000
0000
0000
,
0000
0000
0000
0000
,
0000
0000
0000
0000
,
0000
0000
0000
0000
,
0000
0000
0000
0000
,
0001
0000
0000
1000
0000
0000
0010
0000
0100
0000
0001
0000
1000
0000
0000
0000
,
0001
0000
0000
1000
0000
0000
0010
0000
0100
0000
0010
0000
1000
0000
0000
0000
,
1000
0000
0000
0001
0000
0000
0010
0000
0100
0000
1000
0000
0001
0000
0000
0000
,
1000
0100
1000
0010
0100
0010
1000
0001
,
0001
0000
1000
0010
0100
0000
0010
1000
,
0100
0000
0010
0001
0100
0000
0101
0000
,
1000
0000
0001
0010
0100
0000
0010
0001
,
0100
0000
0010
1000
0100
0000
1100
0000
,
1000
0100
1000
0010
0100
0000
0010
1000
,
0100
0000
0010
0001
0100
0000
0001
0000
,
1000
0000
0001
0010
0100
0000
0010
0001
,
0100
0000
0010
1000
0100
0000
1000
0000
,
0001
1000
0010
1000
0001
0010
0001
1000
,
0010
1000
0001
0010
0001
1000
0100
0000
,
0010
0100
0000
0100
0000
0100
0000
0100
,
0000
0100
0000
0100
0000
0100
0000
0100
,
1000
0001
0010
0001
1000
0010
1000
0001
,
0010
0001
1000
0010
1000
0001
0100
0000
,
0010
0100
0000
0100
0000
0100
0000
0100
,
0000
0100
0000
0100
0000
0100
0000
0100
,
0001
0100
0001
0100
0001
0100
0001
0100
,
0010
1000
0010
1000
0010
1000
0010
1000
,
0100
1000
0100
1000
0100
1000
0100
1000
,
0001
0010
0001
0010
0001
0010
0001
0010
,
0001
0100
0001
0100
0001
0100
0001
0100
,
0010
1000
0010
1000
0010
1000
0010
1000
,
0100
1000
0100
1000
0100
1000
0100
1000
,
0001
0010
0001
0010
0001
0010
0001
0010
,
0001
1000
0010
0100
0001
0100
1000
0100
,
0001
1000
0010
0100
0001
0010
0100
0000
,
1000
0001
0010
0100
1000
0100
0010
0100
,
1000
0001
0010
0100
1000
0001
0010
0000
,
0001
0010
0100
0010
0001
0010
0100
0010
,
0001
1000
0100
0010
0001
0100
0010
0000
,
1000
0001
0100
0010
1000
0001
1000
0010
,
1000
0001
1000
0010
1000
0001
0010
0000
,
0001
0100
0010
1000
0100
1000
0001
0010
,
0001
0100
0010
1000
0100
1000
0001
0000
,
1000
0100
0010
0001
0100
0001
1000
0010
,
1000
0100
0010
0001
0100
0001
1000
0000
,
0001
0100
0010
1000
0100
1000
0001
0010
,
0001
0100
0010
1000
0100
1000
0001
0000
,
1000
0100
0010
0001
0100
0001
1000
0010
,
1000
0100
0010
0001
0100
0001
1000
0000
,
0010
0000
0100
0000
0001
1000
0000
0001
,
0100
0010
1000
0100
1000
0001
0010
0100
,
0010
0000
0100
0000
1000
0001
0000
1000
,
0100
0010
0001
0100
0001
1000
0010
0100
,
0001
0000
1000
0000
0010
0100
0001
0100
,
0010
1000
0100
1000
0001
0010
0100
0000
,
1000
0000
0001
0000
0010
0100
1000
0100
,
0010
0001
0100
0001
1000
0010
0100
0000
,
0010
0000
0110
0000
0001
1000
0000
0001
,
0100
0010
1000
0100
1000
0001
0010
0100
,
0010
0000
0100
0000
1000
0001
0000
1000
,
0100
0010
0001
0100
0001
1000
0010
0100
,
0001
0000
1000
0000
0010
0100
0001
0100
,
0010
1000
0100
1000
0001
0010
0100
0000
,
1100
0000
0011
0000
0010
0100
1000
0100
,
0010
0001
0100
0001
1000
0010
0100
0000
,
0001
0000
1000
0000
0010
0100
0000
0010
,
1000
0001
0100
0010
1000
0001
0100
0010
,
1000
0000
0001
0000
0010
0100
0000
0010
,
0001
0010
0100
0010
0001
1000
0100
1000
,
0001
0000
0010
0000
0100
1000
0000
0010
,
1000
0100
0010
0001
1000
0100
0010
0000
,
0001
0000
0010
0000
0100
1000
0000
0010
,
1000
0100
0010
0001
1000
0010
0100
0000
,
0001
0000
1000
0000
0010
0100
0000
0010
,
1000
0010
0100
0010
1000
0001
0100
0001
,
1000
0000
0010
0000
0100
0001
0000
0010
,
0001
0100
0010
1000
0001
0100
0010
0000
,
1000
0000
0010
0000
0100
0001
0000
1000
,
0001
0100
0010
0100
0001
0010
0100
0000
,
1100
0110
0110
0011
,
0001
0100
0010
1000
0001
0100
0010
0000
,
0001
0000
0010
0000
0100
1000
0000
0000
,
1000
0010
1000
0010
;

//---------------dance-double - ----------------
#NOTES:
     dance-double:
     :
     Hard:
     12:
     0.571080,0.572664,0.138408,0.081417,0.036637,491.000000,474.000000,17.000000,10.000000,0.000000,0.000000,0.571080,0.572664,0.138408,0.081417,0.036637,491.000000,474.000000,17.000000,10.000000,0.000000,0.000000:
00000000
00000000
00000000
00000000
,
00000000
00000000
00000000
00000000
,
00000000
00000000
00000000
00000000
,
00000000
00000000
00000000
00000000
,
00000000
00000000
00000000
00000000
,
01000000
00000000
00000000
10000000
00000000
00000000
00010000
00000000
10000000
00000000
01000000
00000000
00010000
00000000
00000000
00000000
,
00001000
00000000
00000000
00000100
00000000
00000000
00000001
00000000
00001000
00000000
00000001
00000000
00000100
00000000
00000000
00000000
,
00001000
00000000
00000000
00010000
00000000
00000000
01000000
00000000
10000000
00000000
00010000
00000000
10000000
00000000
00000000
00000000
,
01100000
00011000
00000110
00000000
,
00000010
00000001
00001000
00000010
00001000
00000001
00000010
00000001
,
00001000
00000010
00001000
00000001
00000100
00001000
00010000
00000000
,
00100000
10000000
00010000
00100000
00010000
10000000
00100000
10000000
,
00010000
00100000
00010000
10000000
01000000
00010000
00001000
00000000
,
00000100
00000001
00001000
00000100
00001000
00000001
00000100
00000001
,
00001000
00000100
00001000
00000001
00000010
00001000
00010000
00000000
,
00100000
00000000
10010000
00000000
00010000
01000000
10000000
00000000
,
01000000
00100000
00000000
00000000
00001000
00010000
00000000
00000000
00000100
00000000
00000010
00000000
00000100
00000000
00000010
00000000
,
00000001
00000100
00001000
00000001
00000010
00001000
00000001
00000100
,
00001000
00000001
00000010
00001000
00010000
00010000
01000000
00000000
,
10000000
01000000
00010000
10000000
00100000
00010000
10000000
01000000
,
00010000
10000000
00100000
00010000
00001000
00000100
00000100
00000000
,
00000010
00001000
00010000
00000010
00001000
00010000
00000010
00001000
,
00010000
00000010
00001000
00010000
00100000
00100000
01000000
00000000
,
10000000
01000000
00010000
01000000
10000000
00100000
00010000
00100000
,
01000000
00001000
00010000
00001000
00000100
00000010
00000001
00000000
,
00000200
00001000
00000001
00001000
,
00000001
00000000
00001000
00000000
00000301
00000100
00001000
00010000
,
00200000
01000000
10000000
01000000
,
10000000
00000000
01000000
00000000
10300000
01000000
00010000
00001000
,
00000020
00000100
00000001
00000100
,
00000001
00000000
00000100
00000000
00000031
00000100
00001000
00010000
,
00200000
10000000
00010000
10000000
,
00010000
00000000
10000000
00000000
00310000
00100000
10000000
01000000
,
00010000
00001000
00010000
00001000
00010000
00000100
00001000
00000100
,
00000010
00000001
00000010
00000001
00001000
00000100
00010000
00000000
,
00001000
00010000
00001000
00010000
00001000
01000000
00010000
01000000
,
00100000
10000000
00100000
10000000
00010000
01000000
00001000
00000000
,
00010000
00001000
00010000
00001000
00010000
00000010
00001000
00000010
,
00000100
00000001
00000100
00000001
00001000
00000010
00010000
00000000
,
00001000
00010000
00001000
00010000
00001000
00100000
00010000
00100000
,
01000000
10000000
01000000
10000000
00010000
00100000
00001000
00000000
,
00010000
00001000
00000100
00000010
00000100
00000001
00001000
00000100
,
00000010
00000001
00001000
00000010
00000100
00001000
00010000
00000000
,
01000000
10000000
00010000
00100000
01000000
10000000
00010000
10000000
,
00100000
01000000
00010000
00100000
01000000
00010000
00001000
00000000
,
00011000
00001010
00000011
00000101
,
00001100
00011000
00110000
10100000
,
00020000
02030000
03200000
20300000
,
31000000
00100000
00010000
00100000
01000000
00010000
00001000
00000000
,
00000010
00000000
00000000
00000000
00000100
00000000
00000000
00000000
00001000
00000000
00000000
00000001
00000000
00000000
00000100
00000000
,
00000010
00001000
00000001
00000100
00000001
00000100
00001000
00010000
,
00100000
00000000
01000000
00000000
00010000
10000000
00000000
01000000
,
00000000
10000000
01000000
00100000
00001000
00010000
00001000
00000100
,
00000010
00001001
00000010
00000001
,
00000100
00000001
00000010
00000001
00000010
00001000
00010000
00000000
,
01000000
00000000
00000000
00010000
00000000
00000000
00001000
00000000
,
00000100
00000000
00000000
00000000
00001000
00010000
00000000
00001000
,
00000010
00000000
00000000
00000000
00000100
00000000
00000000
00000000
00001000
00000000
00000000
00000001
00000000
00000000
00000100
00000000
,
00000010
00001000
00000001
00000100
00000001
00000100
00001000
00010000
,
00100000
00000000
01000000
00000000
00010000
10000000
00000000
01000000
,
00000000
00000000
10000000
00000000
01000000
00000000
00000000
00000000
00010000
00000000
00000000
00001000
00000000
00000000
00000010
00000000
,
00000100
00000000
00001000
00000000
00000010
00000100
00001000
00000100
,
00000010
00000001
00000010
00000100
00000010
00010000
00001000
00000000
,
00010000
01000000
01100000
10010000
,
00100000
10000000
01000000
10000000
01000000
00010000
00001000
00000000
,
00000010
00000000
00000001
00000000
00001000
00000100
00000000
00000010
,
00000100
00001000
00000100
00000010
00001000
00000000
00010000
00000000
,
00100000
00000000
10000000
00000000
00010000
01000000
00000000
00100000
,
10000000
00010000
01000000
00100000
10000000
01000000
00010000
00001000
,
00010000
00000000
00001100
00000000
00010000
00001000
00000000
00000010
,
00000000
00000100
00000000
00000010
00000001
00000100
00001000
00010000
,
00001000
00000000
00100000
00000000
00010000
01000000
00000000
00100000
,
00000000
10000000
00000000
00100000
10000000
01000000
00010000
01000000
,
00100000
00000000
10000000
00000000
00010000
01000000
00000000
00100000
,
01000000
00010000
01000000
00100000
00010000
00000000
00001000
00000000
,
00000010
00000000
00000001
00000000
00001000
00000100
00000000
00000010
,
00000001
00001000
00000100
00000010
00000001
00000100
00001000
00010000
,
00001000
00000000
01010000
00000000
00001000
00010000
00000000
00100000
,
00000000
01000000
00000000
00100000
10000000
01000000
00010000
00000000
,
00002000
00000000
00000000
00020000
00000000
00000000
00003000
00000000
,
00031000
00000000
00000000
00000000
00000000
00000000
00000010
00000000
00000001
00000000
00000000
00001000
00000000
00000000
00000010
00000000
,
00000100
00000000
00000000
00000001
00000000
00000010
00000000
00000001
,
00000000
00000100
00000010
00000100
00001000
00000000
00010000
00000000
;

//---------------dance-single - ----------------
#NOTES:
     dance-single:
     :
     Medium:
     9:
     0.425693,0.472318,0.065133,0.073275,0.000000,366.000000,358.000000,8.000000,9.000000,0.000000,0.000000,0.425693,0.472318,0.065133,0.073275,0.000000,366.000000,358.000000,8.000000,9.000000,0.000000,0.000000:
0000
0000
0000
0000
,
0000
0000
0000
0000
,
0000
0000
0000
0000
,
0000
0000
0000
0000
,
0000
0000
0000
0000
,
1000
0000
0100
0000
0001
1000
0001
0000
,
0001
0000
0100
0000
0001
0010
0001
0010
,
0001
0000
0100
0000
1000
0001
1000
0000
,
1000
0000
0100
0000
1000
0010
1000
0010
,
0001
0010
0100
1000
,
0010
0000
0100
0000
0001
1000
0100
0000
,
1000
0010
0100
0001
,
0010
0000
0100
0000
1000
0001
0100
0000
,
0001
0010
0100
1000
,
0010
0000
0100
0000
0001
1000
0100
0000
,
1000
0010
0100
0001
,
0010
0000
0100
0000
1000
0001
0100
0000
,
0001
0000
1000
0010
0000
0100
0001
0000
,
1000
0010
0000
0100
0001
0000
1001
0000
,
1000
0000
0010
1000
0000
0100
1000
0000
,
0010
1000
0000
0100
1000
0000
1000
0000
,
0001
0000
0010
0001
0000
0100
0001
0000
,
0010
0001
0000
0100
0001
0000
0001
0000
,
1000
0000
0001
0010
0000
0100
1000
0000
,
0001
0010
0000
0100
2000
0000
0000
0000
,
3001
0010
0100
1000
,
0010
0000
0100
0000
0001
1000
0010
0000
,
1000
0100
0010
0001
,
0100
0000
0010
0000
1000
0001
1000
0000
,
0001
0110
0100
1000
,
0010
0000
0100
0000
0001
1000
0010
0000
,
1000
0100
0010
0001
,
0100
0000
0010
0000
1000
0001
1000
0000
,
0000
0001
0000
1000
0000
0010
0000
0100
,
0000
0001
0000
1000
0000
0010
0100
0010
,
0000
1000
0000
0001
0000
0010
0000
0100
,
0000
1000
0000
0001
0000
0010
0100
0010
,
0000
0001
0000
1000
0000
0010
0000
0100
,
0000
0001
0000
1000
0000
0010
0100
0010
,
0000
1000
0000
0001
0000
0010
0000
0100
,
0000
1000
0000
0001
0000
0010
0100
0010
,
0000
0001
0100
0000
0010
1000
0000
0001
,
0000
0100
0001
0000
1000
0010
0100
0001
,
0000
1000
0100
0000
0010
0001
0000
1000
,
0000
0100
1000
0000
0001
0010
0100
1000
,
0000
0001
0100
0000
0010
1000
0000
0001
,
0000
0100
0001
0000
1000
0010
0100
0001
,
0000
1000
0100
0000
0010
0001
0000
1000
,
0000
0100
1000
0000
0001
0010
0001
1000
,
0000
0000
0001
0000
0010
0100
0000
1000
,
0000
0010
1000
0000
0001
1000
0001
0000
,
0000
0000
1000
0000
0010
0100
0000
0001
,
0000
0010
0001
0000
1000
0001
1000
0000
,
0010
0100
0001
1000
,
0020
0000
0000
2030
0000
0000
3100
0000
,
0010
0100
1000
0001
,
0020
0000
0000
0032
0000
0000
0103
0000
,
0000
0000
0001
0000
0010
0100
0000
1000
,
0000
0010
1000
0000
0001
1000
0001
0000
,
0000
0000
1000
0000
0010
0100
0000
0001
,
0000
0010
0001
0000
1000
0001
1000
0000
,
0010
0100
0001
1000
,
0020
0000
0000
2030
0000
0000
3100
0000
,
0010
0100
1000
0001
,
0020
0000
0000
0032
0000
0000
0103
0000
,
0001
0000
1000
0000
0010
0100
0000
0010
,
0000
1000
0001
0000
0100
0000
0001
0000
,
1000
0000
0001
0000
0010
0100
0000
0010
,
0000
0001
1000
0000
0100
0000
1000
0000
,
0001
0000
0010
0000
0100
1000
0000
0010
,
0000
1000
0001
0000
0100
0000
0001
0000
,
1000
0000
0010
0000
0100
0001
0000
0010
,
0000
0001
1000
0000
0101
0000
0101
0000
,
0001
0000
1000
0000
0010
0100
0000
0010
,
0000
1000
0001
0000
0100
0000
0001
0000
,
1000
0000
0001
0000
0010
0100
0000
0010
,
0000
0001
1000
0000
0100
0000
1000
0000
,
0001
0000
0010
0000
0100
1000
0000
0010
,
0000
1000
0001
0000
0100
0000
0001
0000
,
1000
0000
0010
0000
0100
0000
0001
0100
,
0000
0001
0000
1000
0100
0000
1000
0000
,
0011
0011
1100
1100
,
0000
0010
0100
0000
0010
0100
0000
0100
;

//---------------dance-single - ----------------
#NOTES:
     dance-single:
     :
     Beginner:
     3:
     0.163996,0.233666,0.000000,0.000000,0.000000,141.000000,141.000000,0.000000,0.000000,0.000000,0.000000,0.163996,0.233666,0.000000,0.000000,0.000000,141.000000,141.000000,0.000000,0.000000,0.000000,0.000000:
0000
0000
0000
0000
,
0000
0000
0000
0000
,
0000
0000
0000
0000
,
0000
0000
0000
0000
,
0000
0000
0000
0000
,
0000
0000
0000
0000
,
0000
0000
0000
0001
,
0000
0000
0000
0000
,
0000
0000
0000
1000
,
1000
0000
0001
0000
,
1000
0000
0000
0000
,
1000
0000
1000
0000
,
0001
0000
0000
0000
,
0001
0000
0001
0000
,
1000
0000
0000
0000
,
1000
0000
1000
0000
,
0001
0000
0000
0000
,
0001
0000
1000
0000
,
0100
0000
0000
0000
,
1000
0000
0001
0000
,
0100
0000
0000
0000
,
0001
0000
1000
0000
,
0010
0000
0000
0000
,
1000
0000
0001
0000
,
0010
0000
0000
0000
,
0001
0000
0000
0000
,
0010
0000
0000
0000
,
0100
0000
0000
0000
,
1000
0000
0000
0000
,
0001
0000
0001
0000
,
0010
0000
0010
0000
,
0100
0000
0100
0000
,
1000
0000
1000
0000
,
0001
0000
0010
0000
,
0100
0000
1000
0000
,
0100
0000
0010
0000
,
0001
0000
0000
0000
,
1000
0000
0010
0000
,
0100
0000
0001
0000
,
0100
0000
0010
0000
,
1000
0000
0000
0000
,
0001
0000
1000
0000
,
0010
0000
0100
0000
,
0001
0000
1000
0000
,
0010
0000
0010
0000
,
1000
0000
0001
0000
,
0010
0000
0100
0000
,
1000
0000
0001
0000
,
0010
0000
0010
0000
,
0000
0001
0000
0001
,
0000
1000
0000
1000
,
0000
0010
0000
0010
,
0000
0100
0000
0100
,
0000
0001
0000
1000
,
0000
0010
0000
0100
,
0000
0001
0000
1000
,
0000
0010
0000
0100
,
0000
0001
0000
0001
,
0000
1000
0000
1000
,
0000
0010
0000
0010
,
0000
0100
0000
0100
,
0000
0001
0000
1000
,
0000
0010
0000
0100
,
0000
0001
0000
1000
,
0000
0000
0000
0000
,
0001
0001
0001
0001
,
0001
0000
0001
0000
,
1000
1000
1000
1000
,
1000
0000
1000
0000
,
0010
0000
0100
0000
,
0001
0000
1000
0000
,
0010
0000
0100
0000
,
0001
0000
1000
0000
,
0001
0001
0001
0001
,
0001
0000
0001
0000
,
1000
1000
1000
1000
,
1000
0000
1000
0000
,
0010
0000
0100
0000
,
0001
0000
1000
0000
,
0010
0000
0100
0000
,
0001
0000
1000
0000
,
0001
0000
0001
0000
,
1000
0000
0000
0000
;

//---------------dance-single - ----------------
#NOTES:
     dance-single:
     :
     Easy:
     6:
     0.276817,0.303175,0.000000,0.016283,0.000000,238.000000,238.000000,0.000000,2.000000,0.000000,0.000000,0.276817,0.303175,0.000000,0.016283,0.000000,238.000000,238.000000,0.000000,2.000000,0.000000,0.000000:
0000
0000
0000
0000
,
0000
0000
0000
0000
,
0000
0000
0000
0000
,
0000
0000
0000
0000
,
0000
0000
0000
0000
,
0001
0000
0001
0000
,
0010
0000
0010
0000
,
0100
0000
0100
0000
,
1000
0000
1000
0000
,
0001
0010
0100
0000
,
1000
0010
0100
0000
,
0001
0100
0010
0000
,
1000
0100
0010
0000
,
0001
0100
0010
0000
,
1000
0100
0010
0000
,
0001
0001
0001
0001
,
1000
1000
1000
1000
,
0001
0010
0100
0100
,
1000
0010
0100
0100
,
0001
0010
0100
0100
,
1000
0010
0100
0100
,
0001
0100
0010
1000
,
1000
0100
0010
0001
,
0010
0001
0100
1000
,
0010
1000
0100
0001
,
0000
0000
0000
0000
,
0000
0000
0000
0000
,
0000
0001
0000
1000
,
0000
0200
0000
0000
,
0000
1300
0000
0001
,
0000
0010
0000
0100
,
0000
1000
0000
0001
,
0000
0200
0000
0000
,
0000
0301
1000
0010
,
0000
0100
0001
1000
,
0000
0001
1000
0010
,
0000
0100
0001
1000
,
0000
0010
0100
0001
,
0000
0010
0100
1000
,
0000
1000
0100
0001
,
0000
0001
0100
1000
,
0000
0001
1000
0010
,
0000
0100
0001
1000
,
0000
0001
1000
0010
,
0000
0100
0001
1000
,
0000
0010
0100
0001
,
0000
0010
0100
1000
,
0000
0010
0100
0001
,
0000
0010
0100
1000
,
0001
0001
0001
1000
,
0010
0100
0001
0000
,
1000
0010
0100
0001
,
0010
0100
1000
0000
,
0001
1000
0010
0100
,
0001
1000
0010
0000
,
1000
0001
0010
0100
,
1000
0000
0100
0000
,
1000
1000
1000
0000
,
0010
0100
1000
0000
,
0001
0010
0100
1000
,
0010
0100
0001
0000
,
1000
0001
0010
0100
,
1000
0001
0010
0000
,
1000
0000
0010
0000
,
0001
0100
1000
0000
,
0001
1000
0010
0010
,
0100
0000
1000
0100
,
1000
0001
0010
0010
,
0100
0000
0001
0000
,
0010
1000
0001
0100
,
0010
1000
0001
0001
,
0010
0001
1000
0100
,
0010
0001
1000
0000
,
1000
0001
0010
0010
,
0100
0000
0001
0100
,
0001
1000
0010
0010
,
0100
0000
1000
0000
,
0010
0001
1000
0100
,
0010
0001
1000
1000
,
0010
1000
0001
0000
,
0010
0000
1000
0000
,
0001
0010
0100
0100
,
1000
0010
0100
0100
;

//---------------dance-double - ----------------
#NOTES:
     dance-double:
     :
     Easy:
     6:
     0.254718,0.302259,0.000000,0.016283,0.000000,219.000000,219.000000,0.000000,2.000000,0.000000,0.000000,0.254718,0.302259,0.000000,0.016283,0.000000,219.000000,219.000000,0.000000,2.000000,0.000000,0.000000:
00000000
00000000
00000000
00000000
,
00000000
00000000
00000000
00000000
,
00000000
00000000
00000000
00000000
,
00000000
00000000
00000000
00000000
,
00000000
00000000
00000000
00000000
,
00000001
00000000
00000010
00001000
,
00010000
00000000
00010000
01000000
,
10000000
00000000
00000000
00100000
,
00010000
00000000
00001000
00000000
,
00000010
00000001
00000100
00000000
,
00001000
00010000
00000000
00000000
,
00100000
10000000
01000000
00000000
,
00010000
00001000
00000000
00000000
,
00000010
00000001
00000100
00000000
,
00001000
00010000
00000000
00000000
,
00100000
10000000
01000000
00000000
,
00010000
00001000
00000000
00000000
,
00000100
00000001
00000000
00000000
,
00000010
00001000
00010000
00000000
,
01000000
10000000
00000000
00000000
,
00100000
00010000
00001000
00000000
,
00000100
00000001
00000000
00000000
,
00000010
00001000
00010000
00000000
,
01000000
10000000
00000000
00000000
,
00100000
00010000
00001000
00000000
,
00000000
00000010
00000000
00000002
,
00000000
00001000
00000000
00000000
,
00000000
00000103
00000000
00001000
,
00000000
00010000
00000000
00000000
,
00000000
00100000
00000000
20000000
,
00000000
00010000
00000000
00000000
,
00000000
31000000
00000000
00010000
,
00000000
00001000
00000000
00000000
,
00000010
00000001
00000100
00000000
,
00000010
00000100
00001000
00010000
,
00100000
10000000
01000000
00000000
,
00100000
01000000
00010000
00001000
,
00000010
00000001
00000100
00000000
,
00000010
00000100
00001000
00010000
,
00100000
10000000
01000000
00000000
,
00100000
01000000
00010000
00001000
,
00000100
00000001
00001000
00000000
,
00000010
00000100
00001000
00010000
,
01000000
10000000
00010000
00000000
,
00100000
01000000
00010000
00001000
,
00000100
00000001
00001000
00000000
,
00000010
00000100
00001000
00010000
,
01000000
10000000
00010000
00000000
,
00100000
01000000
00010000
00001000
,
00000010
00000000
00000001
00000000
,
00000100
00000000
00001000
00010000
,
00100000
00000000
10000000
00000000
,
01000000
00000000
00010000
00001000
,
00000100
00000000
00000001
00000000
,
00000010
00000000
00001000
00010000
,
01000000
00000000
10000000
00000000
,
00100000
00000000
00010000
00001000
,
00000010
00000000
00000001
00000000
,
00000100
00000000
00001000
00010000
,
00100000
00000000
10000000
00000000
,
01000000
00000000
00010000
00001000
,
00000100
00000000
00000001
00000000
,
00000010
00000000
00001000
00010000
,
01000000
00000000
10000000
00000000
,
00100000
00000000
00010000
00001000
,
00000010
00000001
00001000
00000010
,
00000100
00001000
00010000
00000000
,
00100000
10000000
00010000
00100000
,
01000000
00010000
00001000
00000000
,
00000100
00000001
00001000
00000100
,
00000010
00001000
00010000
00000000
,
01000000
10000000
00010000
01000000
,
00100000
00010000
00001000
00000000
,
00000010
00000001
00001000
00000010
,
00000100
00001000
00010000
00000000
,
00100000
10000000
00010000
00100000
,
01000000
00010000
00001000
00000000
,
00000100
00000001
00001000
00000100
,
00000010
00001000
00010000
00000000
,
01000000
10000000
00010000
01000000
,
00100000
00010000
00001000
00000000
,
00000100
00000001
00000000
00000000
,
00000010
00001000
00010000
00000000
;

//---------------dance-double - ----------------
#NOTES:
     dance-double:
     :
     Medium:
     9:
     0.416388,0.539792,0.073275,0.008142,0.000000,358.000000,349.000000,9.000000,1.000000,0.000000,0.000000,0.416388,0.539792,0.073275,0.008142,0.000000,358.000000,349.000000,9.000000,1.000000,0.000000,0.000000:
00000000
00000000
00000000
00000000
,
00000000
00000000
00000000
00000000
,
00000000
00000000
00000000
00000000
,
00000000
00000000
00000000
00000000
,
00000000
00000000
00000000
00000000
,
00001000
00000000
00000000
00000000
,
00000010
00000000
00000000
00000001
00000100
00000000
00001000
00000000
,
00010000
00000000
00000000
00000000
,
00100000
00000000
10000000
00000000
01000000
00010000
00001000
00000000
,
00000010
00000001
00000100
00001000
,
00000100
00000000
00000001
00000000
00000100
00001000
00010000
00000000
,
00100000
10000000
01000000
00010000
,
01000000
00000000
10000000
00000000
01000000
00010000
00001000
00000000
,
00000010
00000001
00001000
00000010
,
00000100
00000000
00000001
00000000
00000100
00001000
00010000
00000000
,
00100000
10000000
00010000
00100000
,
01000000
00000000
10000000
00000000
01000000
00010000
00001000
00000000
,
00000010
00000000
00000001
00001000
00000000
00000010
00000100
00000000
,
00000001
00001000
00000000
00000001
00000100
00001000
00010000
00000000
,
00100000
00000000
10000000
00010000
00000000
00100000
01000000
00000000
,
10000000
00010000
00000000
10000000
01000000
00010000
00001000
00000000
,
00000100
00000000
00000001
00001000
00000000
00000100
00000010
00000000
,
00000001
00001000
00000000
00000001
00000010
00001000
00010000
00000000
,
01000000
00000000
10000000
00010000
00000000
01000000
00100000
00000000
,
10000000
00010000
00000000
10000000
00100000
00010000
00000000
00001000
,
00000000
00000010
00000000
00000001
00000000
00000100
00000000
00001000
,
00000000
00010000
00000000
00100000
00000000
10000000
00000000
01000000
,
00000000
00010000
00000000
00001000
00000000
00000010
00000000
00000001
,
00000000
00000100
00000000
00001000
00000000
00010000
00000000
00100000
,
01000000
01000000
00010000
00001000
,
00000100
00000001
00000010
00001000
,
00010000
00001000
00010000
00100000
,
00010000
00021000
00000000
00031000
,
00000000
00000010
00000000
00000001
00000000
00001000
00000000
00000100
,
00000000
00000010
00000000
00000001
00000000
00000100
00001000
00010000
,
00000000
00100000
00000000
10000000
00000000
00010000
00000000
01000000
,
00000000
00100000
00000000
10000000
00000000
01000000
00010000
00001000
,
00000000
00000010
00000000
00000001
00000000
00001000
00000000
00000100
,
00000000
00000010
00000000
00000001
00000000
00000100
00001000
00010000
,
00000000
00100000
00000000
10000000
00000000
00010000
00000000
01000000
,
00000000
00100000
00000000
10000000
00000000
01000000
00010000
00001000
,
00000000
00000010
00000001
00000000
00001000
00000100
00000000
00000010
,
00000000
00000001
00001000
00000000
00001000
00000000
00001000
00010000
,
00000000
00100000
10000000
00000000
00010000
01000000
00000000
00100000
,
00000000
00100000
00010000
00000000
00001000
00000000
00010000
00001000
,
00011000
00001100
00011000
00001100
,
00001000
00000010
00001000
00000000
00000010
00000100
00001000
00010000
,
00100000
00010000
00100000
00000000
11000000
00000000
01010000
00000000
,
00011000
00010000
00000100
00001000
,
00000100
00000000
00000010
00000000
00000001
00001000
00000000
00000010
,
00000000
00000100
00000001
00000000
00000100
00001000
00010000
00000000
,
00000000
00000000
00100000
00000000
10000000
00010000
00000000
00100000
,
00000000
01000000
10000000
00000000
01000000
00000000
00010000
00000000
,
00001000
00000101
00001000
00000100
,
00000010
00000000
00000000
00000010
00000100
00001000
00010000
00000000
,
00100000
10000000
00010000
01000000
,
00100000
00000000
00000000
10000000
01000000
00010000
00001000
00000000
,
00000000
00000000
00000010
00000000
00000001
00001000
00000000
00000010
,
00000000
00000100
00000001
00000000
00000100
00001000
00010000
00000000
,
00000000
00000000
00100000
00000000
10000000
00010000
00000000
00100000
,
00000000
01000000
10000000
00000000
01000000
00010000
00001000
00000000
,
00000010
00000001
00001000
00000100
,
00000010
00000000
00000000
00000001
00000100
00001000
00010000
00000000
,
00100000
10000000
00010000
01000000
,
00100000
00000000
00000000
10000000
01000000
00010000
00001000
00000000
,
00000010
00000000
00000001
00000000
00001000
00000010
00000000
00000100
,
00000000
00000001
00000100
00000000
00001000
00000000
00010000
00000000
,
00100000
00000000
10000000
00000000
00010000
00100000
00000000
01000000
,
00000000
10000000
01000000
00000000
00010000
00000000
00001000
00000000
,
00000100
00000000
00000001
00000000
00001000
00000100
00000000
00000010
,
00000000
00000001
00000010
00000000
00001000
00000000
00010000
00000000
,
01000000
00000000
10000000
00000000
00010000
01000000
00000000
00100000
,
00000000
10000000
00100000
00000000
00010000
00000000
00001000
00000000
,
00000010
00000000
00000001
00000000
00001000
00000010
00000000
00000100
,
00000000
00000001
00000100
00000000
00001000
00000000
00010000
00000000
,
00100000
00000000
10000000
00000000
00010000
00100000
00000000
01000000
,
00000000
10000000
01000000
00000000
00010000
00000000
00001000
00000000
,
00000100
00000000
00000001
00000000
00001000
00000100
00000000
00000010
,
00000000
00000001
00000010
00000000
00001000
00000000
00010000
00000000
,
01000000
10000000
00010000
01000000
,
00100000
00000000
00000000
10000000
01000000
00010000
00000000
00000000
,
00000000
00001000
00000000
00000010
00000000
00000001
00000000
00001000
,
00000000
00000001
00000000
00000100
00000000
00001000
00000000
00010000
;

//---------------dance-single - ----------------
#NOTES:
     dance-single:
     :
     Challenge:
     16:
     0.866506,0.875840,0.146550,0.024425,0.590271,745.000000,727.000000,18.000000,3.000000,0.000000,0.000000,0.866506,0.875840,0.146550,0.024425,0.590271,745.000000,727.000000,18.000000,3.000000,0.000000,0.000000:
// measure 0
0000
0000
0000
0000
,  // measure 1
0000
0000
0000
0000
,  // measure 2
0000
0000
0000
0000
,  // measure 3
0000
0000
0000
0000
,  // measure 4
0000
0000
0000
0000
,  // measure 5
1000
0000
0000
1010
0000
0000
0010
0000
0100
0001
0100
0000
0001
0000
0000
0000
,  // measure 6
1000
0000
0000
1001
0000
0000
0100
0000
0001
0100
0001
0000
1000
0000
0000
0000
,  // measure 7
0001
0000
0000
1001
0000
0000
0001
0000
0010
0100
0010
0000
0001
0000
0000
0000
,  // measure 8
0100
0010
0100
0000
0001
0000
1000
0100
1000
0000
0010
0000
0100
0001
0100
0000
,  // measure 9
0010
0010
1000
0100
0001
0100
1000
0010
,  // measure 10
0001
0000
0010
0000
1000
0000
0100
0000
0010
0001
0010
0000
0002
0000
0000
0000
,  // measure 11
0103
0100
0010
1000
1000
0100
0001
0100
,  // measure 12
1000
0000
0001
0000
0001
0000
0010
0000
0001
0100
0001
0000
2000
0000
0000
0000
,  // measure 13
3010
0010
0100
0001
0001
0010
1000
1000
,  // measure 14
0010
0000
0001
0000
0001
0000
0100
0000
0010
1000
0010
0000
0200
0000
0000
0000
,  // measure 15
0301
0000
0010
0000
0011
0000
0000
0000
1000
0000
0010
0000
0100
0010
0100
0000
,  // measure 16
0010
0010
1000
1000
0100
0100
0100
0100
,  // measure 17
0010
0000
0001
0000
1000
0000
0001
0000
0010
0100
0010
0000
0100
0000
1000
0000
,  // measure 18
0001
0010
0001
0000
0100
0010
0100
0000
0010
1000
0010
1000
0010
1000
0010
0000
,  // measure 19
1000
0100
0010
0001
1000
0100
0010
1000
,  // measure 20
0010
0001
0010
0100
0001
0100
1000
0000
,  // measure 21
0010
0000
0100
0000
0001
0010
0001
0000
0100
0010
0100
0000
0010
1000
0010
0000
,  // measure 22
1000
0100
1000
0000
0100
0010
0100
0000
0010
0001
0010
0001
0010
0000
0001
0000
,  // measure 23
1000
0010
1000
0010
1000
0000
0100
0000
0010
0000
1000
0000
0010
0000
0001
0000
,  // measure 24
0010
0000
0100
0000
1000
0000
0100
0000
0010
0000
0001
0000
0100
0001
0100
0000
,  // measure 25
0010
0000
1000
0000
0100
1000
0100
1000
0100
0000
0010
0000
0001
0100
0001
0100
,  // measure 26
0001
0000
0100
0000
0010
1000
0010
0000
1000
0000
0100
0000
0010
0001
0010
0000
,  // measure 27
0100
0000
1000
0000
0010
1000
0010
0000
0100
0000
0001
0000
1000
0010
1000
0000
,  // measure 28
0010
0000
0100
0000
0010
1000
0010
0000
0100
0000
0001
0000
0010
0001
0010
0000
,  // measure 29
0100
0000
0000
0100
0010
0000
0100
0000
1000
0000
0001
0000
0100
0001
0100
0000
,  // measure 30
0010
0000
1000
0100
1000
0000
0001
0000
0010
0000
0100
0000
1000
0100
1000
0000
,  // measure 31
0001
0000
0100
0001
0100
0000
0010
0000
1000
0000
0100
0000
0010
0100
0010
0000
,  // measure 32
0100
0001
0100
0001
0100
0000
0010
0000
0001
0100
0001
0100
0001
0000
1000
0000
,  // measure 33
0010
0000
0010
0000
0100
0000
0100
0000
0010
1000
0010
1000
0001
0000
1000
0000
,  // measure 34
0100
0010
0100
0010
0100
0010
0100
0000
0010
0000
0001
0000
1000
0000
0001
0000
,  // measure 35
0100
0000
0001
0000
0010
0000
0100
0000
1000
0010
1000
0010
1000
0000
0001
0000
,  // measure 36
0100
0001
0100
0001
0100
0001
0100
0000
0010
0000
1000
0100
1000
0000
0000
0000
,  // measure 37
0001
0000
0100
0000
1000
0000
0100
0000
0001
0010
0001
0010
0100
0000
1000
0000
,  // measure 38
0001
0100
0001
0100
0001
0100
0001
0000
1000
0000
0100
0010
0100
0000
0010
0000
,  // measure 39
0001
0000
1000
0000
0010
0000
1000
0000
0100
0010
0100
0010
0001
0000
1000
0000
,  // measure 40
0100
1000
0100
1000
0100
0010
0100
0010
0001
0000
0010
0000
0100
0000
1000
0000
,  // measure 41
1010
0000
0010
0000
0100
0000
0001
0000
0010
0100
1000
0000
0010
1000
0100
0000
,  // measure 42
0010
0001
0100
0000
0100
0010
1000
0000
0100
0000
0010
0000
0001
0000
0000
0000
,  // measure 43
0110
0000
0010
0000
1010
0000
1000
0000
0100
0010
0100
0000
0010
0001
0010
0000
,  // measure 44
0100
1000
0001
0000
0010
0100
1000
0000
0010
0100
0001
0000
0010
0001
0100
0000
,  // measure 45
1010
0010
0110
0100
0101
0001
1001
1000
,  // measure 46
1010
0010
0110
0100
0101
0001
0011
0010
,  // measure 47
0100
0000
1000
0000
0001
0000
0100
0000
0001
0010
0001
0000
0010
0000
0100
0000
,  // measure 48
1000
0100
1000
0100
0010
0001
0010
0001
0100
0010
0100
0010
1000
0001
1000
0001
,  // measure 49
1000
0000
0010
0000
0100
0001
0000
0000
0001
0000
1000
0000
0001
0000
0100
0000
,  // measure 50
0010
1000
0010
0100
0001
0010
0001
0100
,  // measure 51
0000
0000
0110
0000
0010
1000
0000
1000
,  // measure 52
0100
0010
0001
0010
0100
1000
0001
0010
,  // measure 53
0001
0100
1000
0000
0100
0001
0010
1000
,  // measure 54
0010
0001
0100
0010
0100
0001
0010
0100
,  // measure 55
1000
0000
0010
0000
0100
0001
0100
0000
0001
0000
0010
0000
0100
1000
0100
0000
,  // measure 56
1000
0000
0001
0000
0010
0001
0010
0000
0100
0010
0100
0000
0010
0000
0001
0000
,  // measure 57
1000
0000
1000
0000
1000
0000
0000
0000
0010
0000
0100
0001
0000
1000
0001
0000
,  // measure 58
0100
0000
0010
0000
1000
0000
0100
0000
0010
0001
0000
0100
0001
0000
1000
0000
,  // measure 59
0010
0100
0010
0000
1000
0001
0000
0100
,  // measure 60
0001
0010
0100
0010
0001
1000
0100
0010
,  // measure 61
0001
1000
0001
0000
1000
0010
1000
0000
,  // measure 62
0001
1000
0010
1000
0100
0010
0100
1000
,  // measure 63
0010
0100
0010
1000
0001
0100
0010
0100
,  // measure 64
0001
0010
0001
0000
0010
0100
0010
0000
0100
1000
0100
0000
1000
0001
1000
0000
,  // measure 65
1001
0000
0001
0000
0100
1000
0100
0001
,  // measure 66
0010
0000
0000
0100
1000
0100
0000
0010
0100
1000
0000
0001
1000
0000
0010
0000
,  // measure 67
1000
0000
1001
0000
0001
0010
1000
0010
,  // measure 68
0001
0100
0001
0000
0100
0010
0100
0000
0010
1000
0010
1000
0001
1000
0001
1000
,  // measure 69
0100
0010
0001
0010
0100
1000
0001
0000
,  // measure 70
0100
0000
0010
0000
1000
0000
0010
0000
0100
0001
0100
0000
0010
1000
0010
0000
,  // measure 71
1000
0100
1000
0000
0010
0000
0001
0000
0010
0000
1000
0000
0001
0000
0100
0000
,  // measure 72
0010
1000
0010
0000
1000
0100
1000
0000
0100
0010
0100
0010
0001
1000
0001
0000
,  // measure 73
0100
0001
0010
1000
0010
0001
0100
0010
,  // measure 74
1000
0000
0000
0100
0010
0100
0000
0010
0001
0010
0001
1000
0001
0000
1000
0000
,  // measure 75
0010
0100
0001
0100
0010
0100
0001
0010
,  // measure 76
0100
1000
0100
0000
1000
0100
0010
0000
0001
0010
0001
0000
0010
0100
0010
0000
,  // measure 77
0100
1000
0010
0001
0010
1000
0100
0000
,  // measure 78
0010
0001
0100
1000
0100
0001
0010
1000
,  // measure 79
0010
0001
0010
0000
0001
0100
0001
0000
0100
0010
0100
0000
0010
1000
0010
0000
,  // measure 80
1000
0100
1000
0000
0100
0000
0010
0000
0001
0100
0001
0000
1000
0000
0010
0000
,  // measure 81
0100
0001
0100
0000
0001
0010
0001
0000
0010
0100
0010
0000
0100
1000
0100
0000
,  // measure 82
1000
0000
0001
1000
0001
0000
1000
0001
1000
0000
0001
1000
0001
0000
0000
0000
;

//---------------dance-single - Stream!----------------
#NOTES:
     dance-single:
     :
     Edit:
     17:
     0.953738,1.111643,0.179117,0.024425,0.875229,820.000000,798.000000,22.000000,3.000000,0.000000,0.000000,0.953738,1.111643,0.179117,0.024425,0.875229,820.000000,798.000000,22.000000,3.000000,0.000000,0.000000:
// measure 0
0000
0000
0000
0000
,  // measure 1
0000
0000
0000
0000
,  // measure 2
0000
0000
0000
0000
,  // measure 3
0000
0000
0000
0000
,  // measure 4
0000
0000
0000
0000
,  // measure 5
1001
0000
0000
1010
0000
0000
0010
0000
0100
0001
0100
0000
0001
0000
0000
0000
,  // measure 6
1010
0000
0000
1001
0000
0000
0100
0000
0001
0100
0001
0000
1000
0000
0000
0000
,  // measure 7
0011
0000
0000
1001
0000
0000
0001
0000
0010
0100
0010
0000
0001
0000
0000
0000
,  // measure 8
0100
0010
0100
0000
0001
0000
1000
0100
1000
0000
0010
0000
0100
0001
0100
0000
,  // measure 9
0010
0010
1000
0100
0001
0100
1000
0010
,  // measure 10
0001
0000
0010
0000
1000
0000
0100
0000
0010
0001
0010
0001
0020
0000
0000
0000
,  // measure 11
0031
0001
0100
1000
1000
0100
0001
0100
,  // measure 12
0010
0000
1000
0000
1000
0000
0010
0000
0100
0001
0100
0001
2000
0000
0000
0000
,  // measure 13
3010
0010
0100
0001
0001
0010
1000
1000
,  // measure 14
0010
0000
0001
0000
0001
0000
0100
0000
0010
1000
0010
1000
0200
0000
0000
0000
,  // measure 15
1300
0000
0001
0000
0011
0000
0000
0000
1000
0000
0010
0000
0100
0010
0100
0000
,  // measure 16
0010
0010
1000
1000
0100
0100
0100
0100
,  // measure 17
0010
0000
0001
0000
1000
0000
0001
0000
0010
0100
0010
0100
0010
0100
0010
0000
,  // measure 18
0100
1000
0100
0000
0010
0100
0010
0000
0001
1000
0001
1000
0001
1000
0001
0000
,  // measure 19
1000
0100
0010
0001
0100
0010
1000
0100
0010
0001
0100
0010
1000
0100
0010
0001
,  // measure 20
0100
0010
1000
0100
0010
0001
0100
0010
1000
0100
0010
0001
0100
0010
1000
0000
,  // measure 21
0001
0100
0001
0100
0010
0100
0010
0000
1000
0001
0100
0000
0001
1000
0010
0000
,  // measure 22
1000
0100
1000
0100
0010
0100
0010
0001
0100
0001
0100
0001
0010
0001
0010
0001
,  // measure 23
1000
0010
1000
0010
1000
0010
1000
0010
1000
0010
1000
0010
1000
0010
1000
0010
,  // measure 24
1000
0010
1000
0010
1000
0010
1000
0010
1000
0001
0100
0000
0001
0100
0010
0000
,  // measure 25
1000
0000
1000
0000
0100
1000
0100
1000
0100
0000
0010
0000
0001
0100
0001
0100
,  // measure 26
0001
0000
0100
0000
0010
1000
0010
1000
0010
0000
0100
0000
0001
0010
0001
0010
,  // measure 27
0001
0000
1000
0010
1000
0010
1000
0010
1000
0000
0001
1000
0001
1000
0001
1000
,  // measure 28
0001
0000
0100
0010
0100
0010
0100
0010
0100
0000
0001
0010
0001
0010
0001
0010
,  // measure 29
0001
0000
0000
0001
0100
0000
1000
0000
0100
0000
0001
0000
1000
0001
1000
0000
,  // measure 30
0010
0000
1000
0100
1000
0000
0001
0000
0010
0000
0100
0000
1000
0100
1000
0001
,  // measure 31
0100
0000
0001
0010
0001
0000
0100
0000
0010
0000
1000
0000
0100
0010
0100
0000
,  // measure 32
1000
0100
0010
0001
0010
0100
1000
0000
0001
0010
0100
1000
0100
0010
0001
0000
,  // measure 33
0100
0000
0100
0000
0010
0000
0010
0000
1000
0001
1000
0001
1000
0000
0001
0000
,  // measure 34
0100
0010
0100
0010
0100
0010
0100
0000
0010
0000
1000
0100
1000
0000
0001
0000
,  // measure 35
0100
0000
0001
0000
0010
0000
0100
0000
1000
0010
1000
0010
1000
0000
0001
0000
,  // measure 36
0100
0001
0100
0001
0100
0001
0100
0000
0010
0000
1000
0100
1000
0000
0000
0000
,  // measure 37
0001
0000
0100
0000
1000
0000
0100
0000
0001
0010
0001
0010
0100
0000
1000
0000
,  // measure 38
0001
0100
0001
0100
0001
0100
0001
0000
1000
0000
0100
0010
0100
0000
0010
0000
,  // measure 39
0001
0000
1000
0000
0010
0000
1000
0000
0100
0010
0100
0010
0001
0000
1000
0000
,  // measure 40
0100
1000
0100
1000
0100
0010
0100
0010
0001
0010
0100
0010
0100
1000
0100
1000
,  // measure 41
0100
0000
0010
0000
0100
0010
0001
0000
0010
0100
1000
0000
0010
1000
0100
0000
,  // measure 42
0010
0001
0100
0000
0100
0010
1000
0000
0100
0000
0010
0000
0001
0000
0100
0000
,  // measure 43
0110
0000
0010
0000
1010
0000
1000
0000
0100
0010
0100
0000
0010
0001
0010
0000
,  // measure 44
0100
1000
0001
0000
0010
0100
1000
0000
0010
0100
0001
0000
0010
0001
0100
0000
,  // measure 45
1010
0010
0110
0100
0101
0001
1001
1000
,  // measure 46
1010
0010
0110
0100
0101
0001
0011
0010
,  // measure 47
0110
0000
0100
0000
1100
0000
1000
0000
0001
0010
0001
0010
0001
0000
1001
0000
,  // measure 48
1000
0100
1000
0100
0010
0001
0010
0001
0100
0010
0100
0010
1000
0001
1000
0001
,  // measure 49
1000
0000
0010
0000
0100
0001
0000
0100
0001
0000
0100
0001
0000
0100
0001
0000
,  // measure 50
1000
0000
0010
0000
0100
0010
0000
0100
0010
0000
0100
0010
0000
0100
0010
0000
,  // measure 51
0000
1000
1001
0000
0010
1000
0000
1000
,  // measure 52
0100
0010
0001
0010
0100
1000
0001
0010
,  // measure 53
0001
0100
0100
0000
1000
0001
0010
1000
,  // measure 54
0010
0001
0100
0010
0100
0001
0010
0100
,  // measure 55
1000
0000
0010
0000
0100
0001
0100
0000
0001
0000
0010
0000
0100
1000
0100
0000
,  // measure 56
1000
0000
0001
0000
0010
0001
0010
0000
0100
0010
0100
0000
0010
0000
0001
0000
,  // measure 57
1000
0000
1000
0000
1000
0000
0000
0000
0010
0000
0100
0001
0000
1000
0001
0000
,  // measure 58
0100
0000
0010
0000
1000
0000
0100
0000
0010
0001
0000
0100
0001
0000
1000
0000
,  // measure 59
0010
0100
0010
0000
1000
0001
0000
0100
,  // measure 60
0001
0010
0100
0010
0001
1000
0100
0010
,  // measure 61
0001
1000
0001
0000
1000
0010
1000
0000
,  // measure 62
0001
1000
0010
1000
0100
0010
0100
1000
,  // measure 63
0010
0100
0010
1000
0001
0100
0010
0100
,  // measure 64
0001
0010
0001
0010
0100
0010
0100
0010
0100
1000
0100
1000
0001
1000
0001
1000
,  // measure 65
0010
0100
0001
0000
0100
1000
0100
0001
,  // measure 66
0010
0000
0000
0100
1000
0100
0000
0010
0100
1000
0000
0001
1000
0000
0010
0000
,  // measure 67
1000
0000
1001
0000
0001
0010
1000
0010
,  // measure 68
0001
0100
0001
0000
0100
0010
0100
0000
0010
1000
0010
1000
0001
1000
0001
1000
,  // measure 69
0100
0010
0001
0010
0100
1000
0001
0000
,  // measure 70
0100
0000
0010
0000
1000
0000
0010
0000
0100
0001
0100
0000
0010
1000
0010
0000
,  // measure 71
1000
0100
1000
0000
0010
0000
0001
0000
0010
0000
1000
0000
0001
0000
0100
0000
,  // measure 72
0010
1000
0010
0000
1000
0100
1000
0000
0100
0010
0100
0010
0001
1000
0001
0000
,  // measure 73
0100
0001
0010
1000
0010
0001
0100
0010
,  // measure 74
1000
0000
0000
0100
0010
0100
0000
0010
0001
0010
0001
1000
0001
0000
1000
0000
,  // measure 75
0010
0100
0001
0100
0010
0100
0001
0010
,  // measure 76
0100
1000
0100
0000
1000
0100
0010
0000
0001
0010
0001
0010
0100
1000
0100
1000
,  // measure 77
0001
1000
0010
0001
0010
1000
0100
0000
,  // measure 78
0010
0001
0100
1000
0100
0001
0010
1000
,  // measure 79
0010
0001
0010
0000
0001
0100
0001
0000
0100
0010
0100
0000
0010
1000
0010
0000
,  // measure 80
1000
0100
1000
0000
0100
0000
0010
0000
0001
0100
0001
0000
1000
0000
0010
0000
,  // measure 81
0100
0001
0100
0000
0001
0010
0001
0000
0010
0100
0010
0000
0100
1000
0100
0000
,  // measure 82
1000
0000
0001
0010
0100
0000
1000
0100
0010
0000
0001
0010
0100
0000
0000
0000
;
