#TITLE:MAX 300;
#SUBTITLE:;
#ARTIST:Ω;
#TITLETRANSLIT:;
#SUBTITLETRANSLIT:;
#ARTISTTRANSLIT:;
#GENRE:;
#CREDIT:;
#BANNER:MAX 300.png;
#BACKGROUND:MAX 300-bg.png;
#LYRICSPATH:;
#CDTITLE:;
#MUSIC:MAX 300.ogg;
#OFFSET:0.000000;
#SAMPLESTART:13.596000;
#SAMPLELENGTH:15.000000;
#SELECTABLE:YES;
#DISPLAYBPM:300.000000;
#BPMS:0.000000=302.520996
,4.000000=300.070007
,290.000000=214.285995
,291.000000=145.160995
,292.000000=104.651001
,293.000000=64.286003
,294.000000=300.131012
;
#STOPS:294.000000=1.200000
;
#BGCHANGES:;
#KEYSOUNDS:;
#ATTACKS:;

//---------------dance-double - ----------------
#NOTES:
     dance-double:
     :
     Challenge:
     18:
     0.829409,1.002707,0.217448,0.326172,0.076107,534.000000,514.000000,20.000000,30.000000,0.000000,0.000000,0.829409,1.002707,0.217448,0.326172,0.076107,534.000000,514.000000,20.000000,30.000000,0.000000,0.000000:
00000000
00000000
00000000
00000000
,
00000000
00000000
00000000
00000000
,
00000000
00000000
00000000
00000000
,
00000000
00000000
00000000
00000000
,
00000000
00000000
00000000
00000000
,
00001000
00000000
00001000
00000000
00001000
00010000
00000000
00010000
,
00100000
00000000
10000000
00000000
01000000
00010000
00000000
00010000
,
00001000
00000000
00000010
00000000
00000001
00000100
00000000
00000100
,
00001000
00010000
00011000
00000000
,
00010000
00000000
00010000
00000000
00010000
00001000
00000000
00001000
,
00000010
00000000
00000001
00000000
00000100
00001000
00000000
00001000
,
00010000
00000000
00100000
00000000
10000000
01000000
00000000
01000000
,
00010000
00001000
00012000
00000000
,
00010000
00000000
00013000
00000000
00010000
01000000
00000000
01000000
,
00100000
00010000
00001000
00000100
,
00000001
00001000
00000100
00000000
00001000
00000001
00000100
00000000
,
00000001
00000100
00001000
00010000
00001000
00000100
00000010
00001000
,
00000100
00000000
00000001
00000000
00000000
00000100
00000000
00000100
,
00001000
00000000
00010000
00000000
00000000
00100000
00000000
00100000
,
01000000
00000000
20000000
00000000
00000000
30100000
00000000
00100000
,
00010000
00001000
00010000
01000000
00100000
00000000
01000000
00000000
,
00100000
00000000
01000000
00000000
00000000
01000000
00000000
01000000
,
00020000
00000000
00002000
00030000
00000000
00003010
00000000
00000010
,
00000002
00000000
00000200
00000003
00000000
00001300
00000000
00001000
,
00010000
00100000
10000000
01000000
00100000
00000000
00010000
00000000
,
01000000
00000000
00100000
00000000
00000000
00010000
00000000
00010000
,
00002000
00000000
00000200
00003000
00000000
00000310
00000000
00000010
,
00002000
00000000
00020000
00003000
00000000
01030000
00000000
01000000
,
00100000
00010000
00001000
00000100
00000001
00000000
00001000
00000000
,
00000200
00000000
00000001
00000000
00000000
00000001
00000300
00000001
,
00000100
00000000
00000010
00000000
00000000
00000001
00000000
00000000
,
00000100
00001000
00000000
00010000
00100000
00000000
01100000
00000000
,
00100000
10000000
01000000
00010000
01000000
10000000
00100000
00000000
,
02000000
03200000
00320000
00032000
,
00003200
00000320
00000032
00000023
,
00002030
00000000
00023000
00000000
01030000
00100000
01000000
00100000
,
01000000
10000000
01000000
00010000
,
00100000
01000000
00010000
00001000
,
00000100
00000000
00000001
00000000
00000010
00000100
00000010
00000100
,
00000010
00001000
00000001
00000100
,
00000010
00001000
00010000
01000000
,
00100000
00000000
10000000
00000000
00100000
01000000
00100000
01000000
,
00100000
00010000
01000000
00100000
,
10000000
00000000
01000000
00100000
00010000
00100000
01000000
00000000
,
01100000
01010000
00011000
00000000
,
00000010
00000020
00000001
00000031
,
00000100
00000100
00001000
00001000
,
00010000
00010000
10000000
10000000
,
00010000
00010000
00001000
00001000
,
00000010
00000010
00001000
00001000
,
00000010
00000010
00000001
00000001
,
00000100
00000100
00001000
00001000
,
00010000
00010000
00100000
00100000
,
10000000
10000000
01000000
01000000
,
00010000
00010000
00001000
00001000
,
00000010
00000010
00000001
00000001
,
00000110
00000110
00011000
00000000
,
00001000
00000000
00001000
00000000
00001000
00010000
00000000
00010000
,
00100000
00000000
01000000
00000000
00010000
01000000
00000000
01000000
,
10000000
00000000
00100000
00000000
00010000
00001000
00000000
00001000
,
00000001
00000010
00000100
00000000
,
00000010
00000000
00000001
00000000
00000001
00000100
00000000
00000010
,
00001000
00000000
00000100
00000000
00010000
00001000
00000000
00001000
,
00010000
00001000
00000000
00001000
00010000
00001000
01000000
00100000
,
01000000
00100000
10000000
00000000
,
00100000
00000000
00100000
00000000
10000000
01000000
00100000
00000000
,
00010000
00000000
00010000
00000000
00100000
00010000
00001000
00000000
,
00010000
00001000
00000100
00010000
00001000
00100000
01000000
00010000
,
00001000
00000010
00000100
00001000
00000001
00000000
00000000
00000000
,
00000001
00000100
00001000
00000000
00010000
00100000
10000000
00000000
,
10000000
01000000
00010000
00000000
00001000
00000010
00000001
00000000
,
00000010
00001000
00001000
00000100
00001000
00001000
,
00010000
00010000
00100000
02200000
00000000
00000000
,
00000000
00000000
00000000
00000000
00000000
00000000
00000000
00000000
00000000
00000000
00000000
00000000
00000000
00000000
00000000
00000000
00000000
00000000
00000000
00000000
00000000
00000000
00000000
00000000
00000000
00000000
00000000
00000000
00000000
00000000
00000000
00000000
00000000
03300000
00000000
00000000
00000000
00000000
00000000
00000000
00000000
00000000
00000000
00000000
00000000
00000000
00000000
00000000
00010000
00000000
00000000
00000000
00000000
00000000
00000000
00000000
01000000
00000000
00000000
00000000
00000000
00000000
00000000
00000000
,
10000000
00100000
00010000
00000000
00010000
00100000
10000000
01000000
,
00010000
00000000
00001000
00000000
00010000
00000000
00001000
00000010
,
00000001
00000010
00001000
00010000
01000000
00000000
00010000
01000000
,
10000000
01000000
00010000
00000000
00010000
01000000
00100000
10000000
,
01000000
00100000
10000000
00100000
01000000
10000000
00100000
00000000
,
00100000
00010000
00001000
00000100
00000010
00000000
00000010
00000100
,
00001000
00010000
00100000
01000000
10000000
01000000
10000000
01000000
,
00010000
00100000
01000000
00000000
01000000
00100000
00010000
00001000
,
00000100
00000010
00000001
00000000
00000100
00000010
00001000
00000100
,
00010000
00000000
00001000
00000100
00000010
00001000
00000100
00000000
,
00010000
00001000
00000010
00000001
00000100
00000000
00001000
00010000
,
00100000
10000000
01000000
00000000
01000000
10000000
00100000
00010000
,
00001000
00000000
00000100
00000001
00000010
00001000
00010000
00000000
,
00100000
00010000
00001000
00000100
00000001
00000000
00000001
00000100
,
00001000
00010000
01000000
00000000
00100000
00010000
00001000
01000000
,
00100000
00010000
00001000
01000000
00100000
00000000
01100000
00000000
,
10000000
01000000
00000000
01000000
00010000
00000000
00100000
00000000
,
00012000
00000000
00003000
00000120
00000000
00000030
00000100
00000000
,
00000001
00000100
00000000
00000100
00001000
00000000
00000010
00000000
,
00021000
00000000
00030000
01200000
00000000
00300000
01000000
00000000
,
00100000
10000000
00000000
10000000
01000000
00000000
00100000
00000000
,
00010000
01000000
00000000
01000000
00010000
00000000
00100000
00000000
,
00001000
00010000
00000000
00010000
01000000
00000000
10000000
00000000
,
00000000
00000000
00000000
00000001
,
00000100
00000010
00001000
00000100
00000010
00000000
00000100
00000000
,
00001000
00010000
00100000
10000000
01000000
00000000
00100000
00000000
,
00100000
01000000
00001000
00010000
01000000
10000000
00100000
00010000
,
00001000
00000010
00001000
00010000
00001000
00000100
00000001
00000010
,
00000100
00001000
00001000
00010000
00100000
10000000
01000000
00100000
,
10000000
00000000
00000000
00100000
00000000
00000000
00010000
00000000
00000000
00001000
00000000
00000000
00000100
00000000
00000000
00000010
00000000
00000000
00000001
00000000
00000000
00000000
00000011
00000000
,
00000000
00000010
00000000
00000000
00000000
00000000
00000000
00000000
00000000
00010000
00000000
00010100
,
00000000
00000100
00000000
00000000
00000000
00000000
00000000
00000000
00000000
00000011
00000000
00000001
,
00000000
00000010
00000000
00000010
00000000
00001000
00000000
00001010
00000000
00020200
00000000
00000000
,
00000000
00000000
00000000
00000000
,
00000000
00000000
00030300
00000000
,
00000000
00000000
00000000
00000000
;

//---------------dance-single - ----------------
#NOTES:
     dance-single:
     :
     Beginner:
     5:
     0.133575,0.232126,0.010872,0.000000,0.000000,86.000000,85.000000,1.000000,0.000000,0.000000,0.000000,0.133575,0.232126,0.010872,0.000000,0.000000,86.000000,85.000000,1.000000,0.000000,0.000000,0.000000:
0000
0000
0000
0000
,
0000
0000
0000
0000
,
0000
0000
0000
0000
,
0000
0000
0000
0000
,
0000
0000
0000
0000
,
0001
0000
0000
0000
,
0000
0000
0000
0000
,
0001
0000
0000
0000
,
0000
0000
0000
0000
,
1000
0000
0000
0000
,
0000
0000
0000
0000
,
1000
0000
0000
0000
,
0000
0000
0000
0000
,
0010
0000
0000
0000
,
0000
0000
0000
0000
,
0010
0000
0000
0000
,
0010
0000
0000
0000
,
0010
0000
0000
0000
,
0001
0000
0000
0000
,
1000
0000
0000
0000
,
0001
0000
0000
0000
,
1000
0000
0000
0000
,
0001
0000
0000
0000
,
1000
0000
0000
0000
,
0001
0000
0000
0000
,
0010
0000
0000
0000
,
0100
0000
0000
0000
,
0010
0000
0000
0000
,
0100
0000
0000
0000
,
1000
0000
0000
0000
,
0001
0000
0000
0000
,
1000
0000
0000
0000
,
1000
0000
0000
0000
,
1000
0000
0000
0000
,
0000
0000
0000
0000
,
0001
0000
0000
0000
,
0000
0000
0000
0000
,
0010
0000
0000
0000
,
0000
0000
0000
0000
,
0100
0000
0000
0000
,
0000
0000
0000
0000
,
0001
0000
0000
0000
,
0000
0000
0000
0000
,
0100
0000
0000
0000
,
0000
0000
0000
0000
,
1000
0000
0000
0000
,
0001
0000
0000
0000
,
1000
0000
0000
0000
,
0001
0000
0000
0000
,
1000
0000
0000
0000
,
0001
0000
0000
0000
,
1000
0000
0000
0000
,
0001
0000
0000
0000
,
0001
0000
0000
0000
,
1000
0000
0000
0000
,
0001
0000
0000
0000
,
1000
0000
0000
0000
,
0001
0000
0000
0000
,
0001
0000
0000
0000
,
0001
0000
0000
0000
,
0001
0000
0000
0000
,
1000
0000
0000
0000
,
1000
0000
0000
0000
,
1000
0000
0000
0000
,
1000
0000
0000
0000
,
0010
0000
0000
0000
,
0100
0000
0000
0000
,
0010
0000
0000
0000
,
0100
0000
0000
0000
,
0001
0000
0000
0000
,
1000
0000
0000
0000
,
0001
0000
0000
0000
,
1000
0000
0000
0000
,
0000
0000
0000
0001
,
0000
0000
0000
0000
,
0000
0000
0000
1000
,
0000
0000
0000
0000
,
0000
0000
0000
0001
,
0000
0000
0000
0000
,
0000
0000
0000
0001
,
0000
0000
0000
0000
,
0000
0000
0000
0010
,
0000
0000
0000
0000
,
0000
0000
0000
0100
,
0000
0000
0000
0000
,
0000
0000
0000
1000
,
0000
0000
0000
1000
,
0000
0000
0000
1000
,
0000
0000
0000
0001
,
0000
0000
0000
0100
,
0000
0000
0000
1000
,
0000
0000
0000
0010
,
0000
0000
0000
0001
,
0000
0000
0000
1000
,
0000
0000
0000
0100
,
0000
0000
0000
0001
,
0000
0000
0000
0010
,
0000
0000
0000
0100
,
0000
0000
0000
1000
,
0000
0000
0000
0010
,
0000
0000
0000
0001
,
0000
0000
0000
1000
,
0000
0000
0000
0100
,
0000
0000
0000
0001
,
0000
0000
0000
0010
,
0000
0000
0000
1000
,
0000
0000
0000
1001
,
0000
0000
0000
0000
;

//---------------dance-single - ----------------
#NOTES:
     dance-single:
     :
     Easy:
     9:
     0.434896,0.530845,0.173958,0.043490,0.000000,280.000000,264.000000,16.000000,4.000000,0.000000,0.000000,0.434896,0.530845,0.173958,0.043490,0.000000,280.000000,264.000000,16.000000,4.000000,0.000000,0.000000:
0000
0000
0000
0000
,
0000
0000
0000
0000
,
0000
0000
0000
0000
,
0000
0000
0000
0000
,
0000
0000
0000
0000
,
1000
0000
1000
0000
,
0001
0000
0001
0000
,
1000
0000
0100
0000
,
0010
0001
1000
0000
,
0001
0000
0100
0000
,
0001
0000
0010
0000
,
0100
0000
1000
0000
,
0001
1000
0001
0000
,
1000
0100
1000
0000
,
0001
0010
0001
0000
,
1000
0100
1000
0100
,
0010
0001
0010
0000
,
0001
0000
0010
0000
,
0100
0000
1000
0000
,
0001
0010
0001
0000
,
1000
0100
1000
0100
,
0001
0000
0010
0000
,
0100
0000
1000
0000
,
0001
0010
0001
0000
,
1000
0100
1000
0100
,
0001
0000
0100
0000
,
0010
0000
1000
0000
,
0001
0100
0001
0000
,
1000
0010
1000
0010
,
1000
0000
1000
0000
,
0001
1000
0001
0000
,
1000
0000
0000
0001
0000
0000
1000
0000
,
0010
0100
0010
0000
,
1000
0100
0010
0000
,
0001
0000
1000
0000
,
0001
0100
0010
0000
,
1000
0000
0001
0000
,
1000
0100
0010
0000
,
0001
0000
0100
0000
,
0010
0000
1000
0000
,
0001
0100
1000
0000
,
0100
0000
0001
0000
,
1000
0100
0001
0000
,
0100
0000
1000
0000
,
0001
0100
0001
0000
,
1000
0100
1000
0000
,
0001
0100
0001
0000
,
1000
0010
1000
0000
,
0001
0010
0001
0000
,
1000
0100
1000
0000
,
0001
0100
0001
0000
,
1000
0010
1000
0000
,
0001
0010
0001
0000
,
1000
0100
0001
0000
,
0100
0000
1000
0000
,
0001
0100
1000
0000
,
0100
0000
0001
0000
,
1000
0100
1000
0000
,
0001
0010
0001
0000
,
1000
0100
0010
0001
,
1000
0100
1000
0000
,
0010
0001
0010
0000
,
0100
1000
0100
0000
,
0010
0001
1000
0100
,
0010
0001
0010
0000
,
0001
1000
0100
0000
,
1000
0001
0100
0000
,
0001
1000
0010
0100
,
0010
1000
0001
0000
,
1000
0001
0010
0000
,
0001
1000
0010
0000
,
1100
0000
0011
0000
,
0101
0000
2002
0000
,
0000
0000
3003
0001
,
0000
0001
0000
0000
,
1000
0001
0000
1000
,
0000
1000
0001
0000
,
0001
1000
0000
0001
,
0100
0010
1000
0000
,
0100
1000
0000
0001
,
0100
0010
1000
0000
,
0100
1000
0001
0010
,
0000
0010
0000
0000
,
0100
0010
0000
0100
,
0000
0100
0000
0000
,
0010
0100
0000
1000
,
1000
1000
1000
0000
,
0001
0001
0000
0010
,
0010
0010
0010
0000
,
0100
0100
0100
1000
,
0000
0001
0000
0000
1000
0000
1001
0000
,
0000
0000
0000
1000
,
0000
0100
0000
0000
1000
0000
1100
0000
,
0000
0000
0000
0001
,
0000
0100
0000
0000
0001
0000
0101
0000
,
0000
0000
0000
0010
,
0000
0100
0000
0000
0010
0000
0110
0000
,
0000
0000
0000
1000
,
0000
0100
0000
0000
0010
0000
0011
0000
,
0000
0000
0000
0001
,
0000
0100
0000
0000
0010
0000
1010
0000
,
0000
0000
0000
1000
,
0000
0001
0000
0000
0100
0000
0110
0000
,
0000
0000
0000
1001
,
0000
0000
0000
0110
,
0000
0000
0000
1100
,
0000
0101
0000
2002
,
0000
0000
0000
0000
,
0000
0000
3003
0000
,
0000
0000
0000
0000
;

//---------------dance-single - ----------------
#NOTES:
     dance-single:
     :
     Medium:
     12:
     0.599535,1.002707,0.141341,0.402279,0.043490,386.000000,373.000000,13.000000,37.000000,0.000000,0.000000,0.599535,1.002707,0.141341,0.402279,0.043490,386.000000,373.000000,13.000000,37.000000,0.000000,0.000000:
// measure 0
0000
0000
0000
0000
,  // measure 1
0000
0000
0000
0000
,  // measure 2
0000
0000
0000
0000
,  // measure 3
0000
0000
0000
0000
,  // measure 4
0000
0000
0000
0000
,  // measure 5
0001
0100
0020
0030
,  // measure 6
1000
0100
0020
0030
,  // measure 7
0001
1000
0001
1000
,  // measure 8
0001
1000
2000
3000
,  // measure 9
0001
0010
0200
0300
,  // measure 10
1000
0010
0200
0300
,  // measure 11
0001
1000
0001
1000
,  // measure 12
0001
1000
2000
3000
,  // measure 13
0010
1000
0001
0100
,  // measure 14
0010
1000
0001
0100
,  // measure 15
0001
0100
0010
1000
,  // measure 16
0001
0100
0010
1000
0001
0100
0010
1000
,  // measure 17
0010
1000
0010
1000
,  // measure 18
0001
0100
0001
0100
,  // measure 19
0010
1000
0100
0010
,  // measure 20
0001
1000
0100
0010
,  // measure 21
0001
1000
0002
0003
,  // measure 22
1000
0001
2000
3000
,  // measure 23
0001
1000
0001
1000
,  // measure 24
0110
0000
1001
0000
,  // measure 25
0010
0100
0020
0030
,  // measure 26
0100
0010
0200
0300
,  // measure 27
0010
0100
0020
0030
,  // measure 28
1001
0000
0110
0000
,  // measure 29
0001
1000
0002
0003
,  // measure 30
0010
0100
0020
0030
,  // measure 31
1000
0000
0000
0101
0000
0000
1100
0000
,  // measure 32
0010
0001
1000
0100
0010
0001
1000
0100
,  // measure 33
0010
0100
1000
0001
,  // measure 34
0100
0010
0100
0001
,  // measure 35
1000
0100
1000
0010
,  // measure 36
0100
0001
0100
0010
,  // measure 37
0100
0100
0010
0010
,  // measure 38
1000
1000
0001
0001
,  // measure 39
2000
3000
0100
0010
,  // measure 40
0001
0010
0200
0300
,  // measure 41
2000
3000
0100
0010
,  // measure 42
0001
1000
0200
0300
,  // measure 43
1000
0010
0100
0020
,  // measure 44
0000
0030
1000
0001
,  // measure 45
1000
0010
1000
0010
,  // measure 46
1000
0010
1000
0010
,  // measure 47
0100
0001
0100
0001
,  // measure 48
0100
0001
0100
0001
,  // measure 49
1000
0010
0100
0001
,  // measure 50
1000
0100
0010
0001
,  // measure 51
1000
0100
0001
0010
,  // measure 52
1000
0100
0001
0010
,  // measure 53
1000
0100
0010
0001
,  // measure 54
1000
0100
0010
0001
,  // measure 55
1000
0010
0200
0300
,  // measure 56
1010
0000
0101
0000
,  // measure 57
1000
0000
0010
0000
1000
0010
0000
0000
,  // measure 58
1000
0000
0100
0000
1000
0100
0000
0000
,  // measure 59
1000
0100
0010
0001
,  // measure 60
1000
0001
2000
3000
,  // measure 61
0001
0000
0010
0000
0001
0010
0000
0000
,  // measure 62
0001
0000
0100
0000
0001
0100
0000
0000
,  // measure 63
0001
0100
0010
1000
,  // measure 64
0001
1000
0002
0003
,  // measure 65
0010
0000
0100
0000
0010
0100
0000
0000
,  // measure 66
0001
0000
1000
0000
0001
1000
0000
0000
,  // measure 67
1000
0100
0010
0100
,  // measure 68
1000
0010
0200
0300
,  // measure 69
0001
1000
0200
0300
,  // measure 70
1000
0001
0200
0300
,  // measure 71
1000
0000
0100
0000
1000
0000
0001
0000
0100
0000
0001
0000
,  // measure 72
0100
0000
2002
0000
,  // measure 73
0000
0000
3003
0001
,  // measure 74
0010
0100
1000
0001
,  // measure 75
0100
0020
0030
1000
,  // measure 76
0100
0010
0001
1000
,  // measure 77
0100
0020
0030
0001
,  // measure 78
0100
0001
0100
0010
,  // measure 79
1000
0010
0000
1000
,  // measure 80
0100
1000
0100
0010
,  // measure 81
0001
0010
0001
1000
,  // measure 82
0001
1000
0001
1000
,  // measure 83
0001
0100
0010
0100
,  // measure 84
0010
0100
0000
0001
,  // measure 85
0001
0002
1003
1000
,  // measure 86
2000
3100
0100
0200
,  // measure 87
0310
0010
0020
0031
,  // measure 88
0100
0001
1000
0100
,  // measure 89
1000
0001
1000
0001
,  // measure 90
0000
0010
0000
0000
0010
0000
0001
0000
,  // measure 91
0000
1000
0000
0000
1000
0000
0001
0000
,  // measure 92
0000
0100
0000
0000
0100
0000
0001
0000
,  // measure 93
0000
0101
0000
0001
,  // measure 94
0000
0100
0000
0001
0100
0000
0001
0000
,  // measure 95
0000
1000
0000
0001
1000
0000
0001
0000
,  // measure 96
0000
0010
0000
0100
0010
0000
0002
0000
,  // measure 97
0000
0000
0003
1000
,  // measure 98
0000
0001
0000
0100
0010
0000
1000
0000
,  // measure 99
0000
0001
0000
0100
0010
0000
1000
0000
,  // measure 100
0000
0001
0000
0100
0010
0000
1000
0000
,  // measure 101
0000
0001
0000
0100
0010
0000
1000
0001
,  // measure 102
0100
0010
1000
0100
0010
0001
1000
0100
,  // measure 103
0010
0000
0000
0001
0000
0000
1000
0000
0000
0001
0000
0000
0100
0000
0000
0010
0000
0000
1000
0000
0000
0000
0001
0000
,  // measure 104
0000
2000
0000
0000
0000
0000
3000
0000
0000
0001
0000
1000
,  // measure 105
0000
0002
0000
0000
0000
0000
0003
0000
0000
1100
0000
0000
,  // measure 106
0000
0101
0000
2002
,  // measure 107
0000
0000
0000
0000
,  // measure 108
0000
0000
3003
0000
;

//---------------dance-single - ----------------
#NOTES:
     dance-single:
     :
     Hard:
     15:
     0.889984,1.002707,0.195703,0.043490,0.065234,573.000000,555.000000,18.000000,4.000000,0.000000,0.000000,0.889984,1.002707,0.195703,0.043490,0.065234,573.000000,555.000000,18.000000,4.000000,0.000000,0.000000:
// measure 0
0000
0000
0000
0000
,  // measure 1
0000
0000
0000
0000
,  // measure 2
0000
0000
0000
0000
,  // measure 3
0000
0000
0000
0000
,  // measure 4
0000
0000
0000
0000
,  // measure 5
0001
0000
0100
0000
0010
1000
0000
0010
,  // measure 6
1000
0000
0100
0000
0010
0001
0000
0010
,  // measure 7
0001
0000
1000
0000
0001
0100
0000
0010
,  // measure 8
1000
0001
0001
0000
,  // measure 9
1000
0000
0100
0000
0010
0001
0000
0010
,  // measure 10
0001
0000
0100
0000
0010
1000
0000
0010
,  // measure 11
1000
0000
0001
0000
1000
0100
0000
0010
,  // measure 12
0001
1000
1000
0000
,  // measure 13
0001
0000
1000
0100
1000
0100
1000
0100
,  // measure 14
1000
0000
0001
0100
0001
0100
0001
0100
,  // measure 15
0010
1000
0010
0000
0100
0001
0100
0000
,  // measure 16
0001
0010
0100
1000
0010
0100
0001
1000
,  // measure 17
0010
1000
0010
1000
,  // measure 18
0001
0100
0001
0100
,  // measure 19
0010
1000
0100
0010
,  // measure 20
0001
1000
0100
0010
,  // measure 21
0001
0010
0001
0010
0001
0010
0001
0010
,  // measure 22
0100
1000
0100
1000
0100
1000
0100
1000
,  // measure 23
0001
0010
0100
1000
0010
0100
0001
1000
,  // measure 24
0100
0010
0001
0100
0010
1000
0001
0100
,  // measure 25
0010
0100
0010
1000
,  // measure 26
0100
0010
0001
0100
,  // measure 27
0001
1000
0010
0100
,  // measure 28
0010
1000
0100
0010
,  // measure 29
0001
0100
0001
0100
0001
1000
0001
1000
,  // measure 30
0001
0010
0001
0010
0001
1000
0001
1000
,  // measure 31
0001
0000
0000
0101
0000
0000
1100
0000
,  // measure 32
0010
0001
1000
0100
,  // measure 33
0010
0001
0010
0000
0001
0100
0001
0000
,  // measure 34
0100
0010
1000
0001
,  // measure 35
1000
0010
1000
0000
0010
0100
0010
0000
,  // measure 36
0100
0001
1000
0010
,  // measure 37
1000
0001
1000
0000
0001
1000
0001
0000
,  // measure 38
1000
1000
0001
0001
,  // measure 39
0010
0000
0001
0100
0001
0000
0100
0010
,  // measure 40
0100
0001
1000
0010
,  // measure 41
1000
0000
0100
0010
0100
0000
0010
0001
,  // measure 42
0010
0100
1000
0001
,  // measure 43
1000
0000
0001
0100
0010
1000
0001
0100
,  // measure 44
0010
0010
0100
0100
,  // measure 45
0001
1000
0001
0000
1000
0001
1000
0000
,  // measure 46
0001
0100
0001
0000
0100
0010
0100
0000
,  // measure 47
0010
1000
0010
0000
1000
0100
1000
0000
,  // measure 48
0100
0010
0100
0000
0010
0001
0010
0000
,  // measure 49
0001
0100
0001
0000
1000
0100
1000
0000
,  // measure 50
0001
0010
0001
0000
1000
0100
1000
0000
,  // measure 51
0001
1000
0100
0000
0010
0001
0100
0000
,  // measure 52
0001
1000
0010
0000
0100
0001
1000
0000
,  // measure 53
0100
1000
0001
0000
0010
0001
1000
0000
,  // measure 54
0010
0100
0001
0000
1000
0100
0010
0000
,  // measure 55
0001
1000
0001
0000
1000
0000
0000
0000
,  // measure 56
1100
0000
0101
0000
,  // measure 57
1000
0000
0100
1000
0000
0001
0100
0001
,  // measure 58
1000
0000
0010
1000
0000
0001
0010
0001
,  // measure 59
0010
0000
0100
0000
1000
0001
1000
0001
,  // measure 60
1000
1100
0011
0000
,  // measure 61
0001
0000
0100
0001
0000
1000
0100
1000
,  // measure 62
0001
0000
0010
0001
0000
1000
0010
1000
,  // measure 63
0010
0000
0100
0000
0001
1000
0001
1000
,  // measure 64
0001
0101
1010
0000
,  // measure 65
0010
0000
1000
0001
1000
0100
1000
0001
,  // measure 66
0010
0000
0001
1000
0001
0100
0001
1000
,  // measure 67
0010
0000
1000
0100
0010
0001
0100
0010
,  // measure 68
1000
1100
0101
0000
,  // measure 69
1000
0000
0001
0100
0001
0100
0001
0100
,  // measure 70
0001
0000
1000
0100
1000
0100
1000
0100
,  // measure 71
1000
0000
0001
0000
1000
0000
0001
0000
1000
0000
0001
0000
,  // measure 72
0100
0000
2002
0000
,  // measure 73
0000
0000
3003
1000
,  // measure 74
0001
0000
0010
0100
1000
0001
1000
0100
,  // measure 75
0010
0001
1000
0001
0100
0000
0010
0000
,  // measure 76
1000
0100
1000
0001
1000
0000
0010
1000
,  // measure 77
0001
0100
0001
0000
0010
0100
1000
0100
,  // measure 78
1000
0001
1000
0010
1000
0001
0100
0000
,  // measure 79
0010
1000
0100
0010
0001
0000
0100
0001
,  // measure 80
0000
0000
1000
0000
0001
0100
0010
1000
,  // measure 81
0010
1000
0001
0000
1000
0000
0001
0100
,  // measure 82
0001
0100
0001
0000
1000
0100
1000
0100
,  // measure 83
1000
0000
0010
0100
0010
0100
0010
0000
,  // measure 84
1000
0001
1000
0001
1000
0000
0001
0100
,  // measure 85
0001
0010
0001
0000
1000
0100
1000
0010
,  // measure 86
1000
0000
0010
0100
0010
1000
0001
0000
,  // measure 87
1000
0001
1000
0010
0100
0000
0001
0010
,  // measure 88
0100
1000
0001
0000
1000
0100
1000
0010
,  // measure 89
1000
0001
1000
0010
1000
0100
0010
0000
,  // measure 90
0001
1000
0000
1000
0001
0000
0010
0000
,  // measure 91
0011
0000
0000
1100
0000
0000
0100
0000
,  // measure 92
1000
0001
0000
0001
1000
0000
0100
0000
,  // measure 93
1100
0000
0000
0011
0000
0000
0001
0000
,  // measure 94
0010
0100
0000
0100
0010
0000
0001
0000
,  // measure 95
0100
0010
0000
0010
0100
0000
0010
0000
,  // measure 96
1000
0001
0000
0001
1000
0000
0001
0000
,  // measure 97
1001
0000
0000
1001
0000
0000
0010
0000
,  // measure 98
0001
1000
0001
0000
0100
0000
0001
0000
,  // measure 99
0010
0100
0010
0000
0001
0000
0100
0000
,  // measure 100
0001
1000
0001
0000
0010
0000
1000
0000
,  // measure 101
0100
0010
0100
0000
1000
0000
0010
0100
,  // measure 102
0010
1000
0001
0100
0010
1000
0001
0010
,  // measure 103
0100
0000
0000
1000
0000
0000
0010
0000
0000
0100
0000
0000
0001
0000
0000
1000
0000
0000
0001
0000
0000
0000
0001
0000
,  // measure 104
0000
0001
0000
0000
0000
0000
0000
0000
0000
1000
0000
1000
,  // measure 105
0000
1000
0000
0000
0000
0000
0000
0000
0000
0010
0000
0010
,  // measure 106
0000
0010
0000
0100
0000
0100
0000
0100
0000
2002
0000
0000
,  // measure 107
0000
0000
0000
0000
,  // measure 108
0000
0000
3003
0000
;

//---------------dance-double - ----------------
#NOTES:
     dance-double:
     :
     Easy:
     9:
     0.422470,0.530845,0.097852,0.108724,0.000000,272.000000,263.000000,9.000000,10.000000,0.000000,0.000000,0.422470,0.530845,0.097852,0.108724,0.000000,272.000000,263.000000,9.000000,10.000000,0.000000,0.000000:
00000000
00000000
00000000
00000000
,
00000000
00000000
00000000
00000000
,
00000000
00000000
00000000
00000000
,
00000000
00000000
00000000
00000000
,
00000000
00000000
00000000
00000000
,
00100000
00000000
10000000
00000000
,
00100000
00000000
01000000
00000000
,
00001000
00000000
00010000
00000000
,
00001000
00010000
00010000
00000000
,
00000010
00000000
00001000
00000000
,
00000010
00000000
00000100
00000000
,
00000001
00000000
00000100
00000000
,
00000010
00000100
00000100
00000000
,
00001000
00010000
00001000
00000000
,
00100000
01000000
01000000
00000000
,
10000000
01000000
00010000
00001000
,
00000010
00000001
00000100
00000000
,
00001000
00000000
00010000
00000000
,
00100000
00000000
10000000
00000000
,
01000000
10000000
01000000
00000000
,
10000000
01000000
00010000
00001000
,
00010000
00000000
00000010
00000000
,
00010000
00000000
00000100
00000000
,
00001000
00000010
00000100
00000000
,
00001000
00010000
00100000
10000000
,
00010000
00000000
01000000
00000000
,
00001000
00000000
00010000
00000000
,
00000010
00001000
00000001
00000000
,
00000100
00001000
00010000
00100000
,
10000000
00000000
10000000
00000000
,
00010000
01000000
00010000
00000000
,
00100000
00000000
00000000
00001000
00000000
00000000
00010000
00000000
,
00000010
00001000
00000010
00000000
,
00001000
00000100
00001000
00000000
,
00000001
00000000
00000001
00000000
,
00000001
00000100
00000001
00000000
,
00001000
00000000
00001000
00000000
,
00000010
00001000
00000001
00000000
,
00000001
00000000
00000001
00000000
,
00000001
00000100
00000000
00000000
,
00001000
00010000
00100000
00000000
,
10000000
00000000
01000000
00000000
,
00010000
00001000
00000010
00000000
,
00000001
00000000
00000100
00000000
,
00001000
00010000
00100000
00000000
,
10000000
01000000
10000000
00000000
,
10000000
01000000
00010000
00000000
,
00010000
01000000
00010000
00000000
,
00010000
00001000
00010000
00000000
,
00001000
00000010
00001000
00000000
,
00001000
00000010
00000001
00000000
,
00000010
00000001
00000100
00000000
,
00000001
00000100
00001000
00000000
,
00000100
00001000
00010000
00000000
,
00001000
00000000
00010000
00000000
,
00001000
00010000
00100000
00000000
,
10000000
00000000
01000000
00000000
,
00100000
00010000
00100000
00000000
,
00001000
00010000
00001000
00000000
,
00010000
00001000
00000010
00000001
,
00000100
00001000
00010000
00000000
,
00000010
00001000
00000010
00000000
,
00010000
00001000
00010000
00000000
,
00001000
00010000
00100000
10000000
,
01000000
00010000
00001000
00000000
,
00100000
00010000
00100000
00000000
,
00001000
00010000
00001000
00000000
,
00010000
00001000
00000010
00000001
,
00000100
00001000
00010000
00000000
,
00001000
00010000
00100000
00000000
,
00010000
00000100
00001000
00000000
,
00001100
00000000
00011000
00000000
,
00110000
00000000
00022000
00000000
,
00000000
00000000
00033000
00100000
,
00000000
00001000
00000000
00000000
,
00010000
00000010
00000000
00001000
,
00000000
00000010
00000100
00000000
,
00001000
00010000
00000000
00100000
,
10000000
01000000
00010000
00000000
,
00001000
00000010
00000000
00000100
,
00001000
00010000
00100000
00000000
,
10000000
01000000
00010000
00001000
,
00000000
00010000
00000000
00000000
,
00100000
10000000
00000000
01000000
,
00000000
00010000
00000000
00000000
,
00001000
00000010
00000000
00000001
,
00000100
00001000
00010000
00000000
,
00100000
10000000
00000000
10000000
,
01000000
00010000
00001000
00000000
,
00000010
00000001
00000000
00000001
,
00000000
00001000
00000000
00000000
00000100
00000000
00020000
00000000
,
00000000
00000000
00030000
00001000
,
00000000
00100000
00000000
00000000
01000000
00000000
20000000
00000000
,
00000000
00000000
30000000
00010000
,
00000000
01000000
00000000
00000000
00001000
00000000
00020000
00000000
,
00000000
00000000
00030000
00000010
,
00000000
00001000
00000000
00000000
00000001
00000000
00000200
00000000
,
00000000
00000000
00000300
00001000
,
00000000
00010000
00000000
00000000
00001000
00000000
00000020
00000000
,
00000000
00000000
00000030
00000001
,
00000000
00000100
00000000
00000000
00001000
00000000
00020000
00000000
,
00000000
00000000
00030000
00001000
,
00000000
00000010
00000000
00000000
00000001
00000000
00000100
00000000
,
00000000
00000000
00000000
00001010
,
00000000
00000000
00000000
00011000
,
00000000
00000000
00000000
00110000
,
00000000
11000000
00000000
02002000
,
00000000
00000000
00000000
00000000
,
00000000
00000000
03003000
00000000
,
00000000
00000000
00000000
00000000
;

//---------------dance-double - ----------------
#NOTES:
     dance-double:
     :
     Medium:
     12:
     0.570024,0.648811,0.217448,0.086979,0.010872,367.000000,347.000000,20.000000,8.000000,0.000000,0.000000,0.570024,0.648811,0.217448,0.086979,0.010872,367.000000,347.000000,20.000000,8.000000,0.000000,0.000000:
00000000
00000000
00000000
00000000
,
00000000
00000000
00000000
00000000
,
00000000
00000000
00000000
00000000
,
00000000
00000000
00000000
00000000
,
00000000
00000000
00000000
00000000
,
00100000
01000000
00010000
00000000
,
00100000
00001000
00010000
00000000
,
00000010
00000100
00000001
00000000
,
00001000
00000010
00010000
00000000
,
01010000
00000000
00001100
00000000
,
00000010
00000001
00000100
00000001
,
00001000
00000000
00001000
00000000
,
00000001
00000100
00000001
00000000
,
00000001
00000100
00001000
00000100
,
00000001
00000100
00001000
00010000
,
00100000
10000000
00100000
00010000
,
00100000
10000000
00100000
00010000
,
00100000
00000000
00100000
00000000
00000000
10000000
00000000
10000000
,
01000000
00000000
01000000
00000000
00000000
00010000
00000000
00010000
,
00001000
00000000
00001000
00000000
00000000
00000010
00000000
00000010
,
00000001
00000100
00001000
00010000
,
00100000
00000000
00100000
00000000
00000000
10000000
00000000
10000000
,
01000000
00000000
01000000
00000000
00000000
00010000
00000000
00010000
,
00001000
00000000
00001000
00000000
00000000
00000010
00000000
00000010
,
00000001
00000100
00001000
00010000
,
00000010
00000000
00000010
00000000
00000000
00001000
00000000
00001000
,
00000001
00000000
00000001
00000000
00000000
00000100
00000000
00000100
,
00001000
00000000
00001000
00000000
00000000
00010000
00000000
00010000
,
00001000
00010000
00100000
10000000
,
01000000
00000000
01000000
00000000
00000000
00010000
00000000
00010000
,
00001000
00000000
00001000
00000000
00000000
00000010
00000000
00000100
,
00001100
00000000
00000000
00011000
00000000
00000000
01010000
00000000
,
10000000
00010000
10000000
00010000
,
01000000
00010000
01000000
00010000
,
00100000
00001000
00100000
00001000
,
00010000
00001000
00010000
00001000
,
00010000
00000100
00010000
00000100
,
00000010
00000001
00000010
00000001
,
00001000
00000001
00001000
00000001
,
00001010
00000000
00000101
00000000
,
00000001
00000100
00001000
00010000
,
10100000
00000000
01010000
00000000
,
00001000
00010000
00001000
00010000
,
00001010
00000000
00001001
00000000
,
00000001
00000100
00001000
00010000
,
00000010
00010000
00000010
00010000
,
00000010
00000001
00000010
00000000
,
00001000
00000100
00000010
00000001
,
00001000
00000001
00001000
00000000
,
00000001
00000100
00001000
00010000
,
00100000
10000000
01000000
00000000
,
10000000
01000000
00100000
00010000
,
10000000
00010000
01000000
00100000
,
10000000
01000000
00100000
00010000
,
01010000
00000000
10100000
00000000
,
10000000
01000000
00010000
00001000
,
00000011
00000000
00000101
00000000
,
00000001
00000000
00000001
00000000
00001000
00000001
00000000
00000000
,
00001000
00000000
00001000
00000000
00000100
00001000
00000000
00000000
,
00010000
00000000
00010000
00000000
00001000
00010000
00000000
00001000
,
00010000
01000000
10000000
00000000
,
10000000
00000000
10000000
00000000
00010000
10000000
00000000
00000000
,
00010000
00000000
00010000
00000000
01000000
00010000
00000000
00000000
,
00001000
00000000
00001000
00000000
00010000
00001000
00000000
00010000
,
00001000
00000010
00000001
00000000
,
00000001
00000000
00000001
00000000
00001000
00000001
00000000
00000000
,
00001000
00000000
00001000
00000000
00000100
00001000
00000000
00000000
,
00010000
00000000
00010000
00000000
00001000
00010000
00000000
00001000
,
00010000
01000000
10000000
00000000
,
10000000
00000000
10000000
00000000
00010000
10000000
00000000
00000000
,
00010000
00000000
00010000
00000000
01000000
00010000
00000000
00000000
,
00100000
00000000
00001000
00100000
00000000
00000100
,
00010000
00000000
00022000
00000000
,
00000000
00000000
00033000
00000001
,
00001000
00000100
00001000
00000000
,
00000001
00000100
00000000
00000001
,
00000100
00001000
00010000
00000000
,
01000000
10000000
00000000
00010000
,
10000000
01000000
10000000
00000000
,
00001000
01000000
00000000
00001000
,
00010000
00000100
00001000
00000000
,
00000001
00000000
00000100
00000000
00000001
00000000
00001000
00000010
,
00001000
00000010
00001000
00000000
00000100
00000000
00000000
00000000
,
00001000
00000000
00010000
00000000
00000000
00000000
00100000
00010000
,
00100000
00010000
00100000
00000000
00001000
00000000
00000000
00000000
,
00000100
00000000
00000001
00000000
00000000
00000000
00001000
00000010
,
00001000
00000010
00001000
00000000
00000100
00000000
00000000
00000000
,
00001000
00000000
00010000
00000000
00000000
00000000
00100000
00010000
,
00100000
00010000
00100000
00000000
00001000
00000000
00000000
00000000
,
00010000
00001000
00010000
00000010
,
00000000
00000001
00000000
00000000
00000100
00000000
00001000
00000000
,
00000000
00100000
00000000
01000000
,
00000000
00100000
00000000
00000000
00001000
00000000
00010000
00000000
,
00000000
00000100
00000000
00000010
,
00000000
00000001
00000000
00000000
00000100
00000000
00001000
00000000
,
00000000
00100000
00000000
01000000
,
00000000
00100000
00000000
00000000
00001000
00000000
00020200
00000000
,
00000000
00000000
00030300
00000010
,
00000000
00000001
00000000
00000000
00000100
00000000
00000010
00000000
,
00000000
00010000
00000000
00000000
00000100
00000000
00010000
00000000
,
00000000
00000010
00000000
00000000
00000100
00000000
00001000
00000000
,
00000000
00010000
00000000
00000000
00100000
00000000
10000000
00000000
,
00000000
01000000
00000000
00000000
00010000
00000000
00001000
00000000
,
00000000
00000010
00000000
00000000
00000001
00000000
00000200
00000000
,
00000000
00000000
00000300
00000002
,
00000000
00000000
00000003
00001010
,
00000000
00011000
00000000
02020000
,
00000000
00000000
00000000
00000000
,
00000000
00000000
03030000
00000000
,
00000000
00000000
00000000
00000000
;

//---------------dance-double - ----------------
#NOTES:
     dance-double:
     :
     Hard:
     15:
     0.771941,1.002707,0.130469,0.043490,0.065234,497.000000,485.000000,12.000000,4.000000,0.000000,0.000000,0.771941,1.002707,0.130469,0.043490,0.065234,497.000000,485.000000,12.000000,4.000000,0.000000,0.000000:
00000000
00000000
00000000
00000000
,
00000000
00000000
00000000
00000000
,
00000000
00000000
00000000
00000000
,
00000000
00000000
00000000
00000000
,
00000000
00000000
00000000
00000000
,
00100000
00000000
00100000
00000000
10000000
01000000
10000000
00000000
,
00010000
00000000
00010000
00000000
01000000
00010000
01000000
00000000
,
00010000
00000000
00010000
00000000
00100000
00001000
00100000
00000000
,
00001000
00010000
00000100
00000000
,
00001000
00000000
00001000
00000000
00000001
00000100
00000001
00000000
,
00000100
00000000
00000100
00000000
00000010
00010000
00000010
00000000
,
00010000
00000000
00010000
00000000
00001000
00010000
01000000
00000000
,
10000000
00100000
01000000
00000000
,
00010000
00000000
01000000
00010000
01000000
00010000
00000000
01000000
,
00001000
00000000
00010000
00001000
00010000
00001000
00000000
00010000
,
00000100
00001000
00000100
00000000
00001000
00000001
00001000
00000000
,
00000001
00000100
00000010
00001000
00000100
00000010
00000001
00001000
,
00000001
00000100
00001000
00010000
,
00100000
10000000
01000000
00010000
,
00001000
00000010
00000001
00000100
,
00001000
00010000
00100000
10000000
,
01000000
00000000
10000000
00000000
01000000
10000000
00000000
01000000
,
00100000
00000000
00010000
00000000
00100000
00010000
00000000
00100000
,
00001000
00000000
00010000
00000000
00001000
00010000
00000000
00001000
,
00010000
00000100
00001000
00000001
,
00000100
00001000
00000100
00000001
,
00000100
00001000
00000100
00000001
,
00000100
00001000
00010000
00100000
,
10000000
00100000
00010000
00100000
,
10000000
00100000
00010000
00100000
,
00010000
00100000
10000000
00100000
,
01100000
00000000
00000000
00011000
00000000
00000000
00010010
00000000
,
00001000
00000100
00010000
00000100
00001000
00000010
00010000
00000010
,
00001000
00000100
00001000
00000010
,
00001000
00000100
00000000
00000010
,
00001000
00000100
00000010
00000001
,
00000100
00001000
00010000
00100000
,
10000000
01000000
00010000
00001000
,
00000100
00000001
00000010
00000100
,
00011000
00000000
00010000
00000100
,
00001000
00000001
00000100
00000000
,
00001010
00000000
00011000
00000000
,
01000000
10000000
01000000
00000000
,
00100000
00000000
00001000
00010000
00001000
00010000
00001000
00000000
,
00010000
00000100
00000010
00000000
,
00000001
00000100
00000001
00000100
,
00000010
00000100
00000010
00000100
,
00000010
00001000
00000010
00001000
,
00000100
00010000
00000100
00010000
,
00001000
00010000
00001000
00010000
,
00001000
01000000
00001000
01000000
,
00010000
10000000
00010000
10000000
,
01000000
10000000
01000000
10000000
,
00010000
00100000
00010000
00100000
,
00001000
00010000
00001000
00010000
,
00000010
00010000
00001000
00000000
,
00101000
00000000
00010100
00000000
,
00001000
00000000
00010000
00000000
00001000
00010000
00000000
00010000
,
00000100
00000000
00010000
00000000
00000100
00010000
00000000
00010000
,
00001000
00000000
01000000
00000000
00001000
01000000
00000000
01000000
,
00010000
00010000
00010000
00000000
,
00100000
00000000
00001000
00000000
00100000
00001000
00000000
00001000
,
00010000
00000000
00000010
00000000
00010000
00000010
00000000
00001000
,
00000100
00010000
00001000
00010000
00000100
00010000
00001000
00010000
,
00001000
00001000
00001000
00000000
,
00000010
00000000
00010000
00000000
00000010
00010000
00000000
00010000
,
00001000
00000000
00100000
00000000
00001000
00100000
00000000
00100000
,
00001000
00000000
00010000
00000000
00001000
00010000
00001000
00010000
,
00001000
00001000
00001000
00000000
,
00100000
00000000
10000000
00000000
01000000
00010000
00000000
00001000
,
00000010
00000000
00000001
00000000
00000100
00001000
00000000
00010000
,
00001000
00010000
00100000
00010000
00001000
00010000
,
00000100
00000000
00022000
00000000
,
00000000
00000000
00000000
00000000
00033000
00000000
10000000
01000000
,
10000000
01000000
10000000
00000000
00010000
01000000
00000000
00010000
,
01000000
00000000
00001000
00000000
00010000
00000000
00001000
00000100
,
00001000
00000100
00001000
00000000
00000010
00001000
00000000
00000001
,
00000010
00000000
00000100
00000000
00010000
00000000
00001000
00010000
,
00001000
00010000
00001000
00010000
00001000
00010000
00000000
00000010
,
00001000
00000000
00000001
00000000
00000100
00000000
00000010
00001000
,
00000010
00001000
00000010
00001000
00000010
00001000
00000010
00000000
,
00010000
00000000
00001000
00000000
00100000
00000000
00100000
00010000
,
00100000
00010000
00100000
00000000
00001000
00010000
00001000
00010000
,
00001000
00000000
00010000
00000000
00000100
00010000
00000100
00000000
,
00000010
00000001
00000010
00000001
00000010
00000000
00000001
00000100
,
00000001
00000100
00000001
00000000
00000100
00000010
00000100
00000010
,
00000100
00000000
00001000
00010000
00001000
00010000
00001000
00000000
,
00100000
00010000
00100000
00010000
00100000
00000000
00010000
10000000
,
00010000
10000000
00010000
00000000
10000000
01000000
00100000
00010000
,
10000000
00010000
01000000
00100000
10000000
00010000
01000000
00000000
,
00000000
00001000
00000000
00010000
00001000
00000000
00010000
00000000
,
00001000
00000000
00000000
00010000
00000000
00000000
00000100
00000000
,
00000000
00010000
00000000
00001000
00010000
00000000
00001000
00000000
,
00010000
00000000
00000000
00001000
00000000
00000000
00100000
00000000
,
00000000
00010000
00000000
10000000
01000000
00000000
00010000
00000000
,
00000000
00001000
00000000
00000010
00000001
00000000
00000100
00000000
,
00000000
00001000
00000000
00010000
00100000
00000000
10000000
00000000
,
11000000
00000000
00000000
00110000
00000000
00000000
00100000
00010000
,
00100000
00001000
00010000
00000100
00001000
00000100
00000010
00000001
,
00000010
00000001
00000100
00000010
00001000
00000010
00010000
00001000
,
00010000
00001000
01000000
00010000
10000000
00100000
10000000
00100000
,
01000000
00010000
01000000
00010000
01000000
00001000
00010000
00001000
,
00010000
00000010
00001000
00000001
00000100
00001000
00000100
00000001
,
00001000
00000000
00000000
00000010
00000000
00000000
00000100
00000000
00000000
00000001
00000000
00000000
00001000
00000000
00000000
00000000
00000000
00000000
00000001
00000000
00000000
00000000
00000100
00000000
,
00000000
00000010
00000000
00000000
00000000
00000000
00000000
00000000
00000000
00010000
00000000
00001000
,
00000000
01000000
00000000
00000000
00000000
00000000
00000000
00000000
00000000
00010000
00000000
00100000
,
00000000
00001000
00000000
00010000
00000000
00000010
00000000
00000100
00000000
00002020
00000000
00000000
,
00000000
00000000
00000000
00000000
,
00000000
00000000
00003030
00000000
,
00000000
00000000
00000000
00000000
;

//---------------dance-single - ----------------
#NOTES:
     dance-single:
     :
     Challenge:
     17:
     1.059283,1.061690,0.956771,0.337044,0.076107,682.000000,594.000000,88.000000,31.000000,0.000000,0.000000,1.059283,1.061690,0.956771,0.337044,0.076107,682.000000,594.000000,88.000000,31.000000,0.000000,0.000000:
// measure 0
0000
0000
0000
0000
,  // measure 1
0000
0000
0000
0000
,  // measure 2
0000
0000
0000
0000
,  // measure 3
0000
0000
0000
0000
,  // measure 4
0000
0000
0000
0000
,  // measure 5
1010
0000
1001
0000
0001
0100
0010
0000
,  // measure 6
0101
0000
1001
0000
1000
0010
0100
0000
,  // measure 7
0001
0010
0001
0010
0100
1000
0100
1000
,  // measure 8
0010
0110
1001
0000
,  // measure 9
0001
0000
0101
0000
0100
0010
1000
0100
,  // measure 10
0010
0000
1001
0000
0010
0100
0001
0010
,  // measure 11
0100
0000
1010
0000
0100
0001
0010
0100
,  // measure 12
1000
0000
0001
0100
0001
0000
0000
0000
,  // measure 13
1000
0000
0001
0100
1000
0100
0001
1000
,  // measure 14
0010
0000
1000
0100
0001
0100
1000
0010
,  // measure 15
1000
0001
0101
0000
0010
0100
0110
0000
,  // measure 16
0001
1000
0100
1000
0010
0100
0001
0010
,  // measure 17
0011
0000
0101
0000
0100
0010
1000
0100
,  // measure 18
0010
0000
0011
0000
0001
0100
0010
0100
,  // measure 19
0001
0000
1001
0000
1000
0000
0010
0100
,  // measure 20
0010
1000
0010
0001
0010
1000
0010
0000
,  // measure 21
0100
0001
0100
0001
0100
0001
0100
0001
,  // measure 22
0010
0100
0010
0100
0010
0100
0010
0100
,  // measure 23
1000
0100
1000
0100
1000
0000
0001
1000
,  // measure 24
1001
0011
0110
1100
,  // measure 25
1000
0001
0100
0000
0001
0000
0010
0001
,  // measure 26
0100
0010
0100
0000
0010
0000
1000
0100
,  // measure 27
1000
0001
1000
0000
0010
0000
0100
0010
,  // measure 28
0100
0001
0100
0010
1000
0100
0010
0001
,  // measure 29
0100
0010
0100
0010
1000
0100
0010
0001
,  // measure 30
1000
0100
0001
0100
1000
0010
0001
0010
,  // measure 31
1000
0000
0000
1010
0000
0000
0110
0000
,  // measure 32
0101
0000
0001
0010
0100
0001
0100
1000
,  // measure 33
0001
0010
0001
0000
0100
0000
0110
0000
,  // measure 34
0010
1000
1001
0100
,  // measure 35
0001
1000
0001
0000
0100
0010
0100
0001
,  // measure 36
1000
0000
1010
0000
0010
0000
0010
0100
,  // measure 37
0001
0000
0010
0001
1000
0010
1000
0000
,  // measure 38
0001
1000
0100
0000
1000
0001
1000
0000
,  // measure 39
1010
0000
0010
0100
0001
0000
0010
1000
,  // measure 40
0010
0000
0001
0000
0100
1000
0100
0000
,  // measure 41
0001
0000
0011
0000
0010
0100
1000
0100
,  // measure 42
0010
0011
0101
0100
,  // measure 43
0010
0000
1000
0100
1000
0001
0010
0000
,  // measure 44
0011
0000
0101
0000
1000
0010
1000
0000
,  // measure 45
0101
0101
0110
0110
,  // measure 46
1010
1010
1100
1100
,  // measure 47
0001
0010
0100
1000
0010
0100
0001
0010
,  // measure 48
0100
1000
0010
0000
0110
0000
0110
0000
,  // measure 49
0101
0101
0011
0011
,  // measure 50
1000
0100
0010
0001
0100
0010
1000
0100
,  // measure 51
0010
0001
0100
0000
1010
0000
1010
0000
,  // measure 52
0001
1000
0100
0010
0100
1000
0001
0000
,  // measure 53
0100
0001
0010
0100
0010
0000
0001
1000
,  // measure 54
0010
0110
1010
1001
,  // measure 55
0101
0110
2001
3002
,  // measure 56
2003
3002
0203
0300
,  // measure 57
0110
0000
1010
0000
1000
0001
0000
0100
,  // measure 58
0001
0000
0011
0000
0010
0100
1000
0100
,  // measure 59
1000
0000
1001
0000
0100
0001
0100
0001
,  // measure 60
0010
0110
1001
0000
,  // measure 61
1010
0000
0010
0100
0010
0100
0010
0100
,  // measure 62
0001
0000
1001
0000
1000
0100
1000
0100
,  // measure 63
0010
0000
0001
0000
0100
0001
0100
0001
,  // measure 64
0100
0110
1010
0000
,  // measure 65
1001
0000
0001
0100
0010
0100
1000
0100
,  // measure 66
0010
0000
1010
0000
1000
0100
0010
1000
,  // measure 67
0010
0000
0001
0010
0100
1000
0001
0100
,  // measure 68
0101
0110
1010
0000
,  // measure 69
1001
0000
0001
0010
0001
0010
0001
0010
,  // measure 70
0100
1000
0100
1000
0100
1000
0010
0000
,  // measure 71
1000
0000
1000
0000
0001
0000
0001
0000
0100
0000
0100
0000
,  // measure 72
0010
0000
0010
0000
1000
0000
2002
0000
0000
0000
0000
0000
,  // measure 73
0000
0000
0000
0000
3003
0000
0001
0010
,  // measure 74
0001
0100
0010
1000
0010
0100
0001
0010
,  // measure 75
0100
1000
0001
0010
0001
0000
0100
0000
,  // measure 76
0010
1000
0100
0001
0100
0000
1000
0010
,  // measure 77
0001
0010
1000
0000
0001
0100
0010
0100
,  // measure 78
1000
0100
0010
0100
1000
0100
0001
0000
,  // measure 79
1000
0010
0100
0010
0011
0000
0010
0100
,  // measure 80
0001
0000
1001
0000
1000
0100
0010
0001
,  // measure 81
0100
0010
1000
0000
1001
0000
0001
0010
,  // measure 82
0100
1000
0010
0000
1000
0100
0010
0001
,  // measure 83
0100
0000
0001
1000
0010
1000
0100
0010
,  // measure 84
0001
0100
0010
1000
0020
0000
0130
0001
,  // measure 85
0010
0001
2000
0000
3100
0010
0001
0010
,  // measure 86
0200
0000
1300
0001
1000
0001
0020
0000
,  // measure 87
0130
1000
0100
1000
0002
0000
0013
0001
,  // measure 88
0100
1000
0200
0000
0301
0010
0100
0001
,  // measure 89
0100
1000
0100
0010
0001
1000
1020
0000
,  // measure 90
1030
0001
0000
0001
0200
0000
0310
0000
,  // measure 91
2020
0000
3030
2002
0000
3003
0102
0000
,  // measure 92
0013
0100
0000
0100
2000
0000
3010
0000
,  // measure 93
0220
0000
0330
2002
0000
3003
0101
0000
,  // measure 94
0001
0010
0100
0001
0100
1000
0001
0000
,  // measure 95
1000
0010
0000
0010
0100
0000
0001
0000
,  // measure 96
0010
0001
0100
0001
0010
0000
0100
0000
,  // measure 97
2200
0000
3300
2002
0000
3003
0101
0000
,  // measure 98
0100
0010
1000
0001
1000
0100
0010
0000
,  // measure 99
0001
0100
0010
0100
0001
1000
0001
0000
,  // measure 100
1000
0010
0100
0001
0100
0010
1000
0000
,  // measure 101
0001
0010
0001
0100
0010
1000
0010
0100
,  // measure 102
0001
1000
0001
0100
0010
1000
0010
0100
,  // measure 103
0001
0000
0000
0010
0000
0000
0100
0000
0000
1000
0000
0000
0001
0000
0000
0000
0000
0000
1000
0000
0000
0000
1001
0000
,  // measure 104
0000
0001
0000
0000
0000
0000
0000
0000
0000
0100
0000
0110
,  // measure 105
0000
0010
0000
0000
0000
0000
0000
0000
0000
1010
0000
0010
,  // measure 106
0000
1000
0000
1001
0000
0001
0000
0100
0000
2002
0000
0000
,  // measure 107
0000
0000
0000
0000
,  // measure 108
0000
0000
3003
0000
;
