#TITLE:ラキラキ;
#SUBTITLE:;
#ARTIST:Mutsuhiko Izumi & S-C-U;
#TITLETRANSLIT:Lucky Lucky;
#SUBTITLETRANSLIT:;
#ARTISTTRANSLIT:;
#GENRE:;
#CREDIT:;
#BANNER:Lucky Lucky.png;
#BACKGROUND:Lucky Lucky-bg.png;
#LYRICSPATH:;
#CDTITLE:;
#MUSIC:Lucky Lucky.ogg;
#OFFSET:0.000000;
#SAMPLESTART:65.269997;
#SAMPLELENGTH:15.000000;
#SELECTABLE:YES;
#DISPLAYBPM:165.000000;
#BPMS:0.000000=165.138000
,4.000000=165.003998
,72.000000=165.009003
;
#STOPS:72.000000=1.093000,
167.000000=0.364000
;
#BGCHANGES:;
#KEYSOUNDS:;
#ATTACKS:;

//---------------dance-single - ----------------
#NOTES:
     dance-single:
     :
     Beginner:
     2:
     0.118955,0.194617,0.125871,0.048412,0.000000,86.000000,73.000000,13.000000,5.000000,0.000000,0.000000,0.118955,0.194617,0.125871,0.048412,0.000000,86.000000,73.000000,13.000000,5.000000,0.000000,0.000000:
0000
0000
0000
0000
,
0000
0000
0000
0000
,
0000
0000
0000
0000
,
0000
0000
0000
0000
,
0000
0000
0000
0000
,
0000
0000
0000
0000
,
0000
1000
0000
0000
,
0000
1000
0000
0000
,
0000
0001
0000
0000
,
0000
0001
0000
0000
,
0200
0000
0000
0000
,
0000
0000
0300
0000
,
0020
0000
0000
0000
,
0000
0000
0030
0000
,
0000
0100
0000
0000
,
0000
0100
0000
0000
,
0000
0010
0000
0000
,
0000
0010
0000
0000
,
0110
0000
0100
0000
,
0100
0000
0010
0000
,
0010
0000
0100
0000
,
0100
0000
0010
0000
,
0000
0000
0001
0000
,
0001
0000
1000
0000
,
1000
0000
0001
0000
,
0001
0000
1000
0000
,
0000
0010
0000
0010
,
0000
0100
0000
0100
,
0000
0010
0000
0010
,
0000
0100
0000
0000
,
0000
1000
0000
1000
,
0000
0001
0000
0001
,
0000
1000
0000
1000
,
0000
0001
0000
0000
,
0000
1001
0000
0000
,
0000
1001
0000
0000
,
0000
0110
0000
0000
,
0000
0110
0000
0000
,
0000
1001
0000
0000
,
0000
1001
0000
0000
,
0000
0110
0000
0000
,
0000
0110
0000
0000
,
2000
0000
0000
3000
,
0002
0000
0000
0003
,
0000
1000
0000
0000
,
0000
1000
0000
0000
,
0000
0001
0000
0000
,
0000
0001
0000
0000
,
0000
0010
0000
0000
,
0000
0010
0000
0000
,
0000
0100
0000
0000
,
0000
0100
0000
0000
,
0001
0000
0000
0000
,
0001
0000
0000
0000
,
1000
0000
0000
0000
,
1000
0000
0000
0000
,
0100
0000
0000
0000
,
0100
0000
0000
0000
,
0010
0000
0000
0000
,
0010
0000
0000
0000
,
1001
0000
0000
0000
,
1001
0000
0000
0000
,
1001
0000
0000
0000
,
1001
0000
0000
0000
,
0010
0000
0010
0000
,
0010
0000
0000
0000
,
0200
0000
0000
0000
,
0300
0000
0000
0000
;

//---------------dance-single - ----------------
#NOTES:
     dance-single:
     :
     Easy:
     7:
     0.374848,0.486541,0.290473,0.106507,0.029047,271.000000,241.000000,30.000000,11.000000,0.000000,0.000000,0.374848,0.486541,0.290473,0.106507,0.029047,271.000000,241.000000,30.000000,11.000000,0.000000,0.000000:
0000
0000
0000
0000
,
0000
0000
0000
0000
,
0000
0000
0000
0000
,
0000
0000
0000
0000
,
0000
0000
0000
0000
,
0000
0000
0000
0000
,
0010
1000
0010
1000
,
0001
0010
0001
0010
,
0100
0010
0100
0010
,
0100
0000
0000
0100
0000
0000
0100
0000
0000
0100
0000
0000
0200
0000
0000
0000
,
0320
0001
0000
0001
,
0000
0001
0000
0001
,
0230
0010
0000
0010
,
0000
0010
0000
0310
,
0001
0100
0001
0100
,
0010
0001
0100
1000
,
1000
0100
1000
0100
,
1000
0100
0010
0000
0001
0100
0010
0000
,
1001
0001
0001
1000
,
1000
0001
0010
1000
,
0100
1000
1000
0001
,
0001
1000
0100
0001
,
0010
0100
0100
0010
,
0010
0001
0010
1000
,
0100
0010
0010
0100
,
0100
1000
0100
0001
,
0010
0000
0001
0010
0001
0000
0010
0000
,
0100
1001
1001
0110
,
0110
0000
1000
0010
1000
0000
0100
0000
,
0010
1001
1001
0110
,
0110
0000
0001
0100
0001
0000
1000
0000
,
0001
0110
0110
1001
,
1001
0000
1000
0100
1000
0000
0001
0000
,
1000
0110
0110
1001
,
1001
0010
0010
1000
,
0001
0010
0010
0001
,
1000
0010
1000
0100
,
0001
0010
1000
0100
,
0001
0100
0100
0001
,
1000
0100
0100
1000
,
0001
0100
0001
0010
,
1000
0100
0001
0110
,
0001
0000
0000
0001
0000
0000
0001
0000
0000
0001
0000
0000
0002
0000
0000
0000
,
1000
0000
0000
1000
0000
0000
1000
0000
0000
1003
0000
0000
0000
0000
0000
0000
,
0010
1000
0010
0100
,
0001
0100
0001
0000
0001
0100
0001
0000
,
0010
0001
0100
1000
,
0010
0001
0110
1001
,
1000
0010
0100
0002
,
0000
0000
0013
0100
,
1000
0010
0100
0001
,
0110
1001
0110
0000
,
0100
0001
0100
0010
,
1000
0010
1000
0000
1000
0010
1000
0000
,
0100
1000
0010
0001
,
0100
1000
0110
1001
,
0001
0100
0010
2000
,
0000
0000
3100
0010
,
0001
0100
0010
1000
,
0110
1001
0110
0000
,
0002
0000
0000
0000
1000
1000
1003
0000
,
2000
0000
0000
0000
0001
0001
3001
0000
,
0020
0000
0000
0000
0100
0100
0130
0000
,
0010
1000
0001
0100
,
0020
0000
0000
0000
0230
0000
0000
0300
,
1001
0110
0000
0000
,
0010
1000
0001
0100
,
0010
0000
0000
0000
;

//---------------dance-single - ----------------
#NOTES:
     dance-single:
     :
     Medium:
     10:
     0.481354,0.518978,0.164601,0.125871,0.048412,348.000000,331.000000,17.000000,13.000000,0.000000,0.000000,0.481354,0.518978,0.164601,0.125871,0.048412,348.000000,331.000000,17.000000,13.000000,0.000000,0.000000:
0000
0000
0000
0000
,
0000
0000
0000
0000
,
0000
0000
0000
0000
,
0000
0000
0000
0000
,
0000
0000
0000
0000
,
0000
0000
0000
0000
,
0100
0000
1000
0000
0010
1000
0001
0000
,
0100
0000
0001
0000
0100
1000
0001
0000
,
0010
0000
0100
0000
0010
1000
0100
0000
,
1000
0000
0000
1000
0000
0000
1000
0000
0000
1000
0000
0000
0002
0000
0000
0000
,
2003
0001
0000
0001
,
0000
0010
0000
3020
,
0230
0001
0000
0001
,
0000
0010
0000
0310
,
1000
0100
0010
0000
0001
0000
1000
0000
,
0100
0010
0001
0000
1000
0000
0001
0000
,
0010
0100
0010
0000
0001
0000
1000
0000
,
0001
0100
0001
0100
0010
0000
1001
0000
,
0110
1000
1000
0001
,
0001
0000
1000
0100
1000
0100
0010
0001
,
0010
0001
0001
1000
,
1000
0000
0001
0100
0001
0100
0010
1000
,
0010
1000
0100
0000
0100
0000
0010
0000
,
0010
0000
0001
0010
0001
1000
0001
0100
,
0010
0100
0100
0010
,
0010
0000
1000
1000
0010
0010
0100
0001
,
0100
0011
0100
1010
,
0100
0000
0001
0100
1000
0100
0001
0010
,
0100
1010
0100
0011
,
0100
0000
1000
0100
0001
0100
1000
0010
,
0100
0001
0010
0000
1100
0000
0010
0000
,
0101
0000
1000
0010
0001
0010
1000
0100
,
0010
0010
0001
0000
1100
0000
1000
0000
,
0101
0000
0001
0010
1000
0010
0001
0100
,
0010
0000
1000
0100
1000
0000
0001
0001
,
0001
0000
0001
0100
0001
0000
1000
1000
,
1000
0000
0001
0010
0001
0010
0001
0100
,
0001
0100
0001
1000
0100
1000
0100
1000
,
1000
0000
0010
1000
0010
0000
0001
0001
,
0001
0000
0100
0001
0100
0000
1000
1000
,
1000
0000
1000
0010
1000
0010
1000
0100
,
1000
0100
1000
0100
0001
0100
1000
0000
,
0001
0000
0000
0010
0000
0000
0100
0000
0000
1000
0000
0000
1001
0000
0000
0000
,
1000
0000
0000
0010
0000
0000
0100
0000
0000
0110
0000
0000
0000
0000
0000
0000
,
0001
0000
0100
0000
0001
0010
0001
0000
,
1000
0010
0100
0000
0001
0010
0100
0000
,
1000
0100
0001
0000
0001
0100
1000
0000
,
0020
1000
0100
1030
,
0001
0100
0010
1000
0010
0100
0100
0200
,
0000
0001
0010
0301
,
1000
0010
0100
0001
0100
0010
0010
0010
,
1000
0000
0000
0100
0000
0000
0020
0000
0002
0000
0000
0000
0033
0000
0000
0000
,
1000
0000
0010
0000
1000
0100
1000
0000
,
0001
0100
0010
0000
1000
0100
0010
0000
,
0001
0010
1000
0000
1000
0010
0001
0000
,
0200
0001
0010
0301
,
1000
0010
0100
0001
0100
0010
0010
0020
,
0000
1000
0100
1030
,
0001
0100
0010
1000
0010
0100
0100
0100
,
0001
0000
0000
0010
0000
0000
0200
0000
2000
0000
0000
0000
3300
0000
0000
0000
,
0001
0000
0101
0000
0001
0100
1000
0000
,
1000
0000
1100
0000
1000
0100
0001
0000
,
0100
0000
0110
0000
0001
0010
1000
0000
,
0001
0010
1000
0000
0010
0001
0100
0000
,
0010
0000
0000
0010
0000
0000
0010
0000
0100
0000
0000
0100
0000
0000
0100
0000
,
1001
0000
0110
1000
0001
0010
0100
1000
,
0020
1000
0001
1000
,
0130
0000
0000
0000
;

//---------------dance-single - ----------------
#NOTES:
     dance-single:
     :
     Hard:
     13:
     0.611375,0.625484,0.203331,0.271108,0.237219,442.000000,421.000000,21.000000,28.000000,0.000000,0.000000,0.611375,0.625484,0.203331,0.271108,0.237219,442.000000,421.000000,21.000000,28.000000,0.000000,0.000000:
0000
0000
0000
0000
,
0000
0000
0000
0000
,
0000
0000
0000
0000
,
0000
0000
0000
0000
,
0000
0000
0000
0000
,
0000
0000
0000
0000
,
1000
1000
0010
0010
,
0100
0100
0001
0001
,
1000
0100
0010
0001
,
0010
0000
0000
0100
0000
0000
1100
0000
0000
0101
0000
0000
2000
0000
0000
0000
,
3002
1000
0000
1000
,
0000
0100
0000
0203
,
0320
1000
0000
1000
,
0230
0001
0320
1030
,
0011
1100
0011
1100
,
0101
1010
0101
1010
,
0100
1000
0010
0001
0010
0100
1000
0100
,
0001
0010
0100
1000
0010
0001
1000
0100
,
0020
0030
0000
0000
0100
0001
0100
0000
0010
0000
1000
0000
0100
0000
0010
0000
,
0001
0100
0010
0010
1000
1000
0001
0001
,
0100
0000
0000
0000
0001
0100
0001
0000
1000
0000
0100
0000
0010
0000
0001
0000
,
0100
0001
0010
0010
0100
0100
1000
1000
,
0002
0000
0000
0000
0103
0001
0100
0000
0010
0000
1000
0000
0001
0000
0100
0000
,
0001
0010
0100
0100
1000
1000
0001
0001
,
0100
0000
0010
0000
1000
0100
1000
0000
0001
0000
0100
0000
0010
0000
1000
0000
,
0001
0100
0001
0001
0010
0010
0100
1000
,
1001
0000
0000
0000
0001
0100
0010
0000
1000
0000
0100
0000
0001
0000
0100
0000
,
1000
0010
0001
1000
0100
0001
0010
1000
,
0010
0000
0000
0000
0001
0100
0010
0000
1000
0000
0010
0000
0001
0000
1000
0000
,
0100
0001
0010
0100
0001
0100
1000
0100
,
0020
0000
0000
0000
0031
1000
0001
0000
0100
0000
0010
0000
0001
0000
1000
0000
,
0100
0010
0002
0013
2000
3100
0002
0103
,
2000
0000
3010
0000
0100
0010
1000
0000
0100
0000
0001
0000
1000
0000
0010
0000
,
0100
0001
0100
1000
0100
0001
1000
0010
,
0110
0000
0001
1000
0010
0000
0100
0100
,
0010
1000
0001
0010
0100
0000
1000
1000
,
0010
0000
0100
0000
0001
0000
0000
0001
0010
0000
0000
0010
0100
0000
0000
0100
,
1000
0000
0000
1000
0010
0000
0000
0010
0100
0000
0000
0100
0001
0000
0000
0001
,
0020
0000
0130
1000
0001
0000
1000
1000
,
0010
0100
0001
1000
0100
0000
0010
0010
,
0001
1000
0001
0100
0010
0100
1000
0100
,
0001
0010
0100
0010
1000
0010
0001
0000
,
1100
0000
0000
0001
0000
0000
1000
0000
0000
0010
0000
0000
0101
0000
0000
0000
,
1100
0000
0000
0001
0000
0000
1000
0000
0000
0110
0000
0000
0000
0000
0000
0000
,
0001
0000
1000
0000
0010
0000
1000
0100
0000
0100
1000
0000
0010
0000
0100
0000
,
0001
0000
1000
0000
0010
0000
1000
0100
0000
0100
1000
0000
0010
0000
0100
0000
,
0001
0000
0000
0010
0000
0000
0100
0000
0000
1000
0100
0000
0010
0000
0002
0000
,
0000
1003
0100
0001
0100
0010
0001
1000
,
0010
0000
0100
0001
0000
0001
0100
0000
0010
0000
1000
0000
0100
0000
2000
0000
,
0001
0000
3010
0000
0001
0100
0010
1000
,
0100
0000
0010
0001
0000
0001
0100
0000
0010
0000
1000
0000
0001
0000
0100
0000
,
0010
0000
0000
0100
0000
0000
0010
0000
2002
0000
0000
0000
3003
0000
0000
0000
,
1000
0000
0001
0000
0010
0000
0001
0100
0000
0100
0001
0000
0100
0000
0010
0000
,
1000
0000
0001
0000
0010
0000
0001
0100
0000
0100
0001
0000
0010
0000
0100
0000
,
1000
0000
0000
0010
0000
0000
0100
0000
0000
0001
0100
0000
0010
0000
2000
0000
,
0001
0000
3100
0000
0001
0100
1000
0100
,
0001
0000
0010
0100
0000
0100
0010
0000
0001
0000
0100
0000
0010
0000
2000
0000
,
0000
3001
0100
0000
0010
1000
0001
0100
,
0010
0000
1000
0100
0000
0100
0010
0000
0001
0000
0100
0000
0010
0000
1000
0000
,
0001
0000
0000
1000
0000
0000
0010
0000
0220
0000
0000
0000
0330
0000
0000
0000
,
1000
0000
0010
0200
0000
0000
0301
0000
0010
0000
0100
0000
1000
0000
0010
0000
,
0100
0000
0001
0020
0000
0000
0130
0000
1000
0000
0010
0000
0100
0000
0001
0000
,
0100
0000
0010
2000
0000
0000
3100
0000
0010
0000
0001
0000
1000
0000
0010
0000
,
1000
0000
0100
0020
0000
0000
0031
0000
0100
0000
0010
0000
1000
0000
0100
0000
,
0011
0000
0000
1001
0000
0000
1000
0000
0100
0000
0000
1001
0000
0000
0010
0000
,
0002
0000
1003
0000
0010
0100
1000
0001
,
0010
1000
0100
0010
0100
0001
0100
1000
,
0020
0000
0000
0000
,
0030
0000
0000
0000
;

//---------------dance-double - ----------------
#NOTES:
     dance-double:
     :
     Easy:
     7:
     0.374848,0.488357,0.290473,0.125871,0.029047,271.000000,241.000000,30.000000,13.000000,0.000000,0.000000,0.374848,0.488357,0.290473,0.125871,0.029047,271.000000,241.000000,30.000000,13.000000,0.000000,0.000000:
00000000
00000000
00000000
00000000
,
00000000
00000000
00000000
00000000
,
00000000
00000000
00000000
00000000
,
00000000
00000000
00000000
00000000
,
00000000
00000000
00000000
00000000
,
00000000
00000000
00000000
00000000
,
10000000
00100000
01000000
00100000
,
10000000
00100000
01000000
00001000
,
00010000
00001000
00000100
00000010
,
00000100
00000000
00000000
00000100
00000000
00000000
00000100
00000000
00000000
00000100
00000000
00000000
00000200
00000000
00000000
00000000
,
00000320
00001000
00000000
00001000
,
00000000
00001000
00000000
00001000
,
00000230
00010000
00000000
00010000
,
00000000
00010000
00000000
00010300
,
00000100
00000010
00000001
00000100
,
00000010
00001000
00000100
00010000
,
00001000
00100000
00010000
10000000
,
00010000
01000000
00100000
00000000
00010000
00001000
00010000
00000000
,
00011000
00001000
00001000
00010000
,
00010000
00001000
00000010
00000001
,
00000100
00001000
00001000
00010000
,
00010000
00100000
10000000
01000000
,
00010000
00001000
00001000
00010000
,
00010000
00001000
00000100
00000001
,
00000010
00001000
00001000
00010000
,
00010000
01000000
10000000
00100000
,
00010000
00000000
00001000
00010000
00001000
00000000
00010000
00000000
,
00001000
00011000
00011000
00000110
,
00000110
00000000
00000100
00000010
00000100
00000000
00000010
00000000
,
00000100
00000110
00000110
00011000
,
00011000
00000000
00010000
00001000
00010000
00000000
00001000
00000000
,
00010000
00011000
00011000
01100000
,
01100000
00000000
00100000
01000000
00100000
00000000
01000000
00000000
,
00100000
01100000
01100000
00011000
,
00011000
00001000
00010000
01000000
,
01000000
00010000
00001000
00000100
,
00000100
00000001
00000010
00001000
,
00010000
00100000
10000000
01000000
,
00010000
00001000
00010000
00100000
,
00100000
00010000
00001000
00000010
,
00000010
00001000
00010000
00100000
,
10000000
01000000
00010000
00022000
,
00033000
00000000
00000000
00000000
00010000
00000000
00000000
00010000
00000000
00000000
00010000
00000000
00000000
00010000
00000000
00000000
,
00020000
00000000
00000000
00000000
00001000
00000000
00000000
00001000
00000000
00000000
00001000
00000000
00000000
00031000
00000000
00000000
,
00000000
00000010
00000001
00000100
,
00000010
00000000
00001000
00000100
00010000
00000000
00001000
01000000
,
00010000
00100000
00010000
01000000
,
00100000
10000000
00010000
01100000
,
10010000
01000000
00001000
00010000
,
00002000
00000000
00000000
00003100
,
00000001
00000010
00001000
01000000
,
00010000
01100000
10010000
01100000
,
00000000
01000000
10000000
00100000
,
01000000
00000000
00010000
00100000
00001000
00000000
00010000
00000010
,
00001000
00000100
00001000
00000010
,
00000100
00000001
00001000
00000110
,
00001001
00000010
00010000
00001000
,
00020000
00000000
00000000
00130000
,
10000000
01000000
00010000
00000010
,
00001000
00000110
00001001
00000110
,
00000000
00000000
00000020
00000000
00000000
00000000
00001000
00001000
,
00001030
00000000
00000200
00000000
00000000
00000000
00010000
00010000
,
00010300
00000000
00002000
00000000
00000000
00000000
01000000
01000000
,
01003000
00100000
00010000
00001000
,
00000100
00002000
00000000
00023000
,
00000000
00030000
00011000
00000000
00000110
00000000
00000000
00000000
,
00000000
00000010
00001000
00000100
,
00000001
00000010
00000000
00000000
,
00000000
00000000
00000000
00000000
;

//---------------dance-double - ----------------
#NOTES:
     dance-double:
     :
     Medium:
     10:
     0.478588,0.553471,0.232378,0.145236,0.048412,346.000000,322.000000,24.000000,15.000000,0.000000,0.000000,0.478588,0.553471,0.232378,0.145236,0.048412,346.000000,322.000000,24.000000,15.000000,0.000000,0.000000:
00000000
00000000
00000000
00000000
,
00000000
00000000
00000000
00000000
,
00000000
00000000
00000000
00000000
,
00000000
00000000
00000000
00000000
,
00000000
00000000
00000000
00000000
,
00000000
00000000
00000000
00000000
,
00000001
00000000
00000010
00000000
00000001
00000100
00001000
00000000
,
00010000
00000000
00001000
00000000
00010000
01000000
10000000
00000000
,
00100000
00000000
01000000
00000000
00100000
00010000
01000000
00000000
,
00001000
00000000
00000000
00001000
00000000
00000000
00001000
00000000
00000000
00001000
00000000
00000000
00020000
00000000
00000000
00000000
,
00032000
00010000
00000000
00010000
,
00000000
01000000
00000000
02003000
,
03200000
01000000
00000000
01000000
,
00000000
10000000
00000000
10300000
,
00010000
01000000
00100000
00000000
01000000
00000000
00010000
00000000
,
00100000
00010000
00001000
00000000
00000010
00000000
00000100
00000000
,
00000010
00001000
00010000
00000000
00100000
00000000
01000000
00000000
,
00010000
00100000
00010000
00001000
00000100
00000000
00000110
00000000
,
00001001
00000001
00000001
00001000
,
00001000
00000000
00000001
00000100
00000010
00001000
00010000
01000000
,
10000000
00010000
00010000
10000000
,
10000000
00000000
10000000
01000000
00100000
00010000
00001000
00000100
,
00000010
00000001
00000100
00000000
00000100
00000000
00000010
00000000
,
00000010
00000000
00000001
00000100
00001000
00010000
01000000
00100000
,
01000000
01000000
01000000
00100000
,
00100000
00000000
00001000
00001000
00100000
00100000
00001000
00010000
,
00001000
00011000
00000100
00000110
,
00000001
00000000
00000001
00000100
00001000
00010000
00001000
00000100
,
00000001
00000011
00000100
00001010
,
00000100
00000000
00000001
00000100
00001000
00010000
00100000
10000000
,
01000000
00100000
00010000
00000000
11000000
00000000
00100000
00000000
,
01010000
00000000
10000000
01000000
00010000
00001000
00010000
01000000
,
10000000
00100000
01000000
00000000
11000000
00000000
10000000
00000000
,
01010000
00000000
00010000
00100000
00001000
00010000
00000010
00001000
,
00000100
00000000
00000010
00001000
00000100
00000000
00010000
00010000
,
00010000
00000000
00001000
00100000
00010000
00000000
01000000
01000000
,
01000000
00000000
00100000
10000000
01000000
00100000
00010000
01000000
,
00001000
00100000
00001000
00010000
00000010
00001000
00000001
00000100
,
00000100
00000000
00000010
00001000
00000100
00000000
00010000
00010000
,
00010000
00000000
00001000
00100000
01000000
00000000
10000000
10000000
,
10000000
10100000
11000000
00110000
,
00011000
00001100
00000101
00002002
,
00003003
00000000
00000000
00000000
00000001
00000000
00000000
00000010
00000000
00000000
00000100
00000000
00000000
00001000
00000000
00000000
,
00011000
00000000
00000000
00000000
00010000
00000000
00000000
00100000
00000000
00000000
01000000
00000000
00000000
01100000
00000000
00000000
,
00000000
00000000
00010000
00000000
01000000
00000000
00010000
00100000
,
10000000
00000000
00100000
00001000
00010000
00000000
00100000
00010000
,
00001000
00000000
00000100
00000010
00001000
00000000
00000001
00000010
,
00000100
00000020
00000001
00000100
,
00000031
00000000
00000001
00000100
00001000
00010000
00001000
00000010
,
00000010
00000020
00000000
00000000
00000001
00000000
00000100
00000000
,
00000031
00000000
00000001
00000100
00001000
00010000
01000000
00100000
,
00010000
00000000
00001000
00000000
00000100
00000000
00000000
00000001
00000000
00000000
00000200
00000000
00002000
00000000
00000000
00000000
,
00003300
00000000
00001000
00000000
00000100
00000000
00001000
00000010
,
00000001
00000000
00000010
00010000
00001000
00000000
00000010
00001000
,
00010000
00000000
01000000
00100000
00010000
00000000
10000000
00100000
,
01000000
00200000
10000000
01000000
,
10300000
00000000
10000000
01000000
00010000
00001000
00010000
00100000
,
00100000
00200000
00000000
00000000
10000000
00000000
01000000
00000000
,
10300000
00000000
10000000
01000000
00010000
00001000
00000100
00000010
,
00001000
00000000
00010000
00000000
01000000
00000000
00000000
10000000
00000000
00000000
02000000
00000000
00020000
00000000
00000000
00000000
,
03030000
00000000
10000000
01000000
00010000
00000000
00100000
00000000
,
00011000
00000000
00100000
00010000
00001000
00000000
00010000
00000000
,
00010100
00000000
00000010
00000001
00000100
00000000
00000010
00000000
,
00000110
00000000
00000001
00000010
00001000
00000000
00010000
01000000
,
10000000
00000000
00000000
00000000
00100000
00000000
00000000
00100000
00000000
00000000
00100000
00000000
01000000
00000000
00000000
01000000
,
00000000
01000000
10010000
00000000
00011000
00100000
00001000
00010000
,
00000100
00000010
00000200
00000000
00000000
00000000
00000000
00000000
,
00000000
00000310
00000000
00000000
,
00000000
00000000
00000000
00000000
;

//---------------dance-double - ----------------
#NOTES:
     dance-double:
     :
     Hard:
     13:
     0.582328,0.594742,0.213013,0.377614,0.140395,421.000000,399.000000,22.000000,39.000000,0.000000,0.000000,0.582328,0.594742,0.213013,0.377614,0.140395,421.000000,399.000000,22.000000,39.000000,0.000000,0.000000:
00000000
00000000
00000000
00000000
,
00000000
00000000
00000000
00000000
,
00000000
00000000
00000000
00000000
,
00000000
00000000
00000000
00000000
,
00000000
00000000
00000000
00000000
,
00000000
00000000
00000000
00000000
,
10000000
01000000
00100000
00001000
,
00010000
00000100
00000010
00000001
,
00000100
00001000
00010000
00100000
,
10100000
00000000
00000000
00101000
00000000
00000000
00010010
00000000
00000000
00001010
00000000
00000000
00000200
00000000
00000000
00000000
,
00000310
00000000
00000001
00000100
00001000
00000100
00000010
00001000
,
00000100
00000000
00010000
00000100
00000010
00001000
00010000
00100000
,
00010000
00000000
00001000
00100000
01000000
00010000
01000000
10000000
,
00100000
00000000
01000000
00100000
00010000
00000000
00001000
00000000
,
00000020
00000001
00000100
00001000
,
00010000
00001000
00000230
00020300
,
00032000
00100000
01000000
00013000
,
00001000
00010000
00100000
01000000
00010000
00100000
01000000
10000000
,
00200000
00300000
00000000
00000000
10000000
00000000
01000000
00000000
00100000
00000000
01000000
00000000
00010000
00000000
01000000
00000000
,
00010000
00001000
00000100
00000100
00001000
00001000
00010000
00001000
,
00000010
00000000
00000001
00000100
00000010
00000100
00001000
00000100
,
00001000
00010000
01000000
01000000
00010000
00010000
00001000
00010000
,
01000000
10000000
00100000
00010000
10000000
01000000
00010000
10000000
,
01000000
00010000
00001000
00001000
00000100
00000100
00000001
00000010
,
00001000
00001000
00000010
00001000
00000001
00000100
00001000
00000001
,
00000100
00001000
00010000
00010000
01000000
01000000
10000000
00010000
,
10000000
00000000
10000000
00100000
00010000
00001000
00000010
00000001
,
00000100
00001000
00010000
00010000
01000000
01000000
00010000
00001000
,
00000010
00000000
00000001
00000010
00001000
00010000
00100000
10000000
,
01000000
00010000
00001000
00001000
00000100
00000100
00001000
00010000
,
00100000
10000000
01000000
00010000
10000000
00100000
00001000
00010000
,
00100000
01000000
00001000
00010000
00000100
00000010
00001000
00000010
,
00000100
00000001
00000100
00000000
00001000
00000010
00000100
00010000
,
00001000
00000100
00001000
00010000
01000000
00100000
10000000
00010000
,
01000000
00000000
10000000
00010000
01010000
00000000
00010100
00000000
,
00001000
00000010
00000100
00000001
00001100
00000000
01001000
00000000
,
00100000
10000000
00010000
00000000
01010000
00000000
00011000
00000000
,
00001010
00011000
00110000
11000000
,
10010000
00000000
10000000
00100000
01100000
00000000
01001000
00000000
,
00001010
00000000
00000001
00000010
00000110
00000000
00010100
00000000
,
00110000
00000000
10000000
00100000
00010000
01000000
00100000
00010000
,
00001000
00000010
00000001
00000100
00000010
00000001
00000010
00000000
,
00000000
00000000
00000100
00000000
00000010
00000000
00000000
00010000
00000000
00000000
00001000
00000000
00000000
00100000
00000000
00000000
,
01000000
00000000
00000000
00000000
10000000
00000000
00000000
00010000
00000000
00000000
00001000
00000000
00000000
00000001
00000000
00000000
,
00000000
00000000
00000100
00000000
00000001
00000000
00000010
00000000
00002000
00000000
00000000
00003010
00000000
00000100
00001000
00000000
,
00000010
00000000
00010000
00000000
00001000
00000000
00000100
00000000
00002000
00000000
00000000
00013000
00000000
00100000
00010000
00000000
,
00001000
00000000
01000000
00000000
00010000
00000000
01000000
00200000
00000000
00000000
10300000
00000000
00000000
00000000
01000000
00000000
,
00010000
20000000
00000000
30100000
00010000
01000000
00001000
00010000
,
00001000
00000000
00000010
00000000
00000002
00000000
00000000
00000203
00000000
00000000
00001300
00000000
00000100
00000000
00000010
00000000
,
00010000
00002000
00000100
00000000
00023000
00000000
00130000
01000000
,
00010000
00000000
00001000
00000000
00020000
00000000
00000000
02030000
00000000
00000000
03100000
00000000
00001000
00000000
01000000
00000000
,
10000000
00000000
01000000
00000000
00010000
00000000
00000000
00100000
00000000
00000000
00002000
00000000
00020000
00000000
00000000
00000000
,
00033000
00000000
00000000
00000000
00001000
00000000
00000100
00000000
00000002
00000000
00000000
00000013
00000000
00000100
00010000
00000000
,
00001000
00000000
00000100
00000000
00000010
00000000
00010000
00000000
00000200
00000000
00000000
00010300
00000000
00010000
00001000
00000000
,
00100000
00000000
01000000
00000000
20000000
00000000
00000000
30200000
00000000
00000000
00320000
00000000
00000000
00031000
00010000
00000000
,
00001000
00000010
00000100
00001000
00000001
00000100
00001000
00000001
,
00000010
00000000
00000100
00000000
00002000
00000000
00000000
02003000
00000000
00000000
03010000
00000000
00100000
00000000
10000000
00000000
,
00010000
20000000
00000000
30100000
00010000
00000000
01000000
00100000
,
00010000
00000000
00001000
00000000
00000200
00000000
00000000
00000302
00000000
00000000
00001003
00000000
00000010
00000000
00001000
00000000
,
00000010
00000000
00001000
00000000
00000100
00000000
00000000
00010000
00000000
00000000
00002000
00000000
00020000
00000000
00000000
00000000
,
00033000
00000000
00000000
00000000
00020000
00000000
00000000
02030000
00000000
00000000
13000000
00000000
00100000
00000000
00010000
00000000
,
00010000
00000000
01000000
00000000
00002000
00000000
00000000
00003200
00000000
00000000
00000301
00000000
00000010
00000000
00001000
00000000
,
00001000
00000000
00000100
00000000
00020000
00000000
00000000
00230000
00000000
00000000
10300000
00000000
01000000
00000000
01000000
00000000
,
00001000
00000000
00010000
00000000
00000200
00000000
00000000
00000302
00000000
00000000
00001003
00000000
00000010
00000000
00000010
00000000
,
00000100
00000000
00001000
00000000
00010000
00000000
00000000
01000000
00000000
00000000
00010000
00000000
00001000
00000000
00000000
00000100
,
00000000
00000010
00000001
00000000
00000110
00000000
00001000
00010000
,
00100000
01000000
10000000
01000000
00001000
00010000
00000010
00000100
,
00000001
00001000
00000020
00000000
00000000
00000000
00000000
00000000
,
00000000
00000030
00000000
00000000
,
00000000
00000000
00000000
00000000
;

//---------------dance-single - ----------------
#NOTES:
     dance-single:
     :
     Challenge:
     15:
     0.757995,0.823005,0.309837,0.242060,0.561580,548.000000,516.000000,32.000000,25.000000,0.000000,0.000000,0.757995,0.823005,0.309837,0.242060,0.561580,548.000000,516.000000,32.000000,25.000000,0.000000,0.000000:
// measure 0
0000
0000
0000
0000
,  // measure 1
0000
0000
0000
0000
,  // measure 2
0000
0000
0000
0000
,  // measure 3
0000
0000
0000
0000
,  // measure 4
0000
0000
0000
0000
,  // measure 5
0000
0000
0000
0000
,  // measure 6
1000
0000
0000
1000
0000
0000
0010
0000
0000
0010
0000
0000
0110
0000
0000
0000
,  // measure 7
0100
0000
0000
0100
0000
0000
0001
0000
0000
0001
0000
0000
1001
0000
0000
0000
,  // measure 8
1000
0000
0000
1000
0000
0000
0010
0000
0000
0010
0000
0000
0110
0000
0000
0000
,  // measure 9
0100
0000
0000
0101
0000
0000
1001
0000
0000
1010
0000
0000
0020
0000
0000
0000
,  // measure 10
0230
0001
0001
0001
,  // measure 11
0001
0001
0001
0302
,  // measure 12
2003
0010
0010
0010
,  // measure 13
3020
0100
0230
0001
,  // measure 14
0302
0000
1003
0000
1010
0000
0110
0100
,  // measure 15
0001
0001
1000
1000
0010
0010
0100
0000
,  // measure 16
0100
0000
0001
1000
0001
0100
1000
0100
,  // measure 17
0010
0001
1000
0001
0010
1000
0010
0100
,  // measure 18
2000
3000
0000
0000
0100
0010
1000
0000
0001
0000
0100
0000
0001
0000
0010
0000
,  // measure 19
0100
0000
1000
0000
0001
0000
1000
0010
1000
0000
1000
0010
1000
0000
0010
0100
,  // measure 20
0010
0000
0000
0000
1000
0001
1000
0000
1000
0000
0100
0000
0001
0000
0100
0000
,  // measure 21
1000
0000
0010
0000
0100
0000
0001
1000
0001
0000
0100
0001
0100
0000
0010
0000
,  // measure 22
1000
0100
0010
0000
0100
1000
0001
0000
0100
0000
0010
0000
1000
0000
0001
0000
,  // measure 23
0010
0000
0001
0000
1000
0000
0001
0100
0010
0000
0010
0100
0001
1000
0001
0000
,  // measure 24
1000
0000
0001
0000
0100
0010
1000
0000
0010
0000
0100
0000
0001
0000
0010
0000
,  // measure 25
0100
0000
1000
0000
0001
0000
0100
0001
0100
0000
0010
1000
0010
0000
0010
0000
,  // measure 26
0110
0000
0000
0000
1000
0001
1000
0000
0001
0000
0100
0000
0010
0000
1000
0000
,  // measure 27
0001
0000
1000
0000
0010
0000
0100
0010
0100
0000
0100
0010
0100
0000
1000
0100
,  // measure 28
0010
0000
0000
0000
0100
0001
1000
0000
0010
0000
0100
0000
0010
0000
1000
0000
,  // measure 29
0100
0000
1000
0000
0010
0000
0001
0010
0001
0000
0010
1000
0010
0000
0001
0000
,  // measure 30
0010
1000
0001
0000
0100
0001
0100
0000
0010
0000
1000
0000
0001
0000
0100
0000
,  // measure 31
0001
0000
0010
0000
2000
0000
3010
0100
0020
0000
0031
1000
0002
0000
0013
0100
,  // measure 32
0020
0000
0130
0000
1000
0001
1000
0000
0100
0000
0010
0000
0100
0000
1000
0000
,  // measure 33
0100
0000
0010
0000
0001
0000
1000
0001
0100
0000
0100
0001
0010
0000
0010
0000
,  // measure 34
0100
1000
0100
0000
0010
0000
0010
0000
0100
0000
0100
0000
1000
0000
1000
0000
,  // measure 35
0001
0100
0001
0000
0100
0000
0100
0000
0010
0000
0010
0000
1000
0000
1000
0000
,  // measure 36
0100
0010
0001
0000
0100
0000
0001
1000
0001
0000
1000
0010
1000
0000
0010
0100
,  // measure 37
0010
0000
0100
0001
0100
0000
0001
1000
0001
0000
1000
0100
1000
0000
0100
0001
,  // measure 38
0100
1000
0001
1000
0010
0100
0010
1000
,  // measure 39
0100
0001
0100
0000
1000
0000
0001
0000
0100
0000
1000
0000
0100
0000
0001
0000
,  // measure 40
0010
0100
1000
0000
0010
0000
0100
0001
0100
0000
0010
1000
0010
0000
0100
0010
,  // measure 41
0100
0000
0001
0000
1000
0100
0001
0100
1000
0001
1000
0010
0100
0000
0000
0000
,  // measure 42
1001
0000
0000
1010
0000
0000
0110
0000
0000
0101
0000
0000
1001
0000
0000
0000
,  // measure 43
0101
0000
0000
0110
0000
0000
1010
0000
0000
1001
0000
0000
0000
0000
0001
0000
,  // measure 44
1000
0010
1000
0000
0001
0000
0100
0010
0000
0010
0100
0000
0001
0000
1000
0000
,  // measure 45
0010
0100
0010
0000
1000
0000
0001
0100
0000
0100
0010
0000
1000
0000
0001
0000
,  // measure 46
0100
0000
0000
0001
0000
0000
1000
0000
0000
0000
0010
0100
0010
0000
2000
0000
,  // measure 47
0000
0000
3001
0000
0000
0000
0100
0001
0100
0010
0100
0000
0001
0000
0010
0000
,  // measure 48
0100
0000
1000
0001
0000
0001
1000
0000
0010
0000
0100
0000
0010
0000
2000
0000
,  // measure 49
3001
0100
0001
0100
0010
0100
0001
0000
1000
0010
1000
0000
0001
0100
0001
0000
,  // measure 50
1000
0001
0000
0001
0100
0000
0010
0000
1000
0000
0010
0000
0100
0000
0100
0000
,  // measure 51
0001
0000
0000
1001
0000
0000
1010
0000
0220
0000
0330
0000
0001
1000
0001
0000
,  // measure 52
1000
0000
0010
0000
0100
0000
0010
1000
0000
1000
0001
0000
0100
0000
0010
0000
,  // measure 53
1000
0001
0100
0000
0010
0000
1000
0100
0000
0100
0001
0000
0010
0000
0001
0000
,  // measure 54
0100
0000
1000
0001
0000
0010
0100
0000
0000
0000
1000
0001
0100
0000
0020
0000
,  // measure 55
0130
0001
0100
0010
1000
0000
0000
0000
0100
0001
0100
0000
0010
1000
0010
0000
,  // measure 56
0100
0000
0001
1000
0000
1000
0001
0000
0100
0010
0100
0000
0010
0000
2000
0000
,  // measure 57
0000
0000
3001
0000
0100
0000
0000
0000
0010
0100
0010
1000
0100
0010
0001
0000
,  // measure 58
1000
0000
0010
0100
0000
0100
0001
0000
1000
0000
0001
0000
0100
0000
0010
0000
,  // measure 59
0101
0000
0000
1001
0000
0000
1010
0000
0220
0000
0000
0330
0001
1000
0001
0000
,  // measure 60
1000
0000
0010
2000
0000
0000
3010
0000
0100
0000
0001
0000
0100
0010
0100
0000
,  // measure 61
0001
0000
1000
0010
0000
0010
0100
0000
0001
0000
1000
0000
0001
0100
0010
0100
,  // measure 62
0001
0000
1000
0010
0000
0010
0100
0000
0010
0000
1000
0000
0100
0010
0001
0000
,  // measure 63
0100
0000
0010
2000
0000
0000
3001
0000
0100
0000
0010
0000
0100
0000
0001
0000
,  // measure 64
1001
0000
0000
1010
0000
0000
0110
0000
0101
0000
0000
1001
0000
0000
1010
0000
,  // measure 65
0220
0000
0000
0330
0100
0000
0001
0000
0010
0000
1000
0000
0010
0000
0001
0000
,  // measure 66
0100
1000
0001
1000
0010
1000
0100
0001
,  // measure 67
0200
0000
0000
0000
,  // measure 68
0300
0000
0000
0000
;
