#TITLE:LOVE AGAIN TONIGHT~For Melissa MIX~;
#SUBTITLE:;
#ARTIST:NAOKI feat. PAULA TERRY;
#TITLETRANSLIT:;
#SUBTITLETRANSLIT:;
#ARTISTTRANSLIT:;
#GENRE:;
#CREDIT:;
#BANNER:LOVE AGAIN TONIGHT~For Melissa MIX~.png;
#BACKGROUND:LOVE AGAIN TONIGHT~For Melissa MIX~-bg.png;
#LYRICSPATH:;
#CDTITLE:;
#MUSIC:LOVE AGAIN TONIGHT~For Melissa MIX~.ogg;
#OFFSET:0.000000;
#SAMPLESTART:65.599998;
#SAMPLELENGTH:15.000000;
#SELECTABLE:YES;
#DISPLAYBPM:150.000000;
#BPMS:0.000000=150.000000
;
#STOPS:
;
#BGCHANGES:;
#KEYSOUNDS:;
#ATTACKS:;

//---------------dance-single - ----------------
#NOTES:
     dance-single:
     :
     Beginner:
     4:
     0.200527,0.240779,0.153689,0.000000,0.000000,137.000000,122.000000,15.000000,0.000000,0.000000,0.000000,0.200527,0.240779,0.153689,0.000000,0.000000,137.000000,122.000000,15.000000,0.000000,0.000000,0.000000:
0000
0000
0000
0000
,
0000
0000
0000
0000
,
0000
0000
0000
0000
,
0000
0000
0000
0000
,
0000
0000
0000
0000
,
0001
0001
0001
0001
,
0000
0001
0000
0001
,
0000
1000
0000
1000
,
0000
1000
1000
1000
,
0000
0010
0000
0010
,
0000
0010
0000
0001
,
0000
0100
0000
0001
,
0000
0010
0000
0001
,
0000
0010
0000
0010
,
0000
0010
0000
0001
,
0000
0100
0000
0001
,
0000
0010
0000
0001
,
0000
0001
0001
0001
,
0000
0100
0100
0100
,
0000
1001
0000
1001
,
0000
0010
0000
0100
,
0000
1000
1000
1000
,
0000
0100
0100
0100
,
0000
1001
0000
1001
,
0000
0000
0100
0100
,
0000
0100
0000
0100
,
0000
0100
0000
0001
,
0000
1000
0000
0100
,
0000
0001
0000
0100
,
0100
0000
0000
0100
,
0000
0100
0000
0001
,
0000
0100
0000
0001
,
0000
1001
0000
0110
,
0000
1001
0000
0000
,
1001
0000
1001
0000
,
0010
0010
0010
0000
,
0100
0100
0100
0100
,
0000
1001
0000
0000
,
1001
0000
1001
0000
,
0001
0001
0001
0000
,
1000
1000
1000
0000
,
0000
0100
0000
0100
,
0000
0100
0000
0001
,
0000
1000
0000
0100
,
0000
0001
0000
0100
,
0000
0010
0000
0010
,
0000
0100
0000
0100
,
0000
0010
0000
0010
,
0000
0100
0000
0100
,
0000
1001
0000
1001
,
0000
1001
0000
0010
,
0000
0010
0000
0010
,
0000
1000
0000
0001
,
0000
0100
0000
0100
,
0000
0010
0000
0100
,
0000
0100
0000
0100
,
0100
0100
0100
0100
,
0000
1000
1000
1000
,
0000
0001
0001
0001
,
0000
0000
0000
0000
;

//---------------dance-single - ----------------
#NOTES:
     dance-single:
     :
     Easy:
     5:
     0.304450,0.332480,0.174180,0.000000,0.000000,208.000000,191.000000,17.000000,0.000000,0.000000,0.000000,0.304450,0.332480,0.174180,0.000000,0.000000,208.000000,191.000000,17.000000,0.000000,0.000000,0.000000:
0000
0000
0000
0000
,
0000
0000
0000
0000
,
0000
0000
0000
0000
,
0000
0000
0000
0000
,
0000
0000
0000
0000
,
0001
0001
0001
0001
,
1000
0001
1000
0001
,
0100
1000
0100
1000
,
0001
1000
0001
1000
,
0000
0010
0000
0010
,
0100
0010
1000
0001
,
0100
0000
0100
0000
,
0010
0010
1000
0001
,
0010
0010
1001
0000
,
0100
0000
0100
0000
,
0010
0010
0001
0100
,
0010
1000
0010
1000
,
0010
0001
0001
1000
,
0100
0100
0001
0110
,
0000
1001
0100
0100
,
0001
0010
0001
0010
,
0001
0010
1000
0100
,
1000
0100
1000
0110
,
0000
1001
0001
0010
,
0010
0000
0100
0100
,
1001
0100
1001
0100
,
1000
0100
0010
0001
,
1000
1000
0100
0100
,
0010
0001
1000
0100
,
0001
0000
0000
1000
,
0100
0100
0010
0001
,
1000
0100
0010
0001
,
0000
1001
0000
0110
,
0000
0000
0001
0000
0000
0001
0000
0000
,
1000
0000
0000
0001
0000
0000
0000
0000
,
0010
0010
0010
1001
,
0100
0100
0100
0100
,
0000
0000
1000
0000
0000
1000
0000
0000
,
0001
0000
0000
1000
0000
0000
0000
0000
,
0001
0001
0001
0010
,
1000
1000
1000
1000
,
1001
0100
1001
0100
,
1000
0100
0010
0001
,
1000
1000
0100
0100
,
0010
0001
1000
0100
,
0001
0010
0001
0010
,
1000
0100
1000
0100
,
1000
0100
0010
0001
,
0010
0010
0100
0100
,
0110
1001
0000
1001
,
0000
1000
0100
0010
,
0001
0010
0001
0010
,
0100
1000
0100
1000
,
0001
0001
0100
0100
,
1000
0010
0001
0100
,
1001
0100
0000
0000
,
0100
0100
0100
0100
,
1000
1000
1000
1000
,
0001
0001
0001
0001
,
0110
0000
0000
0000
,
0000
0000
0000
0000
;

//---------------dance-single - ----------------
#NOTES:
     dance-single:
     :
     Medium:
     8:
     0.384953,0.482582,0.297131,0.000000,0.000000,263.000000,234.000000,29.000000,0.000000,0.000000,0.000000,0.384953,0.482582,0.297131,0.000000,0.000000,263.000000,234.000000,29.000000,0.000000,0.000000,0.000000:
0000
0000
0000
0000
,
0000
0000
0000
0000
,
0000
0000
0000
0000
,
0000
0000
0000
0000
,
0000
0000
0000
0000
,
1000
0000
1000
0000
0100
0010
0100
0000
,
0001
0000
0001
0000
0010
0100
0010
0000
,
0100
0000
0100
0000
1000
0010
1000
0000
,
1001
0000
1001
0000
0001
0100
0001
0000
,
0010
0100
0001
1000
0000
0000
0000
0001
,
0000
0001
0000
0001
0000
0000
0000
0000
,
0010
0100
0000
0000
0100
0000
0000
0000
,
1000
0010
1000
0010
,
0100
0010
1000
0001
0000
0000
0000
1000
,
0000
1000
0000
1000
0000
0000
0000
0000
,
1000
0100
0010
0001
1000
0100
0000
0000
,
1000
0100
0001
0110
,
1000
0000
0001
0000
1000
0100
0010
0000
,
0001
1000
0110
1001
,
0000
0000
0010
0000
1000
0100
1000
0000
,
0010
0000
0100
0000
0001
1000
0100
0000
,
0010
0000
1000
0000
0010
0100
0010
0000
,
0001
0100
1001
1001
,
0000
1000
0001
0100
,
1001
0000
0000
0000
,
1100
1100
0101
0101
,
0001
0100
0001
0000
1000
0100
1000
0000
,
1010
1010
0001
0100
,
1000
0000
0010
0000
0100
0100
0100
0000
,
0001
0100
0010
1000
,
1000
0100
1000
0000
0001
0010
0001
0000
,
0100
1000
0100
1000
,
0001
0010
0100
1000
,
0000
0000
0011
0000
0000
1100
0000
0000
,
0101
0000
0000
0010
0000
0100
0100
0000
,
0010
0000
0010
0000
0010
0000
0010
1000
,
0001
0000
0001
0000
0001
0100
0100
0100
,
0000
0000
1010
0000
0000
0101
0000
0000
,
1100
0000
0000
0010
0000
0100
0100
0000
,
0001
0000
0001
0000
0001
0000
0001
1000
,
0100
0100
0010
0010
,
1100
1100
0101
0101
,
1000
0100
1000
0000
0001
0100
0001
0000
,
0011
0011
1100
1100
,
0001
0000
0010
0000
0100
0100
0100
0000
,
1000
0100
0010
0001
,
0100
1000
0100
0010
,
0001
0100
0001
0000
1000
0010
1000
0000
,
0001
0100
0010
1000
,
0001
0100
0100
0000
1000
0010
0010
0000
,
0100
0001
0001
0000
1000
0100
0100
0000
,
0001
0000
1000
0000
0001
0010
0100
0000
,
1000
0000
0010
0000
0001
0100
0100
0000
,
1000
0100
0010
0001
,
0100
1000
0100
0010
,
0001
1001
0000
0001
,
1000
0100
0010
0001
0000
0000
0000
0000
,
0010
0000
0100
0010
0000
0000
0000
0000
,
1000
0000
0001
1000
0000
0001
0100
1000
,
0000
0000
0000
0000
;

//---------------dance-single - ----------------
#NOTES:
     dance-single:
     :
     Hard:
     11:
     0.507904,0.544057,0.420082,0.000000,0.066598,347.000000,306.000000,41.000000,0.000000,0.000000,0.000000,0.507904,0.544057,0.420082,0.000000,0.066598,347.000000,306.000000,41.000000,0.000000,0.000000,0.000000:
// measure 0
0000
0000
0000
0000
,  // measure 1
0000
0000
0000
0000
,  // measure 2
0000
0000
0000
0000
,  // measure 3
0000
0000
0000
0000
,  // measure 4
0000
0000
0000
0000
,  // measure 5
1000
0000
0000
0001
0000
0000
1000
0000
0000
0010
0000
0000
0100
0000
0001
0000
,  // measure 6
1000
0000
0000
0001
0000
0000
1000
0000
0000
0010
0000
0000
0100
0000
0001
0000
,  // measure 7
1000
0000
0000
0001
0000
0000
1000
0000
0000
0100
0000
0000
0010
0000
0001
0000
,  // measure 8
1000
0001
0000
1000
0001
0000
1000
0001
0000
1000
0001
0000
1000
0000
0001
0000
,  // measure 9
0100
0001
0100
0001
0000
0000
0000
0011
,  // measure 10
0000
1001
0000
1100
0000
0000
1000
0010
,  // measure 11
0010
0000
1001
0000
,  // measure 12
1000
0000
0000
0100
0010
0000
0000
0000
0001
0000
0000
1000
0001
0000
1000
0000
,  // measure 13
0001
1000
0001
1000
0000
0000
0000
1100
,  // measure 14
0000
0110
0000
0011
0000
0100
0100
0000
,  // measure 15
1000
0100
0010
0001
0100
0001
0000
0000
,  // measure 16
1000
0000
0000
0100
0010
0000
0000
0000
0001
0000
0000
0000
0110
0000
0000
0000
,  // measure 17
0010
0001
1000
0000
0010
1000
0100
0000
,  // measure 18
0010
0001
1000
0010
0100
0001
0010
0000
,  // measure 19
0011
0000
1100
0000
0010
0100
0010
0000
,  // measure 20
1000
0100
0010
0001
0100
0000
0110
0000
,  // measure 21
0001
0010
0001
0000
1000
0100
1000
0000
,  // measure 22
0001
0010
0001
0100
0010
1000
0100
0000
,  // measure 23
0110
0000
1001
0000
0010
0100
0010
1000
,  // measure 24
0000
0100
0100
0000
0000
0000
0000
0000
,  // measure 25
0100
0010
1001
0000
0100
0010
1001
0000
,  // measure 26
1000
0010
1000
0000
0001
0100
0001
0000
,  // measure 27
1000
0100
0010
0001
1000
0100
1000
0001
,  // measure 28
0010
0001
0010
0001
1000
0100
0100
0000
,  // measure 29
1000
0100
0001
0000
1000
0100
0001
0000
,  // measure 30
1000
0100
0001
0100
1000
0100
0001
0000
,  // measure 31
0110
0110
1001
0110
,  // measure 32
0011
1001
1100
1001
,  // measure 33
0000
0000
0001
0001
0000
0010
0010
0000
,  // measure 34
1000
1000
0000
0100
0100
0010
0110
0000
,  // measure 35
0010
0010
0010
1001
,  // measure 36
1000
0000
1000
0000
1000
0100
0100
0100
,  // measure 37
0000
0000
0001
0001
1000
1000
0000
0000
,  // measure 38
0100
0100
0000
0010
0010
0100
0110
0000
,  // measure 39
0001
0001
0001
0110
,  // measure 40
1000
1000
0011
0011
,  // measure 41
0100
0010
1001
0000
0100
0010
1001
0000
,  // measure 42
1000
0010
1000
0000
0001
0100
0001
0000
,  // measure 43
1000
0100
0010
0001
1000
0100
1000
0001
,  // measure 44
0010
0001
0010
0001
1000
0100
0100
0000
,  // measure 45
0001
0100
1000
0000
0001
0100
1000
0000
,  // measure 46
0001
0100
1000
0100
0001
0100
1000
0100
,  // measure 47
1000
0100
0001
0100
1000
0100
0001
0000
,  // measure 48
0010
1000
0001
0100
,  // measure 49
1010
0101
1001
1100
,  // measure 50
0010
0110
0000
1001
0000
0001
0010
0100
,  // measure 51
0010
0001
0100
0000
0010
1000
0100
0000
,  // measure 52
1000
0010
0100
0001
0010
0100
0100
0000
,  // measure 53
0001
0001
0001
0000
1000
0010
0100
0000
,  // measure 54
0010
0100
1000
0001
0010
0100
1000
0000
,  // measure 55
0110
1001
0000
0110
,  // measure 56
1000
0100
0010
0001
0001
0000
0000
0000
,  // measure 57
0001
0000
0010
0100
0000
1000
0100
0010
,  // measure 58
0001
0000
1000
0001
0000
0010
0100
1000
,  // measure 59
1001
0000
0000
0000
;

//---------------dance-double - ----------------
#NOTES:
     dance-double:
     :
     Easy:
     5:
     0.295667,0.362705,0.225410,0.000000,0.000000,202.000000,180.000000,22.000000,0.000000,0.000000,0.000000,0.295667,0.362705,0.225410,0.000000,0.000000,202.000000,180.000000,22.000000,0.000000,0.000000,0.000000:
00000000
00000000
00000000
00000000
,
00000000
00000000
00000000
00000000
,
00000000
00000000
00000000
00000000
,
00000000
00000000
00000000
00000000
,
00000000
00000000
00000000
00000000
,
00001000
00001000
00001000
00001000
,
00000010
00000010
00000100
00000010
,
00000001
00000001
00000001
00000001
,
00001000
00010000
01000000
01000000
,
00010000
00000000
00010000
00000000
,
01000000
10000000
01000000
00000000
,
00100000
00000000
00100000
00000000
,
10010000
01000000
01000000
01000000
,
00100000
00000000
10010000
00000000
,
00010000
00001000
00001000
00000000
,
00000100
00000010
00001000
00000001
,
00000100
00000100
00000100
00001001
,
00000010
00000010
00000001
00001000
,
00010000
01000000
00010000
10000000
,
00000000
01100000
00010000
10000000
,
01000000
00010000
00010000
01000000
,
00100000
00100000
10000000
00010000
,
00001000
00000100
00001000
00000001
,
00000000
00000110
00000110
00000001
,
00001000
00000000
00000010
00000010
,
00000101
00000000
00001100
00000000
,
00000010
00000010
00000100
00001000
,
00010000
00001000
00010000
00000100
,
00010000
00001000
00100000
01000000
,
10010000
00000000
00000000
00000000
,
01000000
01000000
00010000
00100000
,
10000000
10000000
00010000
00010000
,
01000000
00010000
00001000
00000010
,
00000000
00000000
00000100
00000000
00000000
00000100
00000000
00000000
,
00000100
00000000
00000000
00000100
00000000
00000000
00000000
00000000
,
00000001
00001001
00000001
00001001
,
00000100
00000100
00010000
00010000
,
00000000
00000000
00001000
00000000
00000000
00001000
00000000
00000000
,
00001000
00000000
00000000
00001000
00000000
00000000
00000000
00000000
,
00010000
00011000
00010000
00011000
,
00100000
01000000
00010000
10000000
,
01010000
00000000
11000000
00000000
,
00100000
00100000
01000000
00010000
,
00100000
00010000
10000000
01000000
,
00100000
00010000
00001000
00000100
,
00000010
00000000
00000000
00000010
,
00000100
00000100
00001000
00000010
,
00000100
00001001
00000000
00000000
,
00000100
00000100
00000100
00000100
,
00001001
00000000
00000110
00000000
,
00001001
00001001
00000010
00000010
,
00000100
00000010
00001000
00000100
,
00010000
00001000
00010000
00100000
,
01000000
00000000
00000000
00000000
,
01000000
01000000
00100000
01000000
,
10010000
00100000
00000000
00000000
,
10000000
10000000
10000000
10000000
,
00010000
00010000
00010000
00001000
,
00000010
00000010
00000010
00000010
,
00001001
00000000
00000000
00000000
,
00000000
00000000
00000000
00000000
;

//---------------dance-double - ----------------
#NOTES:
     dance-double:
     :
     Medium:
     7:
     0.357143,0.392930,0.092213,0.000000,0.000000,244.000000,235.000000,9.000000,0.000000,0.000000,0.000000,0.357143,0.392930,0.092213,0.000000,0.000000,244.000000,235.000000,9.000000,0.000000,0.000000,0.000000:
00000000
00000000
00000000
00000000
,
00000000
00000000
00000000
00000000
,
00000000
00000000
00000000
00000000
,
00000000
00000000
00000000
00000000
,
00000000
00000000
00000000
00000000
,
00000001
00000000
00001000
00000100
00010000
00000000
00001000
00000000
,
00010000
00000000
00001000
01000000
00100000
00000000
10000000
00000000
,
01000000
00000000
00100000
00010000
01000000
00000000
00001000
00000000
,
00010000
00000000
00001000
01000000
00100000
00000000
10000000
00000000
,
00010000
10000000
00000000
00000000
,
10000000
00000000
00000000
00000000
10000000
00000000
00010000
10000000
,
01000000
00000000
00100000
00000000
,
01000000
00001000
00010000
00000000
00000100
00000010
00000001
00000000
,
00001000
00000001
00000000
00000000
,
00000100
00000000
00000100
00000000
,
00001000
00000010
00000100
00000000
00000010
00000000
00000000
00000000
,
00000010
00010000
00001000
00000000
01000000
00100000
01000000
00000000
,
00010000
00000000
00010000
00000000
10000000
00100000
10000000
00000000
,
00010000
01000000
00010000
00000000
01000000
00000000
00001000
00000000
,
00010000
00000000
00011000
00000000
00000100
00000010
00000001
00000000
,
00000001
00001000
00000100
00000000
00010000
00000000
00010000
00000000
,
00001000
00000000
00001000
00000000
00100000
01000000
00100000
00000000
,
10000000
00010000
01000000
00000000
10000000
00000000
00010000
00000000
,
10000000
01100000
00010000
00010000
,
00011000
00000000
00001000
00001000
,
00010000
00001000
00010000
00000000
00000010
00001000
00000100
00000000
,
00000001
00000001
00001000
00001000
,
00000001
00000010
00000001
00000000
00001000
00000100
00010000
00000000
,
00001000
00000000
00001000
00000000
00010000
01000000
00100000
00000000
,
10000000
00100000
01000000
00010000
,
10000000
10000000
01000000
01000000
,
00100000
00010000
01000000
00000000
10000000
00010000
01000000
00000000
,
01000000
00001000
00010000
00000010
,
00000000
00000000
00001000
00000000
00000000
00000001
00000000
00000000
,
00000110
00000000
00000000
00001000
00000000
00000001
00000001
00000000
,
00001000
00000000
00001000
00000000
00001000
00000000
00000100
00010000
,
00100000
00100000
00100000
00100000
,
00000000
00000000
10000000
00000000
00000000
00010000
00000000
00000000
,
01100000
00000000
00000000
10000000
00000000
00010000
00010000
00000000
,
00100000
00010000
00100000
00010000
,
01000000
00001000
00010000
00010000
,
00010000
00001000
00010000
00000000
00000010
00001000
00000100
00000000
,
00000001
00000010
00000001
00000000
00001000
00000100
00001000
00000000
,
00000010
00010000
00000100
00001000
,
00000010
00000000
00000100
00000000
00001000
00010000
01000000
00000000
,
00100000
00000000
00100000
00000000
00010000
10000000
01000000
00000000
,
00100000
00000000
00100000
00000000
00001000
00010000
00000100
00000000
,
00000110
00001001
00000000
00000000
,
00000010
00001000
00000001
00000100
,
00000010
00010000
00001000
00000000
00010000
00001000
00100000
00000000
,
00010000
01000000
00010000
00000000
10000000
01000000
10000000
00000000
,
00010000
00010000
01000000
01000000
,
00001000
00010000
00001000
00000000
01000000
00001000
00000010
00000000
,
00000001
00000000
00000001
00000000
00000010
00000001
00000100
00000000
,
00000001
00000000
00001000
00000000
00000010
00001000
00000100
00000000
,
00011000
01000000
00000000
00000000
,
00100000
00100000
00100000
00100000
,
00001000
00000000
00010000
00001000
00000000
00000000
00000000
00000000
,
00000010
00000000
00000100
00000010
00000000
00000000
00000000
00000000
,
00001001
00000000
00000000
00000000
,
00000000
00000000
00000000
00000000
;

//---------------dance-double - ----------------
#NOTES:
     dance-double:
     :
     Hard:
     10:
     0.436183,0.453381,0.174180,0.000000,0.000000,298.000000,281.000000,17.000000,0.000000,0.000000,0.000000,0.436183,0.453381,0.174180,0.000000,0.000000,298.000000,281.000000,17.000000,0.000000,0.000000,0.000000:
00000000
00000000
00000000
00000000
,
00000000
00000000
00000000
00000000
,
00000000
00000000
00000000
00000000
,
00000000
00000000
00000000
00000000
,
00000000
00000000
00000000
00000000
,
00100000
00000000
00100000
00000000
10000000
00100000
01000000
00001000
,
00010000
00000000
00010000
00000000
00001000
00010000
00000010
00000100
,
00000001
00000000
00000001
00000000
00000100
00000010
00001000
00000100
,
00001000
00001000
00000100
00000100
,
00001000
00000010
00001000
00000010
00000000
00000000
00000000
00000010
,
00000000
00011000
00000000
01000000
00000000
00000000
00000000
00100000
,
01000000
00000000
10010000
00000000
,
00100000
00000000
00100000
00000000
01000000
00001000
00010000
00000000
,
00000010
00001000
00000010
00001000
00000000
00000000
00000000
00000010
,
00000000
00011000
00000000
01000000
00000000
00000000
00000000
00000000
,
01000000
00000000
00100000
10000000
00010000
00100000
01000000
00000000
,
10000000
00000000
00010000
01000000
00100000
10000000
01000000
00000000
,
00100000
01000000
00100000
00000000
10000000
00010000
01000000
00000000
,
00100000
01000000
00001000
00100000
00001000
00010000
00000100
00000000
,
00000000
00000000
00001001
00000000
00000001
00001000
00000100
00000000
,
00000010
00000100
00010000
00000010
00010000
00001000
01000000
00000000
,
00100000
00000000
00100000
00000000
01000000
00100000
01000000
00000000
,
10000000
00010000
10000000
00000000
01000000
00000000
10010000
00000000
,
00000000
00100000
00100000
01000000
,
10010000
00000000
00000000
00000000
00001000
00010000
00001000
00000000
,
00000010
00001000
00000100
00000000
00000010
00000001
00000100
00000000
,
00000010
00000001
00000010
00000000
00000100
00001000
00000100
00000000
,
00010000
00000100
00010000
00001000
00010000
00100000
01000000
00000000
,
00100000
01000000
00010000
10000000
00010000
01000000
01000000
00000000
,
00100000
00000000
00100000
00000000
10000000
00010000
01000000
00001000
,
00010000
00000000
00010000
00000000
00001000
00010000
00000010
00000000
,
00000001
00000001
00001000
00001000
,
00000010
00011000
01000000
00011000
,
00000000
00000000
00001010
00000000
00000000
00011000
00000000
00000000
,
01000000
00000000
00000000
10100000
00000000
01000000
01000000
00000000
,
00010000
01000000
10000000
00000000
00010000
01000000
10000000
00000000
,
10000000
01000000
00010000
00000000
10000000
01000000
00010000
00000000
,
00000000
00000000
00110000
00000000
00000000
00011000
00000000
00000000
,
00000100
00000000
00000000
00000011
00000000
00000100
00000100
00000000
,
00001000
00000100
00000001
00000000
00001000
00000100
00000001
00000000
,
00000100
00000000
00000100
00000000
00010000
00001000
00010000
00000000
,
00100000
00010000
01000000
00000000
00100000
10000000
01000000
00000000
,
00100000
10000000
00100000
00000000
01000000
00010000
01000000
00000000
,
00001000
01000000
00001000
00010000
00001000
00000010
00000100
00000000
,
00000010
00000100
00001000
00000001
00001000
00000100
00000100
00000000
,
00000010
00000000
00000010
00000000
00000001
00001000
00000100
00010000
,
00001000
00000000
00001000
00000000
00010000
00001000
00100000
01000000
,
10000000
10000000
00010000
00010000
,
10000000
00010000
00001000
00000001
,
00000010
00001000
00000010
00000000
00010000
00001000
00010000
00000000
,
00001000
00000001
00000100
00000000
00000010
00001000
00000100
00000000
,
00000001
00000100
00000010
00001000
00000100
00010000
00001000
00000000
,
01000000
00100000
01000000
00010000
10000000
01000000
01000000
00000000
,
00100000
00010000
01000000
00000000
00001000
00010000
00001000
00000000
,
00010000
00001000
00010000
00000010
00000100
00000001
00001000
00000000
,
00000110
00001001
00000000
00000000
,
00000001
00000010
00000100
00001000
00000000
00000000
00000000
00000000
,
00001000
00000000
00000001
00001000
00000000
00000100
00010000
00001000
,
00100000
00000000
01000000
00100000
00000000
00010000
01000000
00100000
,
10010000
00000000
00000000
00000000
,
00000000
00000000
00000000
00000000
;

//---------------dance-couple - ----------------
#NOTES:
     dance-couple:
     :
     Medium:
     7:
     0.302986,0.483607,0.307377,0.000000,0.030738,207.000000,177.000000,30.000000,0.000000,0.000000,0.000000,0.302986,0.453381,0.307377,0.000000,0.030738,207.000000,177.000000,30.000000,0.000000,0.000000,0.000000:
00000000
00000000
00000000
00000000
,
00000000
00000000
00000000
00000000
,
00000000
00000000
00000000
00000000
,
00000000
00000000
00000000
00000000
,
00000000
00000000
00000000
00000000
,
10000000
00000000
00000000
00010000
00000000
00000000
10000000
00000000
00000000
00100000
00000000
00000000
01000000
00000000
00010000
00000000
,
00001000
00000000
00000000
00000001
00000000
00000000
00001000
00000000
00000000
00000010
00000000
00000000
00000100
00000000
00000001
00000000
,
10001000
00000000
00000000
00010001
00000000
00000000
10001000
00000000
00000000
01000100
00000000
00000000
00100010
00000000
00010001
00000000
,
10001000
00000000
00000000
00010001
00000000
00000000
10001000
00000000
00000000
01000100
00000000
00000000
00100010
00000000
00000000
00000000
,
01000001
01000000
01000000
01000000
00000000
00000000
00000000
00110000
,
00000001
10010000
00000000
11000000
00000000
00000000
10000000
00100000
,
00100001
00000000
10010000
00000000
,
10000001
00010000
01000000
00000000
00010000
01000000
10000000
00000000
,
10000100
00000100
00000100
00000100
00000000
00000000
00000000
00000011
,
10000000
00001001
00000000
00001100
00000000
00000000
00001000
00000010
,
10000010
00000000
00001001
00000000
,
10001000
00000001
00000100
00000000
00000001
00000100
00001000
00000000
,
00100000
00010000
10000000
00000000
00100000
10000000
01000000
00000000
,
00100000
00010000
10000000
00100000
01000000
00010000
00100000
00000000
,
00110011
00000000
11001100
00000000
00100010
01000100
00100010
00000000
,
10001000
01000100
00100010
00010001
01000100
00000000
01100110
00000000
,
00000010
00000001
00001000
00000000
00000010
00001000
00000100
00000000
,
00000010
00000001
00001000
00000010
00000100
00000001
00000010
00000000
,
10101010
00000000
01010101
00000000
01000100
00100010
01000100
00010001
,
00000000
01000100
01000100
00000000
00000000
00000000
00000000
00000000
,
10011001
01000100
10011001
01000100
,
10001000
01000100
00100010
00010001
,
10001000
10001000
01000100
01000100
,
00100010
00010001
10001000
01000100
,
00000001
00000100
00000010
00001000
,
00000100
00000011
00000010
00001100
,
00010000
01000000
00100000
10000000
,
01000000
00110000
00100000
11000000
,
00000000
00000000
00110000
00000000
00000000
11000000
00000000
00000000
,
01010000
00000000
00000000
00100000
00000000
01000000
01000000
00000000
,
00100010
00100010
00100010
10011001
,
01000100
01000100
01000100
01000100
,
00000000
00000000
00001010
00000000
00000000
00000101
00000000
00000000
,
00001100
00000000
00000000
00000010
00000000
00000100
00000100
00000000
,
00010001
00010001
00010001
01100110
,
10001000
10001000
00110011
00110011
,
11000000
11000000
01010000
01010000
,
10000000
01000000
10000000
00000000
00010000
01000000
00010000
00000000
,
00001100
00001100
00000101
00000101
,
00001000
00000100
00001000
00000000
00000001
00000100
00000001
00000000
,
10000000
10000000
00010000
00010000
,
00001000
00001000
00000001
00000001
,
00000110
01100000
01010000
00000101
,
00100010
10001000
00010001
01000100
,
01000100
00100010
10011001
00000000
01000100
00100010
10011001
00000000
,
10001000
00100010
10001000
00000000
00010001
01000100
00010001
00000000
,
10000000
01000000
00010000
00000000
00001000
00000100
00000001
00000000
,
00000001
00000100
00001000
00000000
00010000
01000000
10000000
00000000
,
00010001
00010001
00010001
00000000
10001000
00100010
01000100
00000000
,
00100010
01000100
10001000
00010001
00100010
01000100
10001000
00000000
,
10010000
00001001
00000000
00000000
,
10001000
01000100
00100010
00010001
00010001
00000000
00000000
00000000
,
00000000
00000000
00000001
00000000
00001000
00000001
00000000
00000000
,
00000000
00000000
00010000
00000000
10000000
00010000
00000000
00000000
,
01100110
00000000
00000000
00000000
;

//---------------dance-solo - ----------------
#NOTES:
     dance-solo:
     :
     Easy:
     4:
     0.300059,0.362705,0.245902,0.000000,0.000000,205.000000,181.000000,24.000000,0.000000,0.000000,0.000000,0.300059,0.362705,0.245902,0.000000,0.000000,205.000000,181.000000,24.000000,0.000000,0.000000,0.000000:
000000
000000
000000
000000
,
000000
000000
000000
000000
,
000000
000000
000000
000000
,
000000
000000
000000
000000
,
000000
000000
000000
000000
,
100000
100000
100000
100000
,
000100
000100
100000
000010
,
001000
001000
001000
001000
,
000010
010000
000010
000010
,
001000
000000
001000
000000
,
000001
010000
000010
000000
,
000100
000000
000100
000000
,
100001
001000
001000
001000
,
000100
000000
010010
000000
,
000100
001000
001000
000000
,
010000
000010
100000
001000
,
000001
000001
000010
001100
,
100000
100000
001000
000100
,
000001
100000
001000
010000
,
000000
010010
000010
000010
,
100000
001000
000001
000001
,
010000
010000
000100
001000
,
000010
000010
010000
000010
,
000000
010010
010010
000001
,
100000
000000
001000
001000
,
010001
000000
100010
000000
,
000100
000100
001000
000001
,
010000
000010
010000
000001
,
001000
000100
100000
100001
,
000000
000010
000000
000001
,
001000
001000
000010
000100
,
100000
100000
000010
000010
,
010000
000100
001000
000010
,
000000
000000
000010
000000
000000
000010
000000
000000
,
000010
000000
000000
000110
000000
000000
000000
000000
,
100000
100001
100000
100001
,
001000
001000
000010
000010
,
000000
000000
010000
000000
000000
010000
000000
000000
,
010000
000000
000000
010100
000000
000000
000000
000000
,
000010
010010
000010
010010
,
000100
001000
000001
100000
,
001001
000000
101000
000000
,
000100
000100
001000
000001
,
010000
000010
100000
000001
,
010000
000010
100000
000001
,
001000
000000
000000
001000
,
000100
000100
010000
000010
,
000100
100001
000000
000000
,
001000
001000
001000
001000
,
100001
000000
010010
000000
,
100001
100001
000100
000100
,
001000
000100
010000
000010
,
100000
000001
010000
000010
,
001000
000000
000000
000000
,
000100
000100
010000
000010
,
010010
000100
000000
000000
,
010000
010000
010000
000100
,
001000
001000
001000
000001
,
000010
000010
000010
000010
,
010010
000000
000000
000000
;

//---------------dance-solo - ----------------
#NOTES:
     dance-solo:
     :
     Medium:
     6:
     0.379098,0.453381,0.317623,0.000000,0.000000,259.000000,228.000000,31.000000,0.000000,0.000000,0.000000,0.379098,0.453381,0.317623,0.000000,0.000000,259.000000,228.000000,31.000000,0.000000,0.000000,0.000000:
000000
000000
000000
000000
,
000000
000000
000000
000000
,
000000
000000
000000
000000
,
000000
000000
000000
000000
,
000000
000000
000000
000000
,
010000
000000
010000
000000
000100
001000
000100
000000
,
000010
000000
000010
000000
001000
000100
001000
000000
,
100000
000000
100000
000000
001000
100000
001000
000000
,
000001
000001
000100
000100
,
000010
010000
000010
010000
000000
000000
000000
000000
,
100000
000000
000000
000000
100000
000000
000001
100000
,
001000
000000
100001
000000
,
100000
001000
010000
000000
000010
001000
000001
000000
,
010000
000001
010000
000010
000000
000000
000000
000000
,
001000
000000
001000
000000
,
100000
001000
000100
000000
000001
001000
000100
000000
,
100000
000001
001000
000000
000100
100000
001000
000000
,
000001
000000
000001
000000
100000
000100
100000
000000
,
000001
001000
000001
000000
010000
000000
000010
000000
,
000100
000000
010010
000000
000100
100000
001000
000000
,
000001
001000
000100
000000
000001
000000
000001
000000
,
010000
000000
010000
000000
000010
010000
000010
000000
,
000100
000010
000100
000000
010000
000100
010000
000000
,
000100
010010
001000
001000
,
000100
000000
100001
010010
,
100100
000000
000101
000000
,
010100
000110
110000
000011
,
000100
000100
000010
000100
,
000001
000000
001000
000000
000001
010000
001000
000000
,
100000
000100
001000
000001
,
000010
000010
010000
010000
,
000100
100000
001000
000000
000100
000001
001000
000000
,
010000
001000
000100
000010
,
000000
000000
000010
000000
000000
000110
000000
000000
,
100000
000000
000000
101000
000000
001000
001000
000000
,
010000
000000
010000
000000
010000
000000
010000
001000
,
000010
000010
000010
000010
,
000000
000000
010000
000000
000000
010100
000000
000000
,
000010
000000
000000
000101
000000
000010
000010
000000
,
010000
010000
010000
010000
,
001000
001000
100000
100000
,
000101
000000
100100
000000
,
000110
010100
000011
110000
,
000100
100000
000100
000000
000001
001000
000001
000000
,
100000
000000
001000
000000
100000
000010
001000
000000
,
000001
000100
001000
100000
,
001100
000001
100000
001000
,
001100
100001
000000
000000
,
000100
010000
000100
000000
000010
000100
000010
000000
,
000101
100001
101000
100001
,
000100
100000
001000
000000
000001
000000
001000
000000
,
010000
000000
010000
000000
000010
100000
001000
000000
,
000010
000000
000010
000000
010000
000001
001000
000000
,
000100
000000
000100
000000
001000
000100
100000
000000
,
000001
000000
100000
000000
000100
100000
001000
000000
,
100001
010010
000000
000000
,
000001
000100
001000
100000
000000
000000
000000
000000
,
000010
000000
010000
000010
000000
000000
000000
000000
,
001000
000000
000100
001000
000000
000000
000000
000000
,
010010
000000
000000
000000
;

//---------------dance-solo - ----------------
#NOTES:
     dance-solo:
     :
     Hard:
     7:
     0.455211,0.544057,0.286885,0.000000,0.020492,311.000000,283.000000,28.000000,0.000000,0.000000,0.000000,0.455211,0.544057,0.286885,0.000000,0.020492,311.000000,283.000000,28.000000,0.000000,0.000000,0.000000:
000000
000000
000000
000000
,
000000
000000
000000
000000
,
000000
000000
000000
000000
,
000000
000000
000000
000000
,
000000
000000
000000
000000
,
100001
000000
101000
000000
100000
000100
100000
000000
,
100001
000000
001001
000000
000001
000100
000001
000000
,
100001
000000
100001
000000
100000
001000
100000
000000
,
100000
000001
000000
100000
000001
000000
100000
000001
000000
100000
000001
000000
100000
000000
000001
000000
,
100000
000100
100000
000100
000000
100000
000000
000010
,
000000
000100
000000
100000
000000
000000
000000
000010
,
010000
000000
100001
000100
,
001100
000000
000001
000000
100000
000001
001000
000000
,
000010
000100
000010
000100
000000
000010
000000
000010
,
000000
010000
000000
000001
000000
000100
000100
000000
,
000001
100000
001100
000010
,
010000
000000
000010
010000
000001
001000
000100
000000
,
100001
000000
001000
000000
000100
100000
001000
000000
,
000100
000001
001000
000010
000100
000010
000100
000000
,
000000
000000
010010
000000
100000
000100
001000
000000
,
000001
001000
000001
100000
000001
001000
001000
000000
,
000100
000001
100000
001000
100000
000100
001000
000000
,
000001
000100
001000
100000
000100
001000
000001
000000
,
100001
001100
100001
000000
,
010010
000000
000000
000000
001000
001000
001000
000000
,
000001
000100
000001
000000
100000
000100
100000
000000
,
000010
000100
000010
000000
010000
000100
010000
000000
,
000001
001000
000001
100000
000100
100000
001000
100000
,
000100
100000
000001
001000
000100
010000
010000
000000
,
100000
000000
100000
000000
000001
001000
000100
000000
,
100000
000100
100000
000100
001000
000001
100000
000000
,
000010
000000
000010
000000
100000
001000
100000
000000
,
000100
001000
000010
010000
,
000000
000000
000110
000000
000000
010100
000000
000000
,
000011
000000
000000
110000
000000
000000
000000
000000
,
000100
000100
000100
100001
,
010000
010000
010000
010000
,
000000
000000
010100
000000
000000
000110
000000
000000
,
110000
000000
000000
000011
000000
000000
000000
000000
,
000100
000100
000100
010010
,
100000
100000
001000
001000
,
100000
000100
100000
000000
000001
000100
000001
000000
,
010000
000100
010000
000000
000010
000100
000010
000000
,
100000
001000
100000
000001
000100
000001
001000
000001
,
000100
000001
100000
001000
000100
000010
000010
000000
,
000001
000000
000001
000000
100000
001000
000100
000000
,
000001
000100
000001
000100
001000
100000
000001
000000
,
010000
000000
010000
000000
000001
001000
000001
000000
,
000100
001000
010000
000010
,
010000
000100
010000
000000
000010
000100
000010
000000
,
100000
010000
100000
000000
000001
000010
000001
000000
,
001000
000100
001000
000000
000010
001000
000100
010000
,
001000
000100
001000
100000
000100
001000
001000
000000
,
000010
000010
000010
000000
010000
001000
000100
000000
,
000001
001000
000010
000000
100000
001000
010000
000000
,
001100
100001
000000
000000
,
000001
000100
000010
010000
000000
000000
000000
000000
,
000010
000000
001000
000100
000000
010000
000100
010000
,
000001
000000
001000
000001
000000
010000
001000
000100
,
010010
000000
000000
000000
;

//---------------dance-single - ----------------
#NOTES:
     dance-single:
     :
     Challenge:
     13:
     0.740632,0.829918,0.440574,0.020492,0.512295,506.000000,463.000000,43.000000,2.000000,0.000000,0.000000,0.740632,0.829918,0.440574,0.020492,0.512295,506.000000,463.000000,43.000000,2.000000,0.000000,0.000000:
// measure 0
0000
0000
0000
0000
,  // measure 1
0000
0000
0000
0000
,  // measure 2
0000
0000
0000
0000
,  // measure 3
0000
0000
0000
0000
,  // measure 4
0000
0000
0000
0000
,  // measure 5
0001
0000
1000
0010
0000
1000
0010
0000
0100
0001
0000
0100
0001
0000
1000
0000
,  // measure 6
0010
0100
0000
0001
0100
0000
0010
1000
0000
0001
1000
0000
0010
0000
1000
0000
,  // measure 7
0001
0100
0000
0001
0010
0000
0100
1000
0000
0010
1000
0000
0001
0000
1000
0000
,  // measure 8
0100
0010
0100
0010
0100
0000
1000
0001
0000
1000
0001
0000
1000
0000
0010
0000
,  // measure 9
0100
0001
1000
0020
0000
0030
0000
0101
,  // measure 10
0000
0000
1001
0000
0000
0000
1000
0000
0010
0100
0010
0000
0100
0000
0001
0000
,  // measure 11
1000
0001
0010
0100
1000
0010
0000
0010
,  // measure 12
0100
0000
0000
0100
0001
0000
0000
0000
1001
0000
0000
1000
0010
0000
0100
0000
,  // measure 13
0010
0000
1000
0000
0100
0000
1000
0000
0001
0000
0001
0000
0100
0001
1000
0000
,  // measure 14
0010
0000
1000
0000
0001
0000
0100
0000
0001
1000
0010
0000
1000
0010
0000
0000
,  // measure 15
1000
0000
0100
0000
0001
0000
0100
0000
1000
0010
0000
0010
0100
0000
0001
0000
,  // measure 16
0010
0000
0001
0000
0100
0000
0001
0000
1000
0100
0000
0100
1000
0000
0001
0000
,  // measure 17
0010
0000
0001
0000
0100
0000
0010
0000
1000
0001
1000
0000
0010
0000
0100
0000
,  // measure 18
0001
0000
0010
0001
1000
0000
0010
0000
1000
0000
0100
0000
1000
0000
0001
0000
,  // measure 19
0011
0000
1000
0100
0010
0001
1000
0000
,  // measure 20
0001
0000
0010
0000
0100
0000
1000
0000
0001
1000
0001
0000
0100
0000
0010
0100
,  // measure 21
0010
0000
1000
0000
0001
0000
1000
0000
0100
0000
0010
0000
0001
1000
0001
0000
,  // measure 22
0010
0000
0001
0010
0000
0000
0010
1000
0000
0000
1000
0010
0000
0000
0010
0001
,  // measure 23
0000
0000
0001
0100
0000
0000
0100
0010
0000
0010
1000
0000
0001
0000
1000
0000
,  // measure 24
1001
0000
1001
0000
1001
0000
0000
0000
0010
0100
0010
0100
0010
0000
0100
0000
,  // measure 25
0001
1000
1001
0000
0100
0010
0110
0000
,  // measure 26
0010
1000
1100
0100
0010
0011
0001
0101
,  // measure 27
0100
0110
0010
1000
0001
0100
0001
0010
,  // measure 28
0001
1000
0010
1000
0001
0100
0100
0000
,  // measure 29
0010
1000
0001
1000
0100
0001
0100
0000
,  // measure 30
1000
0010
0001
0010
1000
0001
0100
0001
,  // measure 31
0010
0001
1000
0010
0100
0010
1000
0000
,  // measure 32
0110
0000
0000
0000
1001
0000
0000
0000
1000
0100
1000
0100
0010
0001
0010
0001
,  // measure 33
0100
0000
0110
1010
0000
1010
1001
0000
,  // measure 34
1001
0000
0101
0000
0000
0000
0101
0000
0110
0000
0010
0000
1000
0001
0000
1000
,  // measure 35
0001
0000
0100
0001
0000
0100
0001
0000
1000
0000
0010
0000
1000
0001
0000
1000
,  // measure 36
0001
0000
0100
0001
0000
0100
0001
0000
1000
0000
0010
0000
0010
0000
0010
0000
,  // measure 37
0100
0000
0001
0000
1001
0000
1000
0000
0010
0000
1000
0000
0001
1000
0000
1000
,  // measure 38
0001
0000
0100
0001
0000
0001
0010
0000
0001
0000
1000
0010
1000
0010
0100
0010
,  // measure 39
0100
0001
0000
0001
1000
0000
1000
0010
0000
0010
0100
0000
0001
0010
0001
0010
,  // measure 40
0001
1000
0001
1000
0001
0000
0100
0000
0010
1000
0010
1000
0010
1000
0010
0000
,  // measure 41
0100
0000
0001
0000
0011
0000
0000
0000
1000
0100
1000
0000
0011
0000
0000
0000
,  // measure 42
0100
0010
1010
0000
0001
0101
0000
0100
,  // measure 43
0010
1000
0001
0100
1000
0100
0001
0010
,  // measure 44
1000
0010
0001
0100
0010
1000
0010
0100
,  // measure 45
0001
0000
1000
0000
0010
0000
1000
0001
0000
0100
0001
0000
1000
0000
0010
0000
,  // measure 46
0100
0000
0010
0000
1000
0000
0001
0000
0100
0001
0100
0001
0010
0000
0100
0000
,  // measure 47
1000
0000
0010
0000
1010
0000
0000
0000
0010
1000
0010
1000
0001
0000
0100
0000
,  // measure 48
0101
0000
0000
0000
0011
0000
0000
0000
0010
0100
0010
0100
1000
0001
1000
0001
,  // measure 49
0100
0000
0001
0000
0101
0000
0000
0000
0010
1000
0001
0000
1001
0000
0000
0000
,  // measure 50
0001
0100
0110
0000
0010
1010
0000
1001
,  // measure 51
0101
0000
0000
0000
0001
0000
1000
0000
0010
1000
0010
0000
0100
0000
0001
0000
,  // measure 52
0010
0000
0000
0000
0011
0000
0000
0000
0101
0000
0000
0000
0010
0000
1000
0001
,  // measure 53
1000
0010
0100
0001
0000
0001
0100
1000
,  // measure 54
0000
1100
0000
0101
0000
0011
0000
0010
,  // measure 55
0100
0000
1000
0000
0100
0000
0010
0000
0001
1000
0001
0000
0100
0000
0010
0000
,  // measure 56
1000
0000
0100
0000
1000
0000
0001
0000
0010
0001
0010
0001
0010
0001
0010
0001
,  // measure 57
0100
0010
0000
0010
1000
0000
1000
0001
0000
0001
0100
0000
0010
0000
1000
0000
,  // measure 58
1001
0000
0001
0100
0001
0100
0010
1000
0010
1000
0100
1000
0100
0010
0100
0010
,  // measure 59
0002
0000
0000
0000
,  // measure 60
0003
0000
0000
0000
;
