#TITLE:KHAMEN BREAK;
#SUBTITLE:;
#ARTIST:くふおー;
#TITLETRANSLIT:;
#SUBTITLETRANSLIT:;
#ARTISTTRANSLIT:Kufuo;
#GENRE:;
#CREDIT:;
#BANNER:KHAMEN BREAK.png;
#BACKGROUND:KHAMEN BREAK-bg.png;
#LYRICSPATH:;
#CDTITLE:;
#MUSIC:KHAMEN BREAK.ogg;
#OFFSET:0.000000;
#SAMPLESTART:102.894035;
#SAMPLELENGTH:15.000000;
#SELECTABLE:YES;
#BPMS:0.000000=180.000000
,176.000000=90.000000
,192.000000=180.000000
;
#STOPS:
;
#BGCHANGES:;
#KEYSOUNDS:;
#ATTACKS:;

//---------------dance-single - ----------------
#NOTES:
     dance-single:
     :
     Beginner:
     3:
     0.167133,0.281984,0.052497,0.074996,0.000000,156.000000,149.000000,7.000000,10.000000,0.000000,0.000000,0.167133,0.281984,0.052497,0.074996,0.000000,156.000000,149.000000,7.000000,10.000000,0.000000,0.000000:
0000
0000
0000
0000
,
0000
0000
0000
0000
,
0000
0000
0000
0000
,
0000
0000
0000
0000
,
0000
0000
0000
0000
,
0000
0000
0000
0000
,
1000
0000
0000
0000
,
1000
0000
0000
0000
,
0001
0000
0000
0000
,
0001
0000
0000
0000
,
0010
0010
0010
0000
,
1000
1000
1000
0000
,
0001
0001
0001
0000
,
0100
0100
0100
0000
,
0010
0010
0010
0000
,
1000
1000
1000
0000
,
0001
0001
0001
0000
,
0100
0100
0100
0000
,
1001
0000
0000
0000
,
0000
0000
0000
0000
,
0001
0000
0001
0000
,
1000
0000
1000
0000
,
0001
0000
0010
0000
,
1000
0000
0010
0000
,
1000
0000
1000
0000
,
0001
0000
0001
0000
,
1000
0000
0010
0000
,
0001
0000
0010
0000
,
1000
0000
0000
0000
,
0001
0001
0001
0000
,
0001
0000
0000
0000
,
1000
1000
1000
0000
,
0010
0000
0000
0000
,
0100
0100
0100
0000
,
0100
0000
0000
0000
,
0010
0010
0010
0000
,
0002
0000
0003
0000
,
0020
0000
0030
0000
,
2000
0000
3000
0000
,
0200
0000
0300
0000
,
0002
0000
0003
0000
,
0020
0000
0030
0000
,
2000
0000
3000
0000
,
0200
0000
0300
0000
,
0001
0000
0000
0000
,
1000
0000
0000
0000
,
0001
0000
0000
0000
,
1000
1000
1000
0000
,
0001
0000
0000
0000
,
0010
0010
0010
0000
,
1000
0000
0000
0000
,
0010
0010
0010
0000
,
0001
0000
0100
0000
,
1000
0000
0100
0000
,
0001
0000
1000
0000
,
0001
0000
1000
0000
,
1001
0000
0000
0000
,
0000
0000
0000
0000
,
1001
0000
0000
0000
,
0000
0000
0000
0000
,
1001
0000
0000
0000
,
0000
0000
0000
0000
,
1001
0000
0000
0000
,
0000
0000
0000
0000
,
0001
0000
0010
0000
,
0100
0000
1000
0000
,
1000
0000
0100
0000
,
0010
0000
0001
0000
,
1000
0000
0010
0000
,
0100
0000
0001
0000
,
0001
0000
0100
0000
,
0010
0000
0000
0000
,
1001
0000
0000
0000
,
0000
0000
0000
0000
,
0001
0001
0001
0000
,
0010
0000
0100
0000
,
0001
0000
1000
0000
,
0001
0001
0001
0000
,
1000
1000
1000
0000
,
0010
0000
0100
0000
,
0001
0000
1000
0000
,
0001
0000
1000
0000
,
0010
0010
0010
0000
,
0100
0000
0001
0000
,
1000
0000
0100
0000
,
0010
0000
0001
0000
,
1000
1000
1000
0000
,
0001
0000
0100
0000
,
1000
0000
1000
0000
,
0001
0000
0001
0000
,
0000
0000
0000
0000
,
2002
0000
0000
0000
,
0000
0000
0000
0000
,
0000
0000
0000
0000
,
3003
0000
0000
0000
,
0000
0000
0000
0000
;

//---------------dance-single - ----------------
#NOTES:
     dance-single:
     :
     Easy:
     7:
     0.286055,0.422976,0.127493,0.172490,0.000000,267.000000,250.000000,17.000000,23.000000,0.000000,0.000000,0.286055,0.422976,0.127493,0.172490,0.000000,267.000000,250.000000,17.000000,23.000000,0.000000,0.000000:
0000
0000
0000
0000
,
0000
0000
0000
0000
,
0000
0000
0000
0000
,
0000
0000
0000
0000
,
0000
0000
0000
0000
,
0000
0000
0000
0000
,
0001
0000
0001
0000
,
0001
1000
0100
0010
,
0001
0100
0010
1000
,
1001
0000
0000
0000
,
1000
0100
0010
0001
,
1000
1000
1000
0000
,
0100
0001
0010
1000
,
0100
1000
0001
0000
,
0001
0100
0010
1000
,
0100
0100
0100
0000
,
0100
1000
0010
0001
,
0100
0001
0010
0000
,
2002
0000
0000
0000
,
0000
0000
0000
3003
,
0001
0010
1000
0000
,
0001
0100
1000
0000
,
0001
0100
1000
0100
,
0001
0100
1000
0100
,
0001
1000
0001
0001
,
1000
0001
1000
1000
,
1001
0000
0110
0000
,
1001
0110
1001
0000
,
0100
0010
0100
1000
,
0001
1000
0100
0000
,
1000
0010
0100
0001
,
0100
0010
0100
0000
,
0001
0010
1000
0100
,
1000
0100
0001
0000
,
1000
1000
0100
0010
,
0001
1000
0001
0000
,
0022
0000
0000
0033
,
2020
0000
0000
3030
,
0202
0000
0000
0303
,
2200
0000
0000
3300
,
0002
0000
0010
0013
,
2000
0000
0010
3010
,
0002
0000
0100
0103
,
2000
0000
0000
3000
,
0001
0000
1000
0000
,
0100
0000
0010
0000
,
0001
0100
1000
0100
,
0001
0000
1000
0000
0001
0001
0001
0000
,
0010
0100
0010
0010
,
1000
0001
1000
1001
,
0010
0100
0010
0010
,
0001
1000
0001
1001
,
1000
1000
0001
0001
,
0010
0010
1000
1000
,
0001
0000
0100
0000
,
0001
1000
0001
1000
,
0001
0000
0000
0001
,
0100
0000
0000
0100
,
0010
0000
0000
0010
,
1000
0000
0000
1000
,
0001
0000
0000
0001
,
0100
0000
0000
0001
,
1000
0000
0000
1000
,
0002
0000
0000
0003
,
1000
0100
0100
0100
,
0010
0001
0010
0000
,
0001
1000
1000
1000
,
0100
0001
0100
0000
,
0010
1000
1000
1000
,
0010
0100
0010
0000
,
0010
0001
0001
0001
,
2000
0000
0002
3003
,
0220
0000
0000
0000
,
0330
0000
0000
0000
,
1000
0001
0010
1000
,
0010
0001
0100
0000
,
0001
1000
0001
1000
,
0100
0010
0001
1000
,
0100
0010
1000
0001
,
0100
1000
0010
0000
,
1000
0000
0001
0000
,
0100
0000
0110
0110
,
0001
1000
0100
0001
,
1000
0100
2000
3000
,
1000
1000
0010
0010
,
0100
0100
0001
0010
,
0001
1000
0010
0100
,
0010
1000
0002
0003
,
1000
0000
0100
0000
,
0001
0000
0100
0100
,
0000
0000
0000
0000
,
2002
0000
0000
0000
,
0000
0000
0000
0000
,
0000
0000
0000
0000
,
3003
0000
0000
0000
,
0000
0000
0000
0000
;

//---------------dance-single - ----------------
#NOTES:
     dance-single:
     :
     Medium:
     11:
     0.475687,0.634463,0.157491,0.149991,0.026248,444.000000,423.000000,21.000000,20.000000,0.000000,0.000000,0.475687,0.634463,0.157491,0.149991,0.026248,444.000000,423.000000,21.000000,20.000000,0.000000,0.000000:
0000
0000
0000
0000
,
0000
0000
0000
0000
,
0000
0000
0000
0000
,
0000
0000
0000
0000
,
0000
0000
0000
0000
,
0000
0000
0000
0000
,
1000
0000
0000
0001
1000
0000
0000
0001
,
1000
0000
0000
0010
0000
0100
0001
0010
,
0100
1000
0010
0001
,
1001
0000
0000
0100
,
0001
0010
0100
0010
0000
0001
0010
0000
,
0100
1000
0010
0000
0100
0001
0010
0000
,
0100
1000
0010
0001
,
0101
0000
1001
0000
0010
0100
0010
0000
,
1000
0010
0100
0010
0000
1000
0010
0000
,
0100
0001
0010
0000
0100
1000
0010
0000
,
0100
0001
0010
1000
,
1100
0000
1001
0000
0010
0100
0010
0000
,
2002
0000
0000
0000
,
0000
0000
0000
3003
,
0100
0000
0001
0000
1000
0010
0100
0000
,
0001
0000
1000
0000
0100
0010
0001
0000
,
1000
0001
0100
0000
0001
0010
0100
0000
,
1000
0001
1000
0100
0010
0000
0100
0000
,
1000
0000
0001
0000
1000
0100
0001
0000
,
1000
0000
0001
0000
1000
0100
0001
0000
,
0100
0000
0000
0010
0100
0000
0000
0010
,
0001
0001
1000
1000
0000
0000
1001
0000
,
0100
0001
0010
0000
0100
1000
0001
1000
,
0100
0010
0001
0010
0000
0010
0001
0000
,
0001
1000
0010
0000
0100
0001
1000
0010
,
0100
0001
0010
0001
0000
0001
1000
0000
,
1000
0001
0010
0000
0001
0010
0100
0010
,
0001
1000
0100
0010
0000
0010
0001
0000
,
0001
1000
0001
0000
0100
0001
0010
0100
,
1000
0000
0000
0001
0000
0000
0000
0000
,
2010
0000
0000
3100
0000
0000
0110
0000
,
0012
0000
0000
0103
0000
0000
0110
0000
,
2010
0000
0000
3100
0000
0000
0110
0000
,
0012
0000
0000
0103
0000
0000
0110
0000
,
0020
1000
0000
1000
0000
1000
0000
1030
,
0002
0010
0000
0010
0000
0010
0000
0013
,
0200
0010
0000
0010
0000
0010
0000
0310
,
0001
1000
0001
0010
0100
0000
0010
0000
,
1000
0000
0000
1000
0000
0000
1000
0000
0001
0000
0000
0001
0000
0000
0001
0000
,
0100
0000
0000
0100
0000
0000
0100
0000
0010
0000
0000
0010
0000
0000
0010
0000
,
1000
0000
1000
0010
0100
0000
0100
0000
0001
0000
0010
0000
0100
0000
0010
0000
,
2000
3010
0002
0013
1000
0010
0100
0100
,
0010
0100
0100
0001
0010
0000
0010
0100
,
0001
0100
1000
0100
0001
0000
1001
0000
,
0010
0100
0100
1000
0010
0000
0010
0100
,
1000
0100
0001
0100
1000
0000
1001
0000
,
0001
0100
0001
0000
1000
0100
1000
0000
,
0010
0100
0010
0000
0001
1000
0001
0000
,
1000
0010
0000
0010
0100
0010
0000
0010
,
1000
0010
0001
0010
1000
0000
0001
0000
,
1000
0000
0000
0001
0000
0001
1000
0000
,
0100
0000
0000
0001
0000
0001
0010
0000
,
1000
0000
0000
0100
0000
0100
0010
0000
,
1000
0000
0000
0010
0000
0010
0100
0000
,
0001
0000
0000
1000
0000
1000
0001
0000
,
0100
0000
0000
0010
0000
0010
1000
0000
,
0001
0000
0000
0010
0000
0010
0100
0000
,
2000
0000
0000
3000
,
0001
0000
0100
0001
0000
0100
0001
0100
,
0010
0000
1000
0010
0000
1000
0010
1000
,
0001
0000
0010
0001
0000
0010
0001
0010
,
0100
0000
1000
0100
0000
1000
0100
1000
,
0001
0000
1000
0001
0000
1000
0001
1000
,
0010
0000
0100
0010
0000
0100
0010
0100
,
0010
0000
1000
0100
0000
0010
0001
0100
,
0002
0000
2000
3003
,
0220
0000
0000
0000
,
0330
0000
0000
0000
,
0001
0000
1000
0100
0010
0000
0001
0000
,
0010
0001
1000
0001
0100
0000
0001
0000
,
1000
0010
0001
0000
1000
0010
0001
0000
,
0100
0001
0010
0100
1000
0000
0001
0000
,
0100
0000
0010
1000
0001
0000
1000
0000
,
0100
0010
0001
0100
0020
0000
0030
0000
,
0001
0001
0000
1000
1000
0000
0010
0010
,
0000
0100
0100
0000
0110
0000
0110
0000
,
1000
0000
0001
0010
0100
0000
1000
0000
,
0001
1000
0100
1000
0001
0000
1000
0000
,
0001
0001
0001
0000
0010
0010
0010
0000
,
0100
1000
0100
0010
0001
0100
0010
0000
,
1000
0000
0001
0100
0010
0000
0100
0000
,
0010
1000
0001
1000
0200
0000
0300
0000
,
0001
0000
0010
0000
0100
0000
0000
0010
0000
0000
0100
0000
1000
0000
0000
0000
,
1000
0000
0010
0000
0100
0000
0000
0010
0000
0000
0100
0000
0001
0000
0000
0000
,
0000
0000
0000
0000
,
2002
0000
0000
0000
,
0000
0000
0000
0000
,
0000
0000
0000
0000
,
3003
0000
0000
0000
;

//---------------dance-single - ----------------
#NOTES:
     dance-single:
     :
     Hard:
     16:
     0.722101,0.916447,0.269984,0.134992,0.656212,674.000000,638.000000,36.000000,18.000000,0.000000,0.000000,0.722101,0.916447,0.269984,0.134992,0.656212,674.000000,638.000000,36.000000,18.000000,0.000000,0.000000:
0000
0000
0000
0000
,
0000
0000
0000
0000
,
0000
0000
0000
0000
,
0000
0000
0000
0000
,
0000
0000
0000
0000
,
0000
0000
0000
0000
,
0001
0000
0000
1000
0001
0000
0000
1000
,
0001
0000
0000
0010
0000
0000
0100
0000
0000
0000
0010
0000
0001
0000
0100
0000
,
0010
0000
1000
0100
0010
0000
0001
0100
,
0010
1000
0010
1000
0001
1000
0001
1000
0001
0100
0001
0100
0010
0000
0000
0000
,
1000
0100
0010
0100
0000
1000
0100
0000
,
0010
0001
0100
0000
0010
1000
0100
0000
,
0010
0001
0100
1000
,
1010
0000
0000
0000
1001
0000
0000
0000
0010
0100
0010
0100
0010
0000
0000
0000
,
0001
0100
0010
0100
0000
0001
0100
0000
,
0010
1000
0100
0000
0010
0001
0100
0000
,
0010
1000
0100
0001
,
0011
0000
0000
0000
1001
0000
0000
0000
0010
0100
0010
0100
0010
0000
0000
0000
,
2002
0000
0000
0000
,
0000
0000
0000
3003
,
0010
0000
1000
0001
0000
0100
0001
0000
1000
0001
0000
0010
0001
1000
0001
1000
,
0001
0000
1000
0010
0000
1000
0001
0000
1000
0100
0000
1000
0001
0100
0001
0100
,
0001
0000
0100
0001
0000
0100
0001
0000
1000
0000
0100
1000
0000
0100
1000
0000
,
0001
0000
1000
0001
0000
1000
0001
0000
0010
0000
0100
0010
0000
0100
0010
0000
,
0001
0000
1000
0010
0000
1000
0001
0000
1000
0100
0000
1000
0001
0010
0100
1000
,
0001
0000
0100
0010
0000
0100
0001
0000
0100
0010
0000
0100
0001
1000
0010
0100
,
0010
0100
0000
0010
0100
0000
0010
0000
1000
0010
0000
1000
0010
0000
1000
0000
,
0001
0010
0001
0010
0100
1000
0100
1000
0000
0000
0000
0000
0101
0000
0000
0000
,
0010
1000
0100
0000
0010
0001
1000
0001
,
0010
0000
0100
0000
1000
0000
0100
0000
0000
0000
0100
0000
1000
0010
0100
0001
,
1000
0001
0100
0000
0010
1000
0001
0100
,
0010
0000
1000
0000
0100
0000
1000
0000
0000
0000
1000
0000
0001
0010
0100
1000
,
0001
1000
0100
0000
1000
0100
0001
0100
,
1000
0000
0001
0000
0010
0000
0100
0000
0000
0000
0100
0000
1000
0010
0100
0001
,
1000
0001
1000
0000
0010
1000
0100
0010
,
0011
0000
0000
1100
0000
0000
0000
0000
,
0102
0000
0000
0010
0000
1003
1100
0000
,
2100
0000
0000
0010
0000
3001
0101
0000
,
0012
0000
0000
0100
0000
1003
1010
0000
,
2010
0000
0000
0100
0000
3001
0011
0000
,
0200
0001
0000
0001
0000
0001
0000
0301
,
0020
0001
0000
0001
0000
0001
0000
0031
,
2000
0010
0000
0010
0000
0010
0000
3010
,
0100
0001
1000
0100
0010
0000
0100
0000
,
0001
0000
0000
0001
0000
0000
0001
0000
1000
0000
0000
1000
0000
0000
1000
0000
,
0010
0000
0000
0010
0000
0000
0010
0000
0100
0000
0000
0100
0000
0000
0100
0000
,
0001
0010
0001
1000
0100
0000
0010
0100
1000
0010
0100
0001
0010
0000
0100
0000
,
0021
0000
0130
0000
1020
0000
0130
0000
0001
0010
0100
1000
0010
0000
0010
0000
,
0100
0000
0010
1000
0010
0000
1000
0010
0100
0010
1000
0010
0100
0000
0010
0000
,
1000
0010
0001
0010
1000
0000
1001
0000
,
0100
0000
0010
0001
0010
0000
0001
0010
0100
0010
0001
0010
0100
0000
0010
0000
,
0001
0010
1000
0010
0001
0000
1001
0000
,
1000
1000
1010
0000
0001
0001
0011
0000
,
0100
0100
0110
0000
1000
1000
1001
0000
,
0001
0100
0010
0100
1000
0100
0010
0100
,
0001
0000
0100
0000
1000
0000
0100
0000
0001
0010
0001
0010
0100
1000
0100
1000
,
0001
0000
1000
0001
0000
0001
1000
0000
,
0010
0000
1000
0010
0000
0010
1000
0000
,
0001
0000
0010
0100
0000
0100
0010
0000
,
0001
0000
0100
0010
0000
0010
0100
0000
,
0010
0000
1000
0001
0100
0000
0010
0000
0100
0001
1000
0000
0001
0000
0000
0000
,
0010
0000
0001
1000
0100
0000
0010
0000
0100
1000
0001
0000
1000
0000
0000
0000
,
0001
0000
0010
0000
1000
0000
0001
0000
0100
0000
1000
0000
,
0002
0000
0000
0003
,
1000
0010
0000
0100
0010
0000
1000
0010
0000
0100
0010
0000
1000
0000
1000
0000
,
0001
0010
0000
0100
0010
0000
0001
0010
0000
0100
0010
0000
0001
0000
0001
0000
,
1000
0100
0000
0010
0100
0000
1000
0100
0000
0010
0100
0000
1000
0000
1000
0000
,
0001
0100
0000
0010
0100
0000
0001
0100
0000
0010
0100
0000
0001
0000
0001
0000
,
1000
0001
0000
0001
0010
0000
0010
0100
0000
0100
1000
0000
0010
0100
0010
0000
,
0001
1000
0000
1000
0010
0000
0010
0100
0000
0100
0001
0000
0010
0100
0010
0000
,
0100
1000
0000
1000
0001
0000
0001
0100
0000
0100
0010
0000
1000
0010
1000
0000
,
0002
0000
2000
3003
,
0220
0000
0000
0000
,
0330
0000
0000
0000
,
1000
0000
0001
0010
0001
0000
1000
0000
0000
0000
0001
0000
0100
0010
0100
0010
,
1000
0000
0100
0010
0000
0010
0001
0000
1000
0000
0000
0000
1000
0000
0001
1000
,
0001
0100
0001
0100
0000
0010
0100
0000
0010
1000
0010
1000
0000
0001
1000
0000
,
0010
0000
1000
0100
0010
0001
0100
0010
1000
0000
0001
0000
1000
0001
1000
0001
,
0010
0000
0100
0010
0100
0000
1000
0000
0000
0000
1000
0000
0100
0010
0001
0100
,
0010
0000
0100
0010
0000
0010
1000
0000
0001
0000
0000
0000
0010
0000
0000
0000
,
1100
1100
0000
0101
0101
0000
0011
0011
,
0000
1010
1010
0000
0110
0000
0110
0000
,
0001
0000
1000
0010
1000
0000
0001
0000
0000
0000
1000
0000
0100
0010
0100
0010
,
0001
0000
0100
0010
0000
0010
1000
0000
0001
0000
0000
0000
0001
0000
1000
0001
,
1000
0100
1000
0100
0000
0010
0100
0000
0010
0001
0010
0001
0000
1000
0001
0000
,
0010
0000
0001
0100
0010
1000
0100
0010
0001
0000
1000
0000
0001
1000
0001
1000
,
0010
0000
0100
0010
0100
0000
0001
0000
0000
0000
0001
0000
0100
0010
1000
0100
,
0010
0000
0100
0010
0000
0010
0001
0000
1000
0000
0000
0000
0010
0000
0000
0000
,
1000
0010
0100
0001
0010
0000
0000
0100
0000
0000
0010
0000
0001
0100
0010
1000
,
0001
1000
0100
1000
0001
0000
0000
0010
0000
0100
1000
0010
0100
0001
0010
0100
,
0000
0000
0000
0000
,
2002
0000
0000
0000
,
0000
0000
0000
0000
,
0000
0000
0000
0000
,
3003
0000
0000
0000
;

//---------------dance-double - ----------------
#NOTES:
     dance-double:
     :
     Easy:
     7:
     0.273199,0.387728,0.104994,0.172490,0.000000,255.000000,241.000000,14.000000,23.000000,0.000000,0.000000,0.273199,0.387728,0.104994,0.172490,0.000000,255.000000,241.000000,14.000000,23.000000,0.000000,0.000000:
00000000
00000000
00000000
00000000
,
00000000
00000000
00000000
00000000
,
00000000
00000000
00000000
00000000
,
00000000
00000000
00000000
00000000
,
00000000
00000000
00000000
00000000
,
00000000
00000000
00000000
00000000
,
00000001
00000000
00000001
00000000
,
00000001
00001000
00000100
00000000
,
00000001
00000100
00001000
00010000
,
00011000
00000000
00000000
00000000
,
00100000
10000000
00010000
00000000
,
00100000
00010000
10000000
00000000
,
00100000
10000000
01000000
00010000
,
00001000
00001000
00001000
00000000
,
00000010
00000001
00001000
00000000
,
00000010
00001000
00000001
00000000
,
00000010
00000001
00000100
00001000
,
00010000
00010000
00010000
00000000
,
00022000
00000000
00000000
00000000
,
00000000
00000000
00000000
00033000
,
00100000
00001000
00010000
00000000
,
00000010
00010000
00001000
00000000
,
00100000
00010000
00001000
00010000
,
00100000
00010000
00001000
00010000
,
00000010
00010000
00001000
00000000
,
00100000
00001000
00010000
00000000
,
00011000
00000000
00011000
00000000
,
00100000
00010000
10000000
00000000
,
01000000
00100000
01000000
10000000
,
01000000
00010000
00001000
00000000
,
00000100
00000010
00000100
00000001
,
00000100
00001000
00010000
00000000
,
00100000
01000000
00100000
10000000
,
00100000
00010000
00001000
00000000
,
00000010
00000100
00000010
00000001
,
00000010
00001000
00010000
00000000
,
00022000
00000000
00000000
00033000
,
00202000
00000000
00000000
00303000
,
00220000
00000000
00000000
00330000
,
20020000
00000000
00000000
30030000
,
00200000
00000000
10000000
10300000
,
20000000
00000000
01000000
31000000
,
02000000
00000000
00010000
03010000
,
00020000
00000000
00000000
00030000
,
00001000
00000000
00001000
00000000
,
00000100
00000000
00000010
00000000
,
00000001
00000100
00001000
00010000
,
00001000
00000000
00010000
00000000
00001000
00001000
00001000
00000000
,
00010000
00100000
01000000
00100000
,
10000000
00010000
10000000
10000000
,
01000000
00100000
00010000
00100000
,
00010000
00001000
00010000
00010000
,
00001000
00000000
00000010
00000000
,
00000001
00000000
00001000
00000000
,
00000101
00000000
00001100
00000000
,
00000001
00000100
00001000
00000100
,
00000001
00000000
00000000
00000001
,
00000100
00000000
00000000
00000100
,
00001000
00000000
00000000
00001000
,
00010000
00000000
00000000
00010000
,
00100000
00000000
00000000
00100000
,
10000000
00000000
00000000
10000000
,
00010000
00000000
00000000
00010000
,
00200000
00000000
00000000
00300000
,
01000000
01000000
10000000
10000000
,
00100000
10000000
01000000
00000000
,
00010000
00010000
00001000
00001000
,
00000010
00000001
00000100
00000000
,
00000010
00000010
00001000
00001000
,
00000100
00000010
00000001
00000000
,
00000100
00000100
00001000
00001000
,
00020000
00000000
00002000
00033000
,
00022000
00000000
00000000
00000000
,
00033000
00000000
00000000
00000000
,
01000000
00010000
00100000
01000000
,
10000000
00010000
01000000
00000000
,
00100000
10000000
01000000
10000000
,
00100000
00010000
00001000
00010000
,
00000100
00001000
00000010
00000001
,
00000100
00001000
00000001
00000000
,
00001000
00000000
00000001
00000000
,
00000100
00000000
00000110
00000110
,
00000001
00000100
00001000
00010000
,
00001000
00001000
00002000
00003000
,
00010000
00100000
01000000
00100000
,
10000000
00100000
01000000
00010000
,
10000000
01000000
00010000
00001000
,
00010000
00010000
00020000
00030000
,
00001000
00000000
00000010
00000000
,
00000001
00000000
00000100
00000100
,
00000000
00000000
00000000
00000000
,
00002002
00000000
00000000
00000000
,
00000000
00000000
00000000
00000000
,
00000000
00000000
00000000
00000000
,
00003003
00000000
00000000
00000000
,
00000000
00000000
00000000
00000000
;

//---------------dance-double - ----------------
#NOTES:
     dance-double:
     :
     Medium:
     11:
     0.458545,0.634463,0.089995,0.104994,0.026248,428.000000,416.000000,12.000000,14.000000,0.000000,0.000000,0.458545,0.634463,0.089995,0.104994,0.026248,428.000000,416.000000,12.000000,14.000000,0.000000,0.000000:
00000000
00000000
00000000
00000000
,
00000000
00000000
00000000
00000000
,
00000000
00000000
00000000
00000000
,
00000000
00000000
00000000
00000000
,
00000000
00000000
00000000
00000000
,
00000000
00000000
00000000
00000000
,
00010000
00000000
00000000
10000000
00010000
00000000
00000000
10000000
,
00010000
00000000
00000000
00100000
00000000
01000000
10000000
00100000
,
01000000
00100000
00010000
00001000
,
00011000
00000000
00000000
00010000
,
00001000
00000100
00000010
00000100
00000000
00000010
00001000
00000000
,
00000100
00000010
00000001
00000000
00000100
00000010
00001000
00000000
,
00000001
00000100
00001000
00010000
,
00100000
00000000
10000000
00000000
00010000
10000000
00010000
00000000
,
00100000
00010000
10000000
00010000
00000000
01000000
00100000
00000000
,
10000000
01000000
00100000
00000000
00010000
01000000
00100000
00000000
,
10000000
01000000
00010000
00001000
,
00000010
00000000
00000001
00000000
00001000
00000001
00001000
00000000
,
00000220
00000000
00000000
00000000
,
00000000
00000000
00000000
00000330
,
00000001
00000000
00000001
00000000
00000010
00000100
00001000
00000000
,
00000001
00000000
00000001
00000000
00000100
00001000
00010000
00000000
,
00100000
10000000
01000000
00000000
00100000
00010000
01000000
00000000
,
00100000
10000000
00100000
01000000
00010000
00000000
01000000
00000000
,
00010000
00000000
00010000
00000000
10000000
01000000
00010000
00000000
,
10000000
00000000
10000000
00000000
00010000
01000000
10000000
00000000
,
01000000
00000000
00000000
00010000
00100000
00000000
00000000
01000000
,
00010000
00001000
00010000
00001000
00000000
00000000
00011000
00000000
,
00001000
00000010
00000100
00000000
00000010
00000001
00000010
00000100
,
00001000
00000010
00000000
00000010
00000000
00000100
00000010
00000000
,
00001000
00000001
00001000
00000000
00000100
00010000
00001000
00010000
,
00001000
00000000
00000000
00010000
00000000
00000000
00011000
00000000
,
00100000
00010000
01000000
00000000
00100000
10000000
00100000
01000000
,
00010000
01000000
00000000
01000000
00000000
01000000
00100000
00000000
,
10000000
01000000
00100000
00000000
01000000
10000000
00100000
01000000
,
00001000
00000000
00000000
00010000
00000000
00000000
00000000
00000000
,
00001000
00000000
00000000
00000010
00000000
00000000
00000110
00000000
,
00000001
00000000
00000000
00000100
00000000
00000000
00000110
00000000
,
00001000
00000000
00000000
00010000
00000000
00000000
00011000
00000000
,
00100000
00000000
00000000
10000000
00000000
00000000
10010000
00000000
,
00200000
00010000
00000000
00010000
00000000
00010000
00000000
00310000
,
20000000
00100000
00000000
00100000
00000000
00100000
00000000
30100000
,
02000000
00010000
00000000
00010000
00000000
00010000
00000000
03010000
,
01000000
00001000
00010000
00000100
00001000
00000000
00000001
00000000
,
00000010
00000000
00000000
00000010
00000000
00000000
00000010
00000000
00000001
00000000
00000000
00000001
00000000
00000000
00000001
00000000
,
00000100
00000000
00000000
00000100
00000000
00000000
00000100
00000000
00001000
00000000
00000000
00001000
00000000
00000000
00001000
00000000
,
00010000
00000000
00010000
00100000
01000000
00000000
01000000
00000000
00100000
00000000
10000000
00000000
01000000
00000000
00010000
00000000
,
00100000
00010000
00100000
10000000
00010000
00100000
01000000
01000000
,
10000000
01000000
10000000
01000000
00100000
00000000
00100000
00000000
,
00010000
10000000
01000000
00010000
00001000
00000000
00011000
00000000
,
00010000
00001000
00010000
00001000
00010000
00000000
00010000
00000000
,
00001000
00000100
00000001
00000100
00000010
00000000
00000100
00000000
,
00000010
00001000
00000100
00000000
00000010
00000001
00000100
00000000
,
00000010
00010000
00001000
00000000
00100000
00010000
10000000
00000000
,
00100000
01000000
00000000
01000000
00010000
01000000
00000000
01000000
,
00010000
00100000
01000000
10000000
00010000
00000000
10000000
00000000
,
00010000
00000000
00000000
10000000
00000000
10000000
01000000
00000000
,
00100000
00000000
00000000
00010000
00000000
00010000
00100000
00000000
,
00001000
00000000
00000000
00010000
00000000
00010000
00001000
00000000
,
00000010
00000000
00000000
00000001
00000000
00000001
00001000
00000000
,
00000010
00000000
00000000
00000100
00000000
00000100
00000001
00000000
,
00000010
00000000
00000000
00000001
00000000
00000001
00001000
00000000
,
00000010
00000000
00000000
00010000
00000000
00010000
00001000
00000000
,
00020000
00000000
00000000
00030000
,
00100000
00000000
10000000
00100000
00000000
10000000
00100000
10000000
,
00010000
00000000
00100000
00010000
00000000
00100000
00010000
00100000
,
01000000
00000000
10000000
01000000
00000000
10000000
01000000
10000000
,
00010000
00000000
01000000
00010000
00000000
01000000
00001000
00010000
,
00001000
00000000
00010000
00000010
00000000
00001000
00000010
00001000
,
00000001
00000000
00000010
00000001
00000000
00000010
00000001
00000010
,
00000100
00000000
00001000
00000100
00000000
00001000
00000100
00001000
,
00000002
00000000
00002000
00003003
,
00000220
00000000
00000000
00000000
,
00000330
00000000
00000000
00000000
,
00000010
00000000
00010000
00001000
00010000
00000000
00001000
00000000
,
00100000
00010000
01000000
00100000
10000000
00000000
10000000
00000000
,
00010000
00100000
01000000
00000000
00010000
00100000
01000000
00000000
,
10000000
00100000
00010000
00001000
00010000
00000000
00010000
00000000
,
00001000
00000000
00000100
00000010
00001000
00000000
00000001
00000000
,
00000010
00000001
00000100
00000010
00002000
00000000
00003000
00000000
,
00000001
00000001
00000000
00000100
00000100
00000000
00001000
00001000
,
00000000
00010000
00010000
00000000
00001000
00000000
00011000
00000000
,
00100000
00000000
00001000
00010000
00001000
00000000
00010000
00000000
,
00000010
00001000
00000100
00000010
00000001
00000000
00000001
00000000
,
00001000
00000010
00000100
00000000
00001000
00000010
00000100
00000000
,
00000001
00000010
00001000
00010000
00001000
00000000
00001000
00000000
,
00010000
00000000
01000000
00100000
00010000
00000000
10000000
00000000
,
00100000
10000000
01000000
00100000
00020000
00000000
00030000
00000000
,
10000000
00000000
00100000
00000000
01000000
00000000
00000000
00100000
00000000
00000000
01000000
00000000
00010000
00000000
00000000
00000000
,
00100000
00000000
00001000
00000000
00010000
00000000
00000000
00001000
00000000
00000000
00010000
00000000
00000010
00000000
00001000
00000000
,
00000000
00000000
00000000
00000000
,
00000220
00000000
00000000
00000000
,
00000000
00000000
00000000
00000000
,
00000000
00000000
00000000
00000000
,
00000330
00000000
00000000
00000000
,
00000000
00000000
00000000
00000000
;

//---------------dance-double - ----------------
#NOTES:
     dance-double:
     :
     Hard:
     15:
     0.656748,0.916447,0.149991,0.149991,0.562468,613.000000,593.000000,20.000000,20.000000,0.000000,0.000000,0.656748,0.916447,0.149991,0.149991,0.562468,613.000000,593.000000,20.000000,20.000000,0.000000,0.000000:
00000000
00000000
00000000
00000000
,
00000000
00000000
00000000
00000000
,
00000000
00000000
00000000
00000000
,
00000000
00000000
00000000
00000000
,
00000000
00000000
00000000
00000000
,
00000000
00000000
00000000
00000000
,
00001000
00000000
00000000
00000100
00000010
00000000
00000000
00000001
,
00000100
00000000
00000000
00000010
00000000
00000000
00001000
00000000
00000000
00000000
00000100
00000000
00000010
00000000
00001000
00000000
,
00010000
00000000
01000000
10000000
00010000
00000000
01000000
00100000
,
10000000
00010000
10000000
00010000
10000000
00010000
10000000
00010000
10000000
00010000
10000000
00010000
10000000
00000000
00000000
00000000
,
00100000
10000000
01000000
00100000
00000000
01000000
00010000
00000000
,
00001000
00010000
00000100
00000000
00000010
00000001
00000100
00000000
,
00000001
00000010
00001000
00010000
,
00011000
00000000
00000000
00000000
00110000
00000000
00000000
00000000
01000000
00100000
01000000
00100000
01000000
00000000
00000000
00000000
,
10000000
00010000
01000000
00100000
00000000
01000000
00010000
00000000
,
10000000
01000000
00010000
00000000
00001000
00000010
00000100
00000000
,
00000010
00000001
00000100
00000010
,
00001010
00000000
00000000
00000000
00011000
00000000
00000000
00000000
00100000
00010000
00100000
00010000
00100000
00000000
00000000
00000000
,
20020000
00000000
00000000
00000000
,
00000000
00000000
00000000
30030000
,
00100000
00000000
00000000
00100000
00000000
00000000
10000000
00000000
00000000
10000000
00000000
00000000
01000000
00100000
01000000
00100000
,
00010000
00000000
00000000
00010000
00000000
00000000
00001000
00000000
00000000
00001000
00000000
00000000
00000100
00000010
00000100
00000010
,
00000001
00000000
00001000
00000100
00000000
00001000
00000100
00000000
00001000
00000000
00000001
00000100
00000000
00000001
00000100
00000000
,
00000010
00000000
00010000
00001000
00000000
00010000
00001000
00000000
01000000
00000000
00010000
01000000
00000000
00010000
01000000
00000000
,
00100000
00000000
00000000
10000000
00000000
00000000
00100000
00000000
00000000
01000000
00000000
00000000
00010000
10000000
01000000
10000000
,
00010000
00000000
00000000
01000000
00000000
00000000
00100000
00000000
00000000
01000000
00000000
00000000
00001000
00010000
00001000
00010000
,
00001000
00010000
00000000
00001000
00010000
00000000
00000010
00000000
00001000
00000001
00000000
00001000
00000001
00000000
00000010
00000000
,
00000100
00001000
00000100
00001000
00000001
00000100
00000001
00000100
00000000
00000000
00000000
00000000
00000110
00000000
00000000
00000000
,
00000010
00001000
00000100
00000000
00001000
00000010
00010000
00001000
,
00100000
00000000
00010000
00000000
10000000
00000000
00100000
00000000
00000000
00000000
00100000
00000000
01000000
00010000
01000000
00010000
,
01000000
00010000
10000000
00000000
01000000
00010000
00001000
00000010
,
00000001
00000000
00000100
00000000
00000010
00000000
00001000
00000000
00000000
00000000
00001000
00000000
00000001
00001000
00000001
00001000
,
00000001
00000010
00000100
00000000
00001000
00000100
00000010
00000100
,
00010000
00000000
00001000
00000000
00100000
00000000
00010000
00000000
00000000
00000000
00010000
00000000
10000000
00010000
10000000
00010000
,
10000000
00100000
01000000
00000000
00010000
10000000
01000000
00100000
,
00110000
00000000
00000000
00011000
00000000
00000000
00000000
00000000
,
00002100
00000000
00000000
00000001
00000000
00000010
00003010
00000000
,
01020000
00000000
00000000
10000000
00000000
00100000
00130000
00000000
,
00002100
00000000
00000000
00000001
00000000
00000010
00003010
00000000
,
01020000
00000000
00000000
10000000
00000000
00100000
00130000
00000000
,
00002000
00000100
00000000
00000100
00000000
00000100
00000000
00003100
,
00000020
00000001
00000000
00000001
00000000
00000001
00000000
00000031
,
00000200
00000010
00000000
00000010
00000000
00000010
00000000
00000310
,
00000100
00001000
00010000
00001000
00010000
00000000
00100000
00000000
,
10000000
00000000
00000000
10000000
00000000
00000000
10000000
00000000
00010000
00000000
00000000
00010000
00000000
00000000
00010000
00000000
,
00100000
00000000
00000000
00100000
00000000
00000000
00100000
00000000
01000000
00000000
00000000
01000000
00000000
00000000
01000000
00000000
,
00010000
00001000
00010000
01000000
00010000
00000000
00001000
00000010
00000100
00000010
00000001
00000010
00000100
00000000
00001000
00000000
,
00001020
00000000
00000130
00000000
00000021
00000000
00000130
00000000
00001000
00000010
00000100
00001000
00010000
00000000
00001000
00000000
,
00010000
00000000
00100000
01000000
00100000
00000000
10000000
00000000
00010000
10000000
00010000
10000000
00010000
00000000
01000000
00000000
,
00100000
10000000
00100000
00010000
00001000
00000000
00011000
00000000
,
00001000
00000000
00000010
00000100
00000010
00000000
00000001
00000000
00001000
00000001
00001000
00000001
00001000
00000000
00000100
00000000
,
00000010
00000001
00000010
00001000
00010000
00000000
00011000
00000000
,
00100000
00010000
00001000
00000000
00000010
00001000
00010000
00000000
,
01000000
00010000
00001000
00000000
00000100
00001000
00010000
00000000
,
00001000
00000100
00000000
00000100
00000010
00000100
00000000
00000100
,
00001000
00000100
00000001
00000100
00001000
00010000
01000000
10000000
,
00010000
00000000
10000000
00010000
00000000
00010000
10000000
00000000
,
00100000
00000000
01000000
00100000
00000000
00100000
01000000
00000000
,
00100000
00000000
10000000
01000000
00000000
01000000
10000000
00000000
,
01000000
00000000
00010000
00001000
00000000
00001000
00010000
00000000
,
00001000
00000000
00100000
00010000
00100000
00000000
00001000
00000000
01000000
00010000
01000000
00000000
00001000
00000000
00000000
00000000
,
00010000
00000000
00000010
00001000
00000010
00000000
00010000
00000000
00000100
00001000
00000100
00000000
00010000
00000000
00000000
00000000
,
00001000
00000010
00000001
00001000
00000100
00000010
,
00000002
00000000
00000000
00000003
,
00001000
00000100
00000000
00000010
00000100
00000000
00001000
00000100
00000000
00000010
00000100
00000000
00001000
00000000
00000000
00000000
,
00000010
00001000
00000000
00000010
00000100
00000000
00000010
00001000
00000000
00000010
00000100
00000000
00001000
00000000
00000000
00000000
,
00010000
00001000
00000000
00100000
00001000
00000000
00010000
00001000
00000000
00100000
00001000
00000000
00010000
00000000
00000000
00000000
,
01000000
00100000
00000000
01000000
10000000
00000000
01000000
00100000
00000000
01000000
10000000
00000000
01000000
00000000
00000000
00000000
,
00100000
00010000
00000000
00010000
01000000
00000000
01000000
00100000
00000000
00100000
10000000
00000000
01000000
00000000
00100000
00000000
,
00010000
00001000
00000000
00001000
00000100
00000000
00000100
00000010
00000000
00000010
00000001
00000000
00000100
00000000
00000010
00000000
,
00001000
00000100
00000000
00000100
00000010
00000000
00000010
00000001
00000000
00000001
00000100
00000000
00000010
00000000
00001000
00000000
,
00020000
00000000
00002000
00033000
,
00022000
00000000
00000000
00000000
,
00033000
00000000
00000000
00000000
,
00100000
00000000
00010000
10000000
00010000
00000000
01000000
00000000
00000000
00000000
00100000
00000000
10000000
00100000
10000000
00100000
,
10000000
00000000
00010000
00100000
00000000
00100000
01000000
00000000
00100000
00000000
00000000
00000000
00100000
00000000
00000000
00000000
,
00001000
00010000
00001000
00010000
00000000
00000010
00001000
00000000
00000001
00000010
00000001
00000010
00000000
00000100
00000010
00000000
,
00000001
00000000
00000100
00000010
00000100
00000010
00000100
00000010
00000100
00000000
00000001
00000000
00001000
00000000
00000000
00000000
,
00000010
00000000
00010000
00001000
00010000
00000000
00001000
00000000
00000000
00000000
00001000
00000000
00100000
00010000
00100000
00010000
,
00100000
00000000
01000000
10000000
00000000
10000000
00100000
00000000
02000000
00000000
00000000
00000000
03000000
00000000
00000000
00000000
,
00010000
00010000
00000000
10000000
10000000
00000000
01000000
01000000
,
00000000
00010000
00010000
00000000
00011000
00000000
00011000
00000000
,
00000010
00000000
00001000
00000001
00001000
00000000
00000100
00000000
00000000
00000000
00000010
00000000
00000001
00000010
00000001
00000010
,
00000001
00000000
00001000
00000010
00000000
00000010
00000100
00000000
00000010
00000000
00000000
00000000
00000010
00000000
00000000
00000000
,
00010000
00001000
00010000
00001000
00000000
00100000
00010000
00000000
10000000
00100000
10000000
00100000
00000000
01000000
00100000
00000000
,
10000000
00000000
01000000
00100000
01000000
00100000
01000000
00100000
01000000
00000000
10000000
00000000
00010000
00000000
00000000
00000000
,
00100000
00000000
00001000
00010000
00001000
00000000
00010000
00000000
00000000
00000000
00010000
00000000
00000010
00001000
00000010
00001000
,
00000010
00000000
00000100
00000001
00000000
00000001
00000010
00000000
00000200
00000000
00000000
00000000
00000300
00000000
00000000
00000000
,
00001000
00000100
00000010
00000100
00001000
00000000
00000000
00000001
00000000
00000000
00000100
00000000
00000010
00000000
00001000
00000000
,
00010000
01000000
00100000
01000000
00010000
00000000
00000000
10000000
00000000
01000000
00100000
00010000
01000000
00100000
10000000
01000000
,
00000000
00000000
00000000
00000000
,
02200000
00000000
00000000
00000000
,
00000000
00000000
00000000
00000000
,
00000000
00000000
00000000
00000000
,
03300000
00000000
00000000
00000000
,
00000000
00000000
00000000
00000000
;

//---------------dance-single - ----------------
#NOTES:
     dance-single:
     :
     Challenge:
     18:
     0.980301,1.586159,0.502471,0.277484,1.076188,915.000000,848.000000,67.000000,37.000000,0.000000,0.000000,0.980301,1.586159,0.502471,0.277484,1.076188,915.000000,848.000000,67.000000,37.000000,0.000000,0.000000:
// measure 0
0000
0000
0000
0000
,  // measure 1
0000
0000
0000
0000
,  // measure 2
0000
0000
0000
0000
,  // measure 3
0000
0000
0000
0000
,  // measure 4
0000
0000
0000
0000
,  // measure 5
0000
0000
0000
0000
,  // measure 6
2002
0000
3003
0100
0020
0000
0030
0001
,  // measure 7
0100
0000
0000
0110
0000
0000
1010
0000
1000
0000
0100
0000
0010
0000
0001
0000
,  // measure 8
0100
0010
1000
0000
0010
0000
0100
0000
0001
0010
0100
0000
0010
0001
1000
0000
,  // measure 9
0010
0100
0001
0100
0010
1000
0100
1000
0001
0010
0001
0100
0010
0000
0110
0000
,  // measure 10
1001
1000
0100
0001
0200
1000
0301
0000
,  // measure 11
0010
0001
0100
1000
0100
0001
0020
0000
,  // measure 12
0130
1000
0010
1000
0200
0000
0310
0001
,  // measure 13
2000
0000
0000
0000
3001
0000
0000
0000
0100
0010
1000
0010
0100
0000
0000
0000
,  // measure 14
0101
0000
0001
0000
0010
0000
0100
0000
1000
0010
1000
0000
0001
0000
0000
0000
,  // measure 15
0100
0000
0010
0000
1000
0000
0100
0000
0010
0001
0010
0001
0100
0000
0010
0000
,  // measure 16
1000
0001
0100
0000
0000
0000
0001
0000
0010
0000
0100
0000
1000
0000
0010
0000
,  // measure 17
1000
0100
0000
0010
0000
0001
1000
0000
,  // measure 18
2002
0000
0000
0000
0000
0000
0000
3003
,  // measure 19
1000
0010
1000
0010
0100
0001
0100
0001
0010
1000
0010
0001
0100
1000
0100
0001
,  // measure 20
0010
0100
0000
0100
1000
0000
0001
1000
0000
1000
0010
0000
0100
0001
0010
0100
,  // measure 21
1000
0000
0010
0100
0000
0001
0100
0000
0010
1000
0000
0100
0001
0100
1000
0010
,  // measure 22
1000
0001
1000
0001
0000
0010
0100
0000
1000
0001
0010
0001
0000
0100
0001
0000
,  // measure 23
1000
0001
0100
0001
0000
1000
0001
0000
0010
0100
1000
0001
0100
0001
1000
0000
,  // measure 24
0010
0100
0000
0100
1000
0000
0100
0010
0000
0010
0001
0000
0010
1000
0001
1000
,  // measure 25
0010
0100
0000
0001
0100
0000
0010
1000
0000
0100
1000
0000
0001
0010
0100
1000
,  // measure 26
0001
0010
0001
0100
0010
0000
1000
0000
0001
1000
0010
1000
0100
0000
0010
0000
,  // measure 27
0001
0100
0001
0100
0010
1000
0010
1000
0200
0000
0000
0000
0301
0100
1000
0010
,  // measure 28
1000
0001
1000
0010
0100
0001
0010
0001
,  // measure 29
0100
0000
0010
0000
1000
0000
0100
0000
0010
0001
0010
0001
0100
0010
0100
0010
,  // measure 30
1000
1001
0000
1000
0001
0010
0100
1000
,  // measure 31
0001
0000
0001
0000
0100
0000
0010
0000
0000
0000
1000
0000
0001
0100
1000
0100
,  // measure 32
0001
1000
0010
0000
0100
0001
0010
0001
,  // measure 33
1000
0000
1000
0000
0100
0000
0010
0000
0000
0000
0001
0000
1000
0010
0100
0001
,  // measure 34
1000
0010
1000
0000
0001
0100
0010
0100
,  // measure 35
0001
0010
0100
0010
0001
1000
0010
1000
0001
0100
0010
0100
0001
0010
0100
1000
,  // measure 36
0001
0000
0000
1001
0000
1010
1010
0110
,  // measure 37
0220
0000
0330
0101
0000
1010
1010
0110
,  // measure 38
0202
0000
0303
0011
0000
1001
1001
0101
,  // measure 39
0001
0010
0100
1000
0001
0000
0101
0000
0000
0000
1010
0000
0010
0100
0010
0001
,  // measure 40
0020
1000
0000
1000
0000
0001
0000
0031
,  // measure 41
0200
0010
0000
0010
0000
1000
1000
1300
,  // measure 42
0020
0100
0000
0001
0000
0100
0100
0130
,  // measure 43
2002
0000
3003
2020
0000
3030
0200
0000
,  // measure 44
0301
0010
0100
1000
1002
0000
0003
1000
0100
0001
0100
1000
0020
0000
0030
0000
,  // measure 45
0100
0001
0010
0001
2000
0000
3010
0000
0100
0001
0010
0001
2000
0000
3000
0000
,  // measure 46
0010
0000
0100
0001
0100
0000
0010
1000
0010
0000
1000
0000
0001
0000
0010
0100
0010
0000
0100
0000
1000
0000
0001
0000
0101
0000
0100
0000
0110
0000
0010
1000
,  // measure 47
0100
0000
0010
0000
0011
0000
0001
0000
0100
0000
0010
0000
1000
0000
0000
0000
0100
0010
0001
0010
0100
1000
0100
0010
0001
0000
1001
0000
2002
0000
3003
0000
,  // measure 48
0110
0000
1000
0001
0010
0000
0001
0100
0010
0100
0001
0010
0100
1000
0010
0000
,  // measure 49
1000
0000
0001
0000
0100
0000
0001
0010
0100
0010
0001
0000
1000
0000
0100
0000
,  // measure 50
0010
0000
0100
1000
0001
0000
0010
0100
1000
0100
0010
0100
1000
0000
0100
0000
,  // measure 51
0010
0001
1000
0001
0010
0000
0100
0000
1000
0010
0001
0010
1000
0000
0001
0000
,  // measure 52
0100
0000
0100
0000
0110
0000
0000
0000
0001
0000
0001
0000
1000
0010
1000
0010
,  // measure 53
0100
0000
0100
0000
0101
0000
0000
0000
0001
0000
0010
0100
0010
0000
0001
0000
,  // measure 54
1001
0000
1000
0100
1000
0000
0100
0000
0001
0000
0100
1000
0100
0000
0010
0000
,  // measure 55
0011
0000
0011
0000
1001
0000
1001
0000
1000
0000
0100
0010
0001
0000
0100
0000
,  // measure 56
0002
0000
1003
0020
0000
0130
0001
0010
,  // measure 57
1000
0020
0000
0032
0000
0103
0010
1000
,  // measure 58
1010
0000
0000
0110
0000
0000
0101
0000
0000
0011
0000
0000
0010
0100
1000
0000
,  // measure 59
0002
0000
1003
0001
0000
0001
0200
0000
,  // measure 60
0310
1000
0001
1000
0010
0000
0100
0001
1000
0001
0100
0000
0001
0010
0100
0000
,  // measure 61
0010
0001
1000
0100
0010
0000
0001
0010
1000
0010
0001
0000
1001
0000
0000
0000
,  // measure 62
1100
0000
0011
0000
1001
0000
1010
0000
0110
0000
0011
0000
,  // measure 63
1000
0100
0001
0100
1000
0010
0001
0010
1000
0010
0100
0001
0010
0100
0001
0100
,  // measure 64
1000
0001
0000
1000
0001
1000
0010
0000
1000
0100
0010
0000
0001
0100
0010
0000
,  // measure 65
1000
0100
0000
0001
0100
0000
1000
0010
0000
0001
0010
0000
1000
0000
0001
0000
,  // measure 66
0100
0010
0000
1000
0010
0000
0100
0001
0000
0100
0010
0000
1000
0000
0001
0010
,  // measure 67
0100
0010
0000
0001
1000
0000
0100
1000
0010
1000
0001
0100
0010
1000
0010
0000
,  // measure 68
1000
0001
0000
0001
0100
0000
0100
0010
0000
0010
1000
0000
0100
0001
0100
0000
,  // measure 69
1000
0010
0000
0010
0001
0000
1000
0100
0000
0100
0001
0100
1000
0010
0100
0000
,  // measure 70
0001
0010
0000
0010
0100
0000
1000
0001
0000
0001
0100
0000
0010
1000
0100
1000
,  // measure 71
0001
0010
1000
0010
0001
0100
1000
0100
0001
1000
0010
0100
0001
1000
0010
0100
,  // measure 72
0002
0000
0000
0000
,  // measure 73
1003
0100
0010
0100
1000
0001
0010
0001
0100
0010
1000
0100
0010
0100
1000
0001
,  // measure 74
0010
0001
0010
0100
1000
0000
1010
0000
0000
0000
0100
0000
0001
0010
0001
1000
,  // measure 75
0010
0000
1000
0001
0000
0100
0001
0000
0010
0000
0010
0000
0110
0000
0100
1000
,  // measure 76
0100
0010
0001
0100
0010
1000
0010
0000
0001
0010
0100
1000
0100
0010
0001
1000
,  // measure 77
0010
1000
0100
1000
0001
0010
0001
0000
0100
0010
1000
0010
0100
0001
0010
0000
,  // measure 78
0100
1000
0001
0010
0001
0000
0100
0000
0000
0000
0100
0000
0010
1000
0001
1000
,  // measure 79
0010
0000
0100
0001
0000
0001
0010
0000
0100
0000
1000
0000
0100
0000
1000
0000
,  // measure 80
1010
1010
0000
0101
0101
0100
0110
0110
,  // measure 81
0010
1010
1010
1000
1001
0001
0101
0100
,  // measure 82
0010
1000
0001
0100
0010
0000
1000
0100
0010
0000
0100
0000
1000
0001
0010
0001
,  // measure 83
0100
0000
0010
1000
0000
0001
1000
0000
0010
0100
0001
0000
0010
0000
0100
1000
,  // measure 84
0001
0010
0001
0100
0010
0000
1000
0000
0100
1000
0010
0100
0001
0000
0010
0100
,  // measure 85
1000
0100
0001
0100
1000
0001
1000
0010
1000
0001
0100
0010
1000
0000
0100
0000
,  // measure 86
0001
0100
1000
0100
0001
0000
0100
0000
1000
0000
0010
0000
0100
0001
1000
0001
,  // measure 87
0100
0000
0010
1000
0000
1000
0001
0000
0010
0100
1000
0100
0010
0000
0001
0000
,  // measure 88
0001
0100
0010
0100
0001
0000
0000
0010
0100
0010
0001
1000
0001
0100
0010
0100
,  // measure 89
0001
0010
0100
1000
0001
0000
0000
0100
0000
0010
1000
0001
1000
0010
0100
0001
,  // measure 90
0000
0000
1001
0000
1001
0000
0000
0110
,  // measure 91
2002
0000
0000
0000
,  // measure 92
0000
0000
0000
0000
,  // measure 93
0000
0000
0000
0000
,  // measure 94
3003
0000
0000
0000
;
