#TITLE:Juuniseiza no seiiki;
#SUBTITLE:;
#ARTIST:ZODIAC FALL;
#TITLETRANSLIT:;
#SUBTITLETRANSLIT:;
#ARTISTTRANSLIT:;
#GENRE:;
#CREDIT:;
#BANNER:Juuniseiza no seiiki.png;
#BACKGROUND:Juuniseiza no seiiki-bg.png;
#LYRICSPATH:;
#CDTITLE:;
#MUSIC:Juuniseiza no seiiki.ogg;
#OFFSET:0.000000;
#SAMPLESTART:85.320015;
#SAMPLELENGTH:15.000000;
#SELECTABLE:YES;
#DISPLAYBPM:164.000000;
#BPMS:0.000000=164.000000
;
#STOPS:
;
#BGCHANGES:;
#KEYSOUNDS:;
#ATTACKS:;

//---------------dance-single - ----------------
#NOTES:
     dance-single:
     :
     Beginner:
     3:
     0.134369,0.199652,0.035494,0.017747,0.000000,106.000000,102.000000,4.000000,2.000000,0.000000,0.000000,0.134369,0.199652,0.035494,0.017747,0.000000,106.000000,102.000000,4.000000,2.000000,0.000000,0.000000:
0000
0000
0000
0000
,
0000
0000
0000
0000
,
0000
0000
0000
0000
,
0000
0000
0000
0000
,
0000
0000
0000
0001
,
0000
0000
0000
1000
,
0000
0000
0000
0010
,
0000
0000
0000
0100
,
0000
0000
0000
0000
,
0010
0000
0010
0000
,
0100
0000
0100
0000
,
0001
0000
0001
0000
,
1000
0000
1000
0000
,
0001
0000
0010
0000
,
0100
0000
1000
0000
,
0001
0000
0001
0000
,
1000
0000
1000
0000
,
0010
0000
0010
0000
,
0100
0000
0100
0000
,
1000
0000
1000
0000
,
0001
0000
0001
0000
,
1000
0000
0100
0000
,
0010
0000
0001
0000
,
0020
0000
0030
0000
,
0200
0000
0300
0000
,
0000
0000
0000
0000
,
0000
0000
0000
1001
,
0000
0000
0000
0000
,
0000
0000
0000
0110
,
0000
0000
0000
0000
,
0000
0000
0000
1001
,
0000
0000
0000
0000
,
0000
0000
0000
0110
,
0000
0000
0000
0000
,
0000
0000
0010
0010
,
0000
0000
0000
0000
,
0000
0000
1000
1000
,
0000
0000
0000
0000
,
0000
0000
0001
0001
,
0000
0000
0000
0000
,
0000
0000
0100
0100
,
0000
1000
0000
1000
,
0000
1000
0000
1000
,
0000
0010
0000
0010
,
0000
0010
0000
0010
,
0000
0001
0000
0001
,
0000
0001
0000
0001
,
0000
0100
0000
0100
,
0000
0100
0000
0100
,
0000
0000
0000
0000
,
0000
0000
0000
0000
,
0000
0000
0000
0000
,
0000
0000
0000
0000
,
0001
0000
1000
1000
,
0000
0000
0000
0000
,
0000
0000
0000
0000
,
0000
0000
0000
0000
,
0000
0000
0100
0000
,
0001
0001
0000
0010
,
0010
0000
0010
0000
,
0100
0000
0100
0000
,
0001
0000
0001
0000
,
1000
0000
1000
0000
,
0001
0000
0010
0000
,
0100
0000
1000
0000
,
0001
0000
0001
0000
,
1000
0000
1000
0000
,
0010
0000
0010
0000
,
0100
0000
0100
0000
,
1000
0000
1000
0000
,
0001
0000
0001
0000
,
1000
0000
0100
0000
,
0010
0000
0001
0000
,
0010
0000
0010
0000
,
0100
0000
0100
0000
,
1000
0000
0000
0000
;

//---------------dance-single - ----------------
#NOTES:
     dance-single:
     :
     Easy:
     8:
     0.256062,0.295485,0.000000,0.159722,0.000000,202.000000,202.000000,0.000000,18.000000,0.000000,0.000000,0.256062,0.295485,0.000000,0.159722,0.000000,202.000000,202.000000,0.000000,18.000000,0.000000,0.000000:
0000
0000
0000
0000
,
0000
0000
0000
0000
,
0000
0000
0000
0000
,
0000
0001
0000
0001
,
0000
0010
0000
0010
,
0000
1000
0000
1000
,
0000
0100
0000
0100
,
0001
0001
0020
0030
,
0001
0100
0001
0100
,
0000
0010
0000
0010
,
1000
0100
1000
0100
,
0000
0010
0000
0010
,
0001
1000
0001
1000
,
0000
0100
0000
0100
,
1000
0001
1000
0001
,
0000
0100
0000
0100
,
0001
0010
0001
0010
,
0100
0100
1000
1000
,
1000
0010
1000
0010
,
0100
0100
0001
0001
,
0001
1000
0001
1000
,
0010
0010
0100
0100
,
0002
0000
0000
0003
,
2000
0000
0000
3000
,
0002
1000
0000
1003
,
0200
0000
0010
0310
,
2000
0001
0000
3001
,
0200
0000
0010
0310
,
0001
0001
0002
1000
,
0000
1000
0010
0013
,
0100
0100
0200
0010
,
0000
0010
1000
1300
,
0002
0000
0000
0000
,
0000
0000
1003
0100
,
0020
0000
0000
0000
,
0000
0000
0031
1000
,
0200
0000
0000
0000
,
0000
0000
0310
0001
,
2000
0000
0000
0000
,
0000
0000
3001
0010
,
0002
1000
0000
1000
,
0000
1000
0100
0103
,
0020
1000
0000
1000
,
0000
1000
0100
0130
,
0002
0010
0000
0010
,
0000
0010
1000
1003
,
0200
0010
0000
0010
,
1000
1000
0010
0310
,
0002
0000
0000
0000
,
0000
0000
0000
0003
,
0000
1000
0000
1000
,
0000
0100
0000
0100
,
0010
0010
0001
1000
,
0000
0100
0000
0100
,
0000
0010
0000
0010
,
0000
0001
0000
0001
,
0000
0000
0100
0100
,
0001
0010
0001
0001
,
1000
0100
1000
0100
,
0000
0010
0000
0010
,
0001
0100
0001
0100
,
0000
0010
0000
0010
,
1000
0001
1000
0001
,
0000
0100
0000
0100
,
0001
1000
0001
1000
,
0000
0100
0000
0100
,
1000
0010
1000
0010
,
0100
0100
0001
0001
,
0001
0010
0001
0010
,
0100
0100
1000
1000
,
1000
0001
1000
0001
,
0010
0010
0100
0100
,
1000
0001
1000
0001
,
0100
0100
0010
0010
,
1000
0000
0000
0000
;

//---------------dance-single - ----------------
#NOTES:
     dance-single:
     :
     Medium:
     10:
     0.427192,0.459644,0.088734,0.168595,0.035494,337.000000,327.000000,10.000000,19.000000,0.000000,0.000000,0.427192,0.459644,0.088734,0.168595,0.035494,337.000000,327.000000,10.000000,19.000000,0.000000,0.000000:
0000
0000
0000
0000
,
0000
0000
0000
0000
,
0000
0000
0000
0000
,
1000
0010
1000
0010
,
0100
0001
0100
0001
,
0010
0001
0010
0001
,
1000
0100
1000
0100
,
0010
0010
0002
0003
,
1000
0010
0000
0010
0000
0100
0000
0010
,
0000
1000
0001
0010
0000
0100
0000
1000
,
0001
0010
0000
0010
0000
0100
0000
0010
,
0000
0001
1000
0010
0000
0100
0000
0001
,
1000
0010
0000
0010
0000
0100
0000
0010
,
0000
1000
0001
0010
0000
0100
0000
1000
,
0001
0010
0000
0010
0000
0100
0000
0010
,
0000
0001
1000
0010
0000
0100
0000
0001
,
1000
0010
0100
0010
0000
1000
0100
0010
,
0000
0001
0010
0001
0000
0100
0000
0100
,
0001
0010
0100
0010
0000
0001
0100
0010
,
0000
1000
0010
1000
0000
0100
0000
0100
,
1000
0010
0100
0010
0000
1000
0100
0010
,
0000
0001
0010
0001
0000
0100
0000
0100
,
0020
0000
0000
0030
,
2000
0000
0000
3000
,
0001
0000
0000
0000
0100
0000
0000
0000
0001
0000
0000
1000
0000
0000
0200
0000
,
0000
0310
0001
0000
0010
0000
0001
0000
,
1000
0000
0000
0000
0100
0000
0000
0000
1000
0000
0000
0001
0000
0000
0200
0000
,
0000
0310
1000
0000
0010
0000
1000
0000
,
0001
0000
0100
0000
0001
0000
0100
0000
0001
0000
0000
1000
0000
0000
0200
0000
,
0000
0310
0001
0000
0100
0000
0001
0000
,
1000
0000
0100
0000
1000
0000
0100
0000
1000
0000
0000
0001
0000
0000
0200
0000
,
0000
0310
1000
0000
0100
0000
1000
0000
,
0002
0010
0000
0013
,
2000
0100
0000
3100
,
0020
0001
0000
0031
,
0200
1000
0000
1300
,
0002
0010
1000
0013
,
2000
0100
0001
3100
,
0020
1000
0100
1030
,
0200
0001
0010
0301
,
0001
0000
0000
0000
0100
0000
0000
0000
0010
0000
0000
0100
0000
0000
0001
0000
,
1000
0100
0010
0000
0011
0000
1100
0000
,
1000
0000
0000
0000
0100
0000
0000
0000
0010
0000
0000
0100
0000
0000
1000
0000
,
0001
0100
0010
0000
1010
0000
0101
0000
,
0001
0000
0000
0000
0100
0000
0000
0000
0010
0000
0000
0100
0000
0000
0001
0000
,
1000
0100
0010
0000
0011
0000
1100
0000
,
1000
0000
0000
0000
0100
0000
0000
0000
0010
0000
0000
0100
0000
0000
1000
0000
,
0001
0100
0010
0000
1010
0000
0101
0000
,
0020
0000
0000
0000
,
0000
0000
0000
0030
,
1000
0100
1000
0100
,
0010
0001
0010
0001
,
1200
0010
0010
0310
,
0001
0100
0001
0100
,
0010
1000
0010
1000
,
0100
0010
0100
0010
,
0001
0100
0012
0100
,
0023
0001
0100
0031
,
1000
0010
0000
0010
0000
0100
0000
0010
,
0000
1000
0001
0010
0000
0100
0000
1000
,
0001
0010
0000
0010
0000
0100
0000
0010
,
0000
0001
1000
0010
0000
0100
0000
0001
,
1000
0010
0000
0010
0000
0100
0000
0010
,
0000
1000
0001
0010
0000
0100
0000
1000
,
0001
0010
0000
0010
0000
0100
0000
0010
,
0000
0001
1000
0010
0000
0100
0000
0001
,
1000
0010
0100
0010
0000
1000
0100
0010
,
0000
0001
0010
0001
0000
0100
0000
0100
,
0001
0010
0100
0010
0000
0001
0100
0010
,
0000
1000
0010
1000
0000
0100
0000
0100
,
1000
0010
0100
0010
0000
1000
0100
0010
,
0000
0001
0010
0001
0000
0100
0000
0100
,
0001
0010
0100
0010
0000
0001
0100
0010
,
0000
1000
0010
1000
0000
0100
0000
0100
,
0010
0000
0000
0000
;

//---------------dance-single - ----------------
#NOTES:
     dance-single:
     :
     Hard:
     13:
     0.612267,0.689465,0.310570,0.195215,0.173032,483.000000,448.000000,35.000000,22.000000,0.000000,0.000000,0.612267,0.689465,0.310570,0.195215,0.173032,483.000000,448.000000,35.000000,22.000000,0.000000,0.000000:
// measure 0
0000
0000
0000
0000
,  // measure 1
0000
0000
0000
0000
,  // measure 2
0000
0000
0000
0000
,  // measure 3
1000
0000
1000
0000
1000
0000
1000
0001
,  // measure 4
0010
0010
0010
0010
,  // measure 5
0100
0000
0100
0000
0100
0000
0100
1000
,  // measure 6
0001
0001
0001
0001
,  // measure 7
1000
0010
1000
0010
0200
0000
0301
0000
,  // measure 8
1000
0010
0100
0001
0010
0001
0000
0100
,  // measure 9
1000
0100
0000
0010
0100
1000
0100
0010
,  // measure 10
1000
0100
0010
0001
0100
0001
0000
1000
,  // measure 11
0100
1000
0000
0010
1000
0100
0010
0000
,  // measure 12
0001
0010
0100
1000
0010
1000
0000
0100
,  // measure 13
0001
0100
0000
0010
0100
0001
0100
0010
,  // measure 14
0001
0100
0010
1000
0100
1000
0000
0001
,  // measure 15
0100
0001
0000
0010
0001
0100
0010
0000
,  // measure 16
1000
0000
0010
1000
0100
0000
0010
0000
0001
0000
0100
0000
0000
0000
0010
0000
,  // measure 17
1000
1000
0000
1000
0010
0001
0010
1000
,  // measure 18
0001
0000
0010
0001
0100
0000
0010
0000
1000
0000
0100
0000
0000
0000
0010
0000
,  // measure 19
0001
0001
0000
0001
0010
1000
0010
0001
,  // measure 20
1000
0000
0010
1000
0100
0000
0010
0000
0001
0000
1000
0000
0000
0000
0010
0000
,  // measure 21
0100
0100
0000
0100
0001
0010
1000
0010
,  // measure 22
0002
0100
0000
0100
0000
1000
0003
0010
,  // measure 23
0200
1000
0300
0010
0002
1000
0003
0010
,  // measure 24
1100
0000
0000
0000
0011
0000
0000
0000
1100
0000
0000
0001
0100
0000
0010
0000
,  // measure 25
1000
0000
0100
0000
0200
0000
0000
0000
0310
0000
0000
0001
0000
0000
0010
0000
,  // measure 26
1100
0000
0000
0000
0011
0000
0000
0000
1100
0000
0000
0001
0010
0000
0100
0000
,  // measure 27
1000
0000
0010
0000
0020
0000
0000
0000
0130
0000
0000
0001
0000
0000
1000
0000
,  // measure 28
0001
0000
0010
0000
0001
0000
0010
0000
0001
0000
0000
1000
0100
0000
0010
0000
,  // measure 29
0001
0000
0100
0000
0200
0000
0000
0000
0310
0000
0000
1000
0000
0000
0010
0000
,  // measure 30
0100
0000
0001
0000
0100
0000
0001
0000
0100
0000
0000
0010
1000
0000
0200
0000
,  // measure 31
0000
0320
0000
0032
0000
2003
0000
3010
,  // measure 32
0200
0000
0000
0000
0001
0000
0000
0000
0010
0000
0000
0001
0000
0000
0310
0000
,  // measure 33
1000
0000
0100
0000
0200
0000
0000
0000
0310
0000
0000
0001
0000
0000
1000
0000
,  // measure 34
0020
0000
0000
0000
0100
0000
0000
0000
1000
0000
0000
0100
0000
0000
1030
0000
,  // measure 35
0001
0100
0100
0000
1010
0000
0101
0000
,  // measure 36
0020
0000
0000
0000
1000
0000
0000
0000
0100
0000
0000
1000
0000
0000
0130
0000
,  // measure 37
0001
0000
0010
0000
0020
0000
0000
0000
0130
0000
0000
1000
0000
0000
0001
0000
,  // measure 38
0200
0000
0000
0000
0010
0000
0000
0000
0001
0000
0000
0010
0000
0000
0301
0000
,  // measure 39
1000
0100
0100
0000
1100
0000
0011
0000
,  // measure 40
1001
0000
0000
0000
0110
0000
0000
0000
1001
0000
0000
0010
1000
0000
0001
0000
,  // measure 41
0100
0000
0010
0000
0100
0000
0000
0000
1000
0000
0000
0100
0000
0000
0001
0000
,  // measure 42
0110
0000
0000
0000
1001
0000
0000
0000
0110
0000
0000
1000
0100
0000
0010
0000
,  // measure 43
0001
0000
1000
0000
0001
0000
0000
0000
0010
0000
0000
0001
0000
0000
0100
0000
,  // measure 44
1001
0000
0000
0000
0110
0000
0000
0000
1001
0000
0000
0100
0001
0000
1000
0000
,  // measure 45
0010
0000
0001
0000
0010
0000
0000
0000
0100
0000
0000
0001
0000
0000
1000
0000
,  // measure 46
0110
0000
0000
0000
1001
0000
0000
0000
0110
0000
0000
0001
0010
0000
0100
0000
,  // measure 47
0001
0100
1000
0000
0001
0100
0100
0000
,  // measure 48
2002
0000
0000
0000
,  // measure 49
0000
0000
0000
3003
,  // measure 50
1000
0000
1000
0000
1000
0000
1000
0001
,  // measure 51
0010
0010
0010
0010
,  // measure 52
0100
0000
1000
0100
1000
0000
0100
0000
0020
0000
0031
0000
2000
0000
3100
0010
,  // measure 53
0001
0000
0001
0000
0001
0000
0001
0010
,  // measure 54
0100
0100
0100
0100
,  // measure 55
1000
0000
1000
0000
1000
0000
1000
0100
,  // measure 56
0010
0000
0000
0000
0010
0000
0000
0000
0010
0000
0001
0010
0001
0000
0010
0000
,  // measure 57
0100
0000
2000
0000
0000
3001
0100
0000
0010
0000
1000
0100
1000
0000
0001
0000
,  // measure 58
1000
0000
0010
0100
0001
0000
1000
0000
0100
0000
0001
0000
0100
0000
1000
0000
,  // measure 59
0000
0011
0000
1010
0000
0001
0000
1100
,  // measure 60
0001
0000
0010
0100
1000
0000
0001
0000
0100
0000
1000
0000
0100
0000
0001
0000
,  // measure 61
0000
1100
0000
0101
0000
1000
0000
0011
,  // measure 62
1000
0000
0010
0100
0001
0000
1000
0000
0100
0000
0010
0000
0100
0000
0010
0000
,  // measure 63
0000
0011
0000
1010
0000
0001
0000
1100
,  // measure 64
0001
0000
0010
0100
1000
0000
0001
0000
0010
0000
1000
0000
0010
0000
0001
0000
,  // measure 65
0000
1100
0000
0101
0000
1000
0000
0011
,  // measure 66
1000
0000
0010
0100
0001
0000
1000
0000
0100
0000
0001
0000
0100
0000
1000
0000
,  // measure 67
0010
0001
0010
0001
0010
1000
0100
0010
,  // measure 68
0001
0000
0010
0100
1000
0000
0001
0000
0100
0000
1000
0000
0100
0000
0001
0000
,  // measure 69
0010
1000
0010
1000
0010
0001
0100
0010
,  // measure 70
1000
0000
0010
0100
0001
0000
1000
0000
0100
0000
0010
0000
0100
0000
0010
0000
,  // measure 71
0100
0001
0100
0001
0100
1000
0100
0010
,  // measure 72
0001
0000
0010
0100
1000
0000
0001
0000
1000
0000
0100
0010
0001
0000
1000
0000
,  // measure 73
0001
0000
1000
0100
0010
0000
0001
0000
1000
0000
0001
0010
0100
0000
1000
0000
,  // measure 74
0001
0000
0000
0000
;

//---------------dance-double - ----------------
#NOTES:
     dance-double:
     :
     Easy:
     8:
     0.254794,0.299478,0.035494,0.159722,0.000000,201.000000,197.000000,4.000000,18.000000,0.000000,0.000000,0.254794,0.299478,0.035494,0.159722,0.000000,201.000000,197.000000,4.000000,18.000000,0.000000,0.000000:
00000000
00000000
00000000
00000000
,
00000000
00000000
00000000
00000000
,
00000000
00000000
00000000
00000000
,
00000000
00000000
00000000
00000000
,
00000000
00001000
00000000
00001000
,
00000000
00000010
00000000
00000001
,
00000000
00000100
00000000
00000100
,
00000000
00001000
00000000
00010000
,
00100000
00100000
02000000
03000000
,
00100000
10000000
00100000
00010000
,
00000000
00001000
00000000
00001000
,
00000010
00000001
00000010
00001000
,
00000000
00010000
00000000
00010000
,
00100000
10000000
01000000
00010000
,
00000000
00001000
00000000
00001000
,
00000100
00000001
00000010
00001000
,
00000000
00010000
00000000
00010000
,
00100000
10000000
00100000
10000000
,
01000000
01000000
00010000
00001000
,
00000010
00000001
00000010
00000001
,
00000100
00000100
00001000
00010000
,
01000000
10000000
01000000
10000000
,
00100000
00100000
00010000
00001000
,
00020000
00000000
00000000
00030000
,
00002000
00000000
00000000
00003000
,
00000200
00000010
00000000
00000310
,
00000002
00000000
00000100
00000103
,
00002000
00010000
00000000
00013000
,
02000000
00000000
00100000
03100000
,
00010000
00010000
20000000
00100000
,
00000000
00100000
01000000
31000000
,
00010000
00001000
00000200
00000001
,
00000000
00000001
00000010
00000310
,
00002000
00000000
00000000
00000000
,
00000000
00000000
00003000
00011000
,
00200000
00000000
00000000
00000000
,
00000000
00000000
00300000
10010000
,
20000000
00000000
00000000
00000000
,
00000000
00000000
30000000
01100000
,
00020000
00000000
00000000
00000000
,
00000000
00000000
00030000
00011000
,
00000200
00000010
00000000
00000010
,
00000000
00000010
00000310
00001000
,
00020000
00001000
00000000
00001000
,
00000000
00001000
00031000
00100000
,
20000000
01000000
00000000
01000000
,
00000000
01000000
31000000
00100000
,
00020000
00001000
00000000
00001000
,
00000000
00001000
00031000
00000010
,
00000002
00000000
00000000
00000000
,
00000000
00000000
00000000
00000003
,
00000000
00001000
00000000
00000010
,
00000000
00000100
00000000
00000001
,
00000010
00000010
00001000
00010000
,
00000000
01000000
00000000
10000000
,
00000000
00100000
00000000
00010000
,
00000000
00001000
00000000
00000010
,
00000000
00000000
00000001
00000001
,
00000100
00001000
00010000
00010000
,
00100000
10000000
00100000
00010000
,
00000000
00001000
00000000
00001000
,
00000010
00000001
00000010
00001000
,
00000000
00010000
00000000
00010000
,
01000000
10000000
01000000
00010000
,
00000000
00001000
00000000
00001000
,
00000100
00000001
00000100
00001000
,
00000000
00010000
00000000
00010000
,
00100000
10000000
00100000
10000000
,
01000000
01000000
00010000
00001000
,
00000010
00000001
00000010
00000001
,
00000100
00000100
00001000
00010000
,
01000000
10000000
01000000
10000000
,
00100000
00100000
00010000
00001000
,
00000010
00000001
00000100
00000001
,
00000010
00001000
00010000
01000000
,
00100000
00000000
00000000
00000000
;

//---------------dance-double - ----------------
#NOTES:
     dance-double:
     :
     Medium:
     10:
     0.414516,0.465855,0.053241,0.141975,0.035494,327.000000,321.000000,6.000000,16.000000,0.000000,0.000000,0.414516,0.465855,0.053241,0.141975,0.035494,327.000000,321.000000,6.000000,16.000000,0.000000,0.000000:
00000000
00000000
00000000
00000000
,
00000000
00000000
00000000
00000000
,
00000000
00000000
00000000
00000000
,
00000000
00000000
00000000
00000000
,
00000010
00000001
00000100
00000010
,
00001000
00000001
00000100
00001000
,
00010000
01000000
10000000
00100000
,
10000000
01000000
00010000
00001000
,
00000100
00000100
00000020
00000030
,
00001000
00000100
00000000
00000100
00000000
00000010
00000000
00000001
,
00000000
00000100
00001000
00010000
00000000
01000000
00000000
10000000
,
00010000
01000000
00000000
01000000
00000000
00100000
00000000
10000000
,
00000000
01000000
00010000
00001000
00000000
00000100
00000000
00000001
,
00001000
00000010
00000000
00000010
00000000
00000100
00000000
00000001
,
00000000
00000010
00001000
00010000
00000000
00100000
00000000
10000000
,
00010000
00100000
00000000
00100000
00000000
01000000
00000000
10000000
,
00000000
00100000
00010000
00001000
00000000
00000010
00000000
00000001
,
00001000
00000010
00000100
00000010
00000000
00001000
00000100
00000100
,
00000000
00000010
00001000
00010000
00000000
00100000
00000000
10000000
,
00010000
01000000
00100000
01000000
00000000
00010000
00100000
00100000
,
00000000
01000000
00010000
00001000
00000000
00000100
00000000
00000001
,
00001000
00000010
00000100
00000010
00000000
00001000
00000100
00000100
,
00000000
00000010
00000001
00000100
00000000
00000010
00000000
00000100
,
00002000
00000000
00000000
00003000
,
00020000
00000000
00000000
00030000
,
01000000
00000000
00000000
00000000
10000000
00000000
00000000
00000000
01000000
00000000
00000000
00100000
00000000
00000000
00020000
00000000
,
00000000
01030000
00100000
00000000
00010000
00000000
00001000
00000000
,
00000100
00000000
00000000
00000000
00000001
00000000
00000000
00000000
00000100
00000000
00000000
00000010
00000000
00000000
00002000
00000000
,
00000000
00003100
00000010
00000000
00001000
00000000
00010000
00000000
,
00100000
00000000
10000000
00000000
00100000
00000000
10000000
00000000
00100000
00000000
00000000
01000000
00000000
00000000
00020000
00000000
,
00000000
10030000
01000000
00000000
00010000
00000000
00001000
00000000
,
00000010
00000000
00000001
00000000
00000010
00000000
00000001
00000000
00000010
00000000
00000000
00000100
00000000
00000000
00002000
00000000
,
00000000
00003001
00000010
00000000
00001000
00000000
00010000
00000000
,
00200000
10000000
00000000
10000000
,
00000000
10000000
00000000
00310000
,
00002000
00010000
00000000
00010000
,
00000000
00010000
00000000
00003100
,
00000002
00000010
00000000
00000010
,
00000000
00000010
00000000
00000103
,
00002000
00010000
00000000
00013000
,
00200000
10000000
00000000
01300000
,
10000000
00000000
00000000
00000000
00010000
00000000
00000000
00000000
10000000
00000000
00000000
00100000
00000000
00000000
10000000
00000000
,
01000000
00010000
00001000
00000000
00000010
00000000
00001001
00000000
,
00000001
00000000
00000000
00000000
00001000
00000000
00000000
00000000
00000001
00000000
00000000
00000010
00000000
00000000
00000001
00000000
,
00000100
00001000
00010000
00000000
00100000
00000000
10010000
00000000
,
10000000
00000000
00000000
00000000
00010000
00000000
00000000
00000000
10000000
00000000
00000000
01000000
00000000
00000000
10000000
00000000
,
00100000
00010000
00001000
00000000
00000100
00000000
00001001
00000000
,
00000001
00000000
00000000
00000000
00001000
00000000
00000000
00000000
00000001
00000000
00000000
00000100
00000000
00000000
00000001
00000000
,
00000010
00001000
00010000
00000000
01000000
00000000
10010000
00000000
,
00200000
00000000
00000000
00000000
,
00000000
00000000
00000000
00300000
,
10000000
01000000
10000000
00100000
,
00010000
00001000
00010000
00001000
,
00012000
00000010
00000010
00003010
,
00000001
00000100
00000001
00000010
,
00001000
00010000
00001000
00010000
,
00100000
10000000
00100000
10000000
,
01000000
00010000
00012000
00010000
,
00003020
00000001
00000100
00000031
,
00001000
00000010
00000000
00000010
00000000
00000100
00000000
00000001
,
00000000
00000010
00001000
00010000
00000000
00100000
00000000
10000000
,
00010000
00100000
00000000
00100000
00000000
01000000
00000000
10000000
,
00000000
01000000
00010000
00001000
00000000
00000100
00000000
00000001
,
00001000
00000010
00000000
00000010
00000000
00000100
00000000
00000001
,
00000000
00000010
00001000
00010000
00000000
00100000
00000000
10000000
,
00010000
00100000
00000000
00100000
00000000
01000000
00000000
10000000
,
00000000
01000000
00010000
00001000
00000000
00000100
00000000
00000001
,
00001000
00000010
00000100
00000010
00000000
00001000
00000100
00000100
,
00000000
00000010
00001000
00010000
00000000
00100000
00000000
10000000
,
00010000
00100000
01000000
00100000
00000000
00010000
01000000
01000000
,
00000000
00100000
00010000
00001000
00000000
00000100
00000000
00000001
,
00001000
00000010
00000100
00000010
00000000
00001000
00000100
00000100
,
00000000
00000010
00001000
00010000
00000000
00100000
00000000
10000000
,
00010000
00100000
01000000
00100000
00000000
00010000
01000000
00100000
,
00000000
00010000
00001000
00000010
00000000
00000001
00001000
00000010
,
00000100
00000000
00000000
00000000
;

//---------------dance-double - ----------------
#NOTES:
     dance-double:
     :
     Hard:
     12:
     0.586914,0.632232,0.301697,0.177469,0.128665,463.000000,429.000000,34.000000,20.000000,0.000000,0.000000,0.586914,0.632232,0.301697,0.177469,0.128665,463.000000,429.000000,34.000000,20.000000,0.000000,0.000000:
00000000
00000000
00000000
00000000
,
00000000
00000000
00000000
00000000
,
00000000
00000000
00000000
00000000
,
00000000
00000000
00000000
00000000
,
00100000
00000000
10000000
00000000
00100000
00000000
10000000
01000000
,
00010000
00001000
00010000
00001000
,
00000010
00000000
00000001
00000000
00000010
00000000
00000001
00000100
,
00001000
00010000
00001000
00010000
,
00100000
10000000
00100000
01000000
00020000
00000000
10030000
00000000
,
00100000
10000000
00010000
00100000
01000000
10000000
00000000
00100000
,
00010000
00001000
00000000
00010000
00100000
00010000
00001000
00000000
,
00000010
00000001
00001000
00000010
00000100
00000001
00000000
00000010
,
00001000
00010000
00000000
00001000
00000010
00001000
00010000
00000000
,
00100000
10000000
00010000
01000000
00100000
10000000
00000000
00010000
,
01000000
00100000
00000000
00010000
00001000
00010000
00001000
00000000
,
00000010
00000001
00001000
00000100
00000010
00000001
00000000
00001000
,
00000001
00000100
00000000
00001000
00010000
00001000
00010000
00000000
,
00100000
00000000
10000000
01000000
00100000
00000000
00010000
00000000
01000000
00000000
10000000
00000000
00000000
00000000
01000000
00000000
,
00010000
00010000
00000000
10000000
00100000
00010000
00001000
00000000
,
00000010
00000000
00000001
00000100
00000010
00000000
00001000
00000000
00000100
00000000
00000001
00000000
00000000
00000000
00000100
00000000
,
00001000
00001000
00000000
00000001
00000010
00001000
00010000
00000000
,
00100000
00000000
10000000
01000000
00100000
00000000
00010000
00000000
01000000
00000000
10000000
00000000
00000000
00000000
01000000
00000000
,
00100000
00100000
00000000
10000000
00100000
00010000
00001000
00000000
,
00000200
00000001
00000000
00000001
00000000
00000310
00000000
00001000
,
00000100
00000020
00000000
00000031
00000100
00001000
00010000
00000000
,
10100000
00000000
00000000
00000000
01010000
00000000
00000000
00000000
10100000
00000000
00000000
00010000
00100000
00000000
01000000
00000000
,
10000000
00000000
00100000
00000000
00200000
00000000
00000000
00000000
00310000
00000000
00000000
00001000
00000000
00000000
00000010
00000000
,
00000011
00000000
00000000
00000000
00001100
00000000
00000000
00000000
00000011
00000000
00000000
00001000
00000010
00000000
00000100
00000000
,
00000001
00000000
00000100
00000000
00002000
00000000
00000000
00000000
00013000
00000000
00000000
01000000
00000000
00000000
10000000
00000000
,
00100000
00000000
01000000
00000000
00100000
00000000
01000000
00000000
00100000
00000000
00000000
00010000
00001000
00000000
00010000
00000000
,
00100000
00000000
10000000
00000000
20000000
00000000
00000000
00000000
31000000
00000000
00000000
00010000
00000000
00000000
00001000
00000000
,
00000100
00000000
00000010
00000000
00000100
00000000
00000010
00000000
00000100
00000000
00000000
00000001
00001000
00000000
00000020
00000000
,
00000000
00000230
00000000
00000302
00000000
00000023
00000000
00001030
,
00020000
00001000
00000000
00031000
,
01000000
00000000
10000000
00000000
00020000
00000000
00000000
00000000
00130000
00000000
00000000
01000000
00000000
00000000
00010000
00000000
,
00002000
00010000
00000000
00013000
,
00000010
00000001
00000001
00000000
00001100
00000000
00011000
00000000
,
00200000
10000000
00000000
01300000
,
00010000
00000000
00100000
00000000
02000000
00000000
00000000
00000000
03010000
00000000
00000000
00001000
00000000
00000000
00000100
00000000
,
00000002
00000010
00000000
00001003
,
00000100
00000010
00000010
00000000
00000101
00000000
00001010
00000000
,
00011000
00000000
00000000
00000000
00100000
00000000
00000000
00000000
10010000
00000000
00000000
00100000
10000000
00000000
01000000
00000000
,
00010000
00000000
01000000
00000000
01000000
00000000
00000000
00000000
10000000
00000000
00000000
00100000
00000000
00000000
00010000
00000000
,
00011000
00000000
00000000
00000000
00000100
00000000
00000000
00000000
00001001
00000000
00000000
00001000
00000100
00000000
00000010
00000000
,
00000001
00000000
00000100
00000000
00000100
00000000
00000000
00000000
00000010
00000000
00000000
00000100
00000000
00000000
00001000
00000000
,
00011000
00000000
00000000
00000000
00100000
00000000
00000000
00000000
10010000
00000000
00000000
00010000
00100000
00000000
01000000
00000000
,
10000000
00000000
01000000
00000000
01000000
00000000
00000000
00000000
10000000
00000000
00000000
00100000
00000000
00000000
00010000
00000000
,
00011000
00000000
00000000
00000000
00000100
00000000
00000000
00000000
00001001
00000000
00000000
00000010
00000001
00000000
00000100
00000000
,
00000010
00001000
00001000
00000000
00000001
00000100
00000100
00000000
,
00000020
00000000
00000000
00000000
,
00000000
00000000
00000000
00000030
,
00000100
00000000
00000100
00000000
00000100
00000000
00000100
00001000
,
00010000
00010000
00010000
00010000
,
00100000
00000000
10000000
00010000
10000000
00000000
01000000
00000000
00200000
00000000
00310000
00000000
20000000
00000000
31000000
00100000
,
00010000
00000000
00010000
00000000
00010000
00000000
00010000
00100000
,
01000000
01000000
01000000
01000000
,
00010000
00000000
00010000
00000000
00010000
00000000
00010000
00001000
,
00000100
00000000
00000000
00000000
00000100
00000000
00000000
00000000
00000001
00000000
00001000
00000010
00001000
00000000
00000100
00000000
,
00000010
00000000
00000002
00000000
00000000
00001003
00000010
00000000
00000100
00000000
00001000
00010000
00001000
00000000
00010000
00000000
,
00100000
10000000
01000000
00100000
00010000
01000000
10000000
01000000
,
00000000
01010000
00000000
00011000
00000000
00001010
00000000
00001001
,
00000010
00000001
00000100
00000010
00001000
00000100
00000001
00000100
,
00000000
00001100
00000000
00011000
00000000
00110000
00000000
10010000
,
00100000
10000000
00010000
01000000
00100000
10000000
01000000
00100000
,
00000000
00110000
00000000
00011000
00000000
00001100
00000000
00001001
,
00000010
00000001
00001000
00000100
00001000
00000100
00000010
00000001
,
00000000
00001100
00000000
00011000
00000000
00110000
00000000
10010000
,
00100000
00000000
10000000
01000000
00010000
00000000
00001000
00000000
00010000
00000000
01000000
00000000
10000000
00000000
00100000
00000000
,
00010000
00001000
00010000
00100000
00010000
00001000
00000010
00000001
,
00000100
00000000
00000010
00001000
00000100
00000000
00000010
00000000
00000001
00000000
00000100
00000000
00001000
00000000
00010000
00000000
,
00001000
00000100
00001000
00000100
00001000
00010000
00001000
00010000
,
00100000
00000000
10000000
01000000
00100000
00000000
00010000
00000000
01000000
00000000
00010000
00000000
10000000
00000000
00010000
00000000
,
10000000
00100000
10000000
00100000
00010000
00001000
00010000
00001000
,
00000010
00000000
00000001
00000100
00000010
00000000
00001000
00000000
00000100
00000000
00000010
00000001
00000100
00000000
00000010
00000000
,
00001000
00000010
00000100
00000001
00000100
00001000
00010000
00001000
,
00010000
00000000
00000000
00000000
;

//---------------dance-single - ----------------
#NOTES:
     dance-single:
     :
     Challenge:
     15:
     0.779594,0.826338,0.559026,0.097608,0.607830,615.000000,552.000000,63.000000,11.000000,0.000000,0.000000,0.779594,0.826338,0.559026,0.097608,0.607830,615.000000,552.000000,63.000000,11.000000,0.000000,0.000000:
// measure 0
0000
0000
0000
0000
,  // measure 1
0000
0000
0000
0000
,  // measure 2
0000
0000
0000
0000
,  // measure 3
0010
0000
0001
1000
0001
0000
1000
0000
0010
0000
0100
0000
0001
0000
0010
0000
,  // measure 4
0001
0000
1000
0001
1000
0000
0010
0000
0100
0010
0100
0000
0001
0100
0001
0000
,  // measure 5
0100
0000
0010
1000
0001
0000
0100
0000
0010
1000
0000
1000
0001
0000
0100
0000
,  // measure 6
0001
0000
0000
0000
1000
0000
0000
0000
0001
0100
0000
0100
0001
0000
1000
0000
,  // measure 7
0010
1000
0010
0100
0001
0000
0000
0000
,  // measure 8
1000
0001
1000
0000
0010
0000
0100
0001
0100
0000
0001
0010
0000
0000
0010
0100
,  // measure 9
0000
0000
0100
1000
0000
0000
1000
0100
0000
0000
0100
0010
0000
0000
0010
0001
,  // measure 10
0000
0000
0001
1000
0100
0000
1000
0000
0001
0000
0010
0001
0000
0000
0001
0100
,  // measure 11
0000
0000
0100
1000
0000
0000
1000
0010
0000
0000
0010
0001
0000
0000
0001
0100
,  // measure 12
0000
0000
0100
0010
1000
0000
0100
0000
0010
0000
0001
1000
0000
0000
1000
0010
,  // measure 13
0000
0000
0010
0001
0000
0000
0001
1000
0000
0000
1000
0100
0000
0000
0100
0001
,  // measure 14
0000
0000
0001
0010
0000
0000
0010
1000
0000
0000
1000
0100
0000
0000
0100
0010
,  // measure 15
0000
0000
0010
0001
0000
0000
0001
0000
1000
0010
1000
0000
0001
0100
0001
0000
,  // measure 16
0010
0100
1000
0000
0001
0000
0010
0000
1000
0000
0010
0000
0000
0000
0100
1000
,  // measure 17
0000
0000
1000
0010
0000
0000
0010
0100
0000
0000
0100
0001
0000
0000
0001
0010
,  // measure 18
0000
0000
0010
0001
1000
0000
0001
0000
0100
0000
0010
0000
0000
0000
1010
0000
,  // measure 19
0000
1001
0000
0101
0000
0110
0000
1010
,  // measure 20
0000
0000
1000
0100
0010
0000
0001
0000
0100
0000
0010
1000
0000
0000
1000
0100
,  // measure 21
0000
0000
0100
0001
0000
0000
0001
0010
0000
0000
0010
1000
0000
0000
1000
0001
,  // measure 22
0000
0101
0000
0110
0000
1001
0000
1100
,  // measure 23
0000
0000
0011
0000
0000
0000
0010
0000
0001
1000
0001
0000
0000
0000
1000
0000
,  // measure 24
1100
0000
0000
0000
0011
0000
0000
0000
1100
0000
0000
0001
0100
0000
0010
0000
,  // measure 25
0100
0000
1000
0000
0100
0000
0000
0000
0101
0000
0000
1001
0000
0000
0010
0000
,  // measure 26
1010
0000
0000
0000
0110
0000
0000
0000
1001
0000
0000
0001
0010
0000
0100
0000
,  // measure 27
0001
0000
0100
0000
2000
0000
0000
0000
3001
0000
0000
1001
0000
0000
1000
0000
,  // measure 28
0100
0000
0100
0000
0001
0000
0001
0000
0100
0000
0000
1000
0100
0000
0010
0000
,  // measure 29
0001
0000
0100
0000
0200
0000
0000
0000
0310
0000
0000
1000
0000
0000
0001
0000
,  // measure 30
1000
0100
0001
1000
0010
0001
1000
0200
,  // measure 31
0000
0000
1300
0000
0001
0000
0000
0000
1001
0000
0000
1010
0000
0000
0001
0000
,  // measure 32
0101
0000
0000
0000
1001
0000
0000
0000
1010
0000
0000
1001
0000
0000
0001
0000
,  // measure 33
1000
0000
0100
0000
0010
0000
0001
0000
1001
0000
0000
1010
0000
0000
0001
0000
,  // measure 34
0110
0000
0000
0000
1100
0000
0000
0000
1001
0000
0000
0101
0000
0000
1000
0000
,  // measure 35
0001
0100
0100
0000
1010
0000
1100
0000
,  // measure 36
1001
0000
0000
0000
0101
0000
0000
0000
0110
0000
0000
1001
0000
0000
0100
0000
,  // measure 37
0001
0000
0010
0000
0200
0000
0000
0000
0301
0000
0000
1100
0000
0000
0001
0000
,  // measure 38
0101
0000
0000
0000
0110
0000
0000
0000
1001
0000
0000
1010
0000
0000
0010
0000
,  // measure 39
1000
0100
0010
0000
1010
0000
0011
0000
,  // measure 40
1001
0000
0000
0000
1010
0000
0000
0000
0011
0000
0000
0010
1000
0000
0001
0000
,  // measure 41
0100
0000
0010
0000
0200
0000
0000
0000
0301
0000
0000
1001
0000
0000
1000
0000
,  // measure 42
0101
0000
0000
0000
1001
0000
0000
0000
0110
0000
0000
1000
0100
0000
0010
0000
,  // measure 43
0001
0000
0100
0000
1000
0000
0000
0000
0100
0000
0000
0101
0000
0000
0001
0000
,  // measure 44
1001
0000
0000
0000
0110
0000
0000
0000
1010
0000
0000
0100
0010
0000
1000
0000
,  // measure 45
0010
0000
0001
0000
0010
0000
0000
0000
1010
0000
0000
0101
0000
0000
0100
0000
,  // measure 46
0110
0000
0000
0000
1001
0000
0000
0000
0110
0000
0000
0001
0010
0000
0100
0000
,  // measure 47
0001
0100
1000
0000
0001
0100
0010
0000
,  // measure 48
2002
0000
0000
0000
,  // measure 49
0000
0000
0000
3003
,  // measure 50
1000
0001
0000
0001
1000
0000
0010
0000
0100
0001
0000
0001
1000
0000
0001
0000
,  // measure 51
0010
0100
0000
0100
0010
0000
0001
0000
1000
0100
0000
0100
1000
0000
0001
0000
,  // measure 52
1000
0000
0010
0100
0010
0000
1000
0000
1002
0000
1003
0000
2100
0000
3100
0010
,  // measure 53
0001
0000
0100
0000
0001
0000
1000
0000
0001
0010
0001
0000
0100
0010
1000
0000
,  // measure 54
0100
0000
0010
0000
0100
0000
0010
0000
0001
0000
0100
0000
0001
1000
0010
0000
,  // measure 55
1000
0000
0010
0000
0100
0000
1000
0000
0100
0000
0010
0000
0001
0000
0010
1000
,  // measure 56
0001
0000
0100
0000
0001
0000
0010
0000
0100
0000
0010
0001
1000
0000
0010
0000
,  // measure 57
0100
0000
2000
0000
0100
3000
0100
0001
0010
0000
0010
0000
0100
0000
0001
0000
,  // measure 58
0100
0010
0001
1000
0001
0000
1000
0000
0010
0000
0001
0000
0010
0000
1000
0001
,  // measure 59
0000
0000
0001
0100
0000
0000
0100
0010
0000
0000
0010
1000
0000
0000
1000
0000
,  // measure 60
0001
0000
0010
0100
1000
0000
0001
0000
0100
0000
1000
0000
0100
0000
0001
0000
,  // measure 61
0100
0000
0010
1000
0001
0000
1000
0100
0000
0000
0100
0010
0000
0000
0010
0001
,  // measure 62
0000
0000
0001
1000
0100
0000
1000
0000
0001
0000
0100
0001
1000
0000
0001
1000
,  // measure 63
0100
0000
0000
0000
0000
0000
0010
0000
0000
0000
0000
0000
0100
0000
0000
0000
0000
0000
1000
0000
0000
0000
0000
0000
0001
0000
0000
0000
0010
0000
0000
0000
0100
0000
0000
0000
1000
0000
0000
0000
0000
0000
0001
0000
0000
1000
0000
0000
,  // measure 64
0001
0000
0100
0010
1000
0000
0001
1000
0010
0000
1000
0001
0100
0000
0001
0100
,  // measure 65
0010
0000
1000
0001
0000
0000
0001
0100
0000
0000
0100
0010
1000
0000
0001
0000
,  // measure 66
1000
0000
0010
0100
1000
0000
0100
0000
0010
0000
0001
0010
1000
0000
0001
0010
,  // measure 67
1000
0000
0010
0000
0001
0000
0100
0010
1000
0000
0100
0010
0001
0000
0010
0000
,  // measure 68
0100
0000
0001
0100
1000
0000
0001
0010
0001
0000
0100
0000
0001
0000
0010
0001
,  // measure 69
0010
0000
0100
1000
0100
0000
0010
0001
1000
0000
0100
1000
0001
0000
1000
0000
,  // measure 70
0100
0000
0010
0001
1000
0000
0100
0000
0001
0000
0100
0000
0010
0000
0001
0010
,  // measure 71
0100
0000
0000
0000
0000
0000
1000
0000
0000
0100
0000
0000
0010
0000
0000
0000
0000
0000
0001
0000
0000
0000
0000
0000
1000
0000
0000
0000
0010
0000
0000
0000
0100
0000
0000
0000
0001
0000
0000
0000
0000
0000
1000
0000
0000
0000
0000
0000
,  // measure 72
0001
0000
1000
0100
0010
0000
0001
0010
0100
0000
1000
0010
0100
0000
0001
0100
,  // measure 73
0010
0000
1000
0100
0001
0000
0001
0100
1000
0000
0001
0100
1000
0000
1000
0100
,  // measure 74
0002
0000
0003
0000
;
