#TITLE:木星~組曲『惑星』より;
#SUBTITLE:;
#ARTIST:PLEIADES PRODUCTION;
#TITLETRANSLIT:JUPITER The Bringer of Jollity;
#SUBTITLETRANSLIT:;
#ARTISTTRANSLIT:;
#GENRE:;
#CREDIT:;
#BANNER:JUPITER The Bringer of Jollity.png;
#BACKGROUND:JUPITER The Bringer of Jollity-bg.png;
#LYRICSPATH:;
#CDTITLE:./CDTITLES/DanceDanceRevolution SuperNOVA2.png;
#MUSIC:JUPITER The Bringer of Jollity.ogg;
#OFFSET:0.000000;
#SAMPLESTART:4.980000;
#SAMPLELENGTH:15.000000;
#SELECTABLE:YES;
#DISPLAYBPM:145.000000;
#BPMS:0.000000=145.160995
,4.000000=144.985001
,30.500000=144.992996
,114.000000=72.494003
,141.000000=145.026993
;
#STOPS:30.500000=0.827000
;
#BGCHANGES:;
#KEYSOUNDS:;
#ATTACKS:;

//---------------dance-single - ----------------
#NOTES:
     dance-single:
     :
     Beginner:
     3:
     0.101234,0.128145,0.018897,0.000000,0.000000,73.000000,2.000000,0.000000,0.000000,0.000000,0.000000,0.101234,0.128145,0.018897,0.000000,0.000000,73.000000,2.000000,0.000000,0.000000,0.000000,0.000000:
0000
0000
0000
0000
,
0000
0000
0000
0000
,
0000
0000
0000
0000
,
1000
0000
0000
0000
,
1000
0000
0000
0000
,
0001
0000
0000
0000
,
0001
1001
0000
0000
,
0000
0000
0000
0000
,
0000
1000
0000
0100
,
0000
0000
0000
0001
,
0000
0001
0000
0100
,
0000
0010
0010
0010
,
0010
0010
0000
0000
,
1000
1000
1000
0000
,
0000
0000
0000
0000
,
0001
0001
0001
0000
,
0000
0000
0000
0000
,
1000
1000
0000
0001
,
0001
0000
0000
0000
,
1000
0000
0000
0000
,
0100
0000
0100
0000
,
0001
0000
0000
0000
,
0100
0000
0010
0000
,
0010
0000
0100
0000
,
0000
0000
1000
0000
,
0000
0000
0001
0000
,
0000
0000
1000
0000
,
1000
0000
0001
0000
,
0001
0000
0000
0000
,
0000
0010
0000
0010
,
0000
0010
0000
0100
,
0000
0100
0000
0000
,
1000
1000
0000
0000
,
0001
0001
0000
0000
,
0010
0010
0000
0000
,
0000
0000
0000
0000
,
0000
0100
0000
0000
,
0000
0010
0000
0000
,
0000
0001
0000
0000
,
0000
1000
0000
0000
,
0000
0100
0000
0010
,
0000
1000
0000
0000
,
0000
0100
0000
0000
,
0000
0001
0000
0000
,
0000
1000
0000
0000
,
0000
0001
0000
0100
,
0000
0000
0000
0010
,
0000
0100
0000
0000
,
0000
1000
0000
1000
,
0000
0000
0000
0001
,
0000
0001
0000
0000
,
0000
1000
0000
0001
,
0000
0000
0000
0010
,
0000
0100
0000
0000
,
0000
1001
0000
0000
,
0000
0000
0000
0000
;

//---------------dance-single - ----------------
#NOTES:
     dance-single:
     :
     Easy:
     4:
     0.171423,0.230661,0.028345,0.047242,0.000000,119.000000,3.000000,5.000000,0.000000,0.000000,0.000000,0.171423,0.230661,0.028345,0.047242,0.000000,119.000000,3.000000,5.000000,0.000000,0.000000,0.000000:
0000
0000
0000
0000
,
0000
0000
0000
0000
,
0000
0000
0000
0000
,
1000
0000
0001
0000
,
0100
0000
0010
0000
,
0100
0100
0000
0000
,
0001
1000
1001
0000
,
0000
0100
0100
0000
,
1000
0000
0000
0001
,
0001
0000
0000
1000
,
0001
0100
0010
0010
,
0100
0010
0100
0020
,
0000
0030
0000
0000
,
1000
1000
0000
0000
,
0100
0100
0000
0000
,
0010
0010
0000
0000
,
0001
0001
0000
0000
,
1000
0001
0000
0000
,
0001
1000
0100
0010
,
0001
1000
1000
0000
,
0010
0100
0100
0000
,
0010
1000
0100
0010
,
0001
1000
0001
1000
,
0001
0000
0001
0010
,
0010
0000
1001
0000
,
0000
0000
1000
0000
,
0000
0000
1000
0000
,
0000
0000
2002
0000
,
0000
3003
0100
0000
,
0000
0010
0000
1000
,
0001
0000
1000
0100
,
0000
0010
0002
0000
,
0000
1003
0000
0001
,
0100
0000
0010
0000
,
0000
1000
0001
0000
,
0000
0100
0000
0100
,
0010
1000
0100
0001
,
1000
0001
0000
0100
,
0000
0010
1000
0000
,
0000
0100
0000
0020
,
0000
0000
0000
0031
,
0000
1000
0001
0100
,
0010
1000
0000
0000
,
0000
1000
0000
1000
,
0000
0001
0000
0100
,
0000
0010
0000
1000
,
0000
1000
0000
0000
,
0000
1000
0100
1000
,
0000
0010
0000
0010
,
0000
0100
0000
0001
,
0100
0001
0000
0010
,
0000
0010
1000
0100
,
0000
0010
0001
1000
,
0100
0010
0000
0001
,
0000
1000
0000
0000
,
0000
0000
0000
0000
;

//---------------dance-single - ----------------
#NOTES:
     dance-single:
     :
     Medium:
     8:
     0.344195,0.336248,0.207867,0.094485,0.018897,223.000000,22.000000,10.000000,0.000000,0.000000,0.000000,0.344195,0.336248,0.207867,0.094485,0.018897,223.000000,22.000000,10.000000,0.000000,0.000000,0.000000:
0000
0000
0000
0000
,
0000
0000
0000
0000
,
0000
0000
0000
0000
,
1000
0001
0100
0010
,
0100
0100
0010
1000
,
0100
0010
0001
1000
,
0010
0000
1000
0001
0000
0100
0000
0010
,
0100
0000
1000
0001
0100
0010
1000
0000
,
1000
1000
1000
0000
,
1000
0000
0100
0000
0010
0000
0001
1000
,
0001
0000
0100
0000
0010
0100
0010
0000
,
1000
0000
0001
0100
0010
0000
0000
0000
,
0010
1000
0100
0000
0010
0000
0001
0000
,
1000
0001
1000
0001
,
0100
0010
0001
0100
,
0010
0010
1000
1000
,
0100
0010
0001
1000
,
0010
1000
0100
0000
0010
0001
0100
0000
,
0010
1000
1000
0001
,
0101
0010
1000
0100
,
1100
0010
0001
0100
,
0001
0100
0100
0100
,
0010
1000
1100
0010
,
0001
0100
1001
0010
,
0010
0010
1001
0100
,
0100
0100
1001
0100
,
0100
0100
1010
0100
,
0011
0100
1001
1100
,
0101
1100
0100
0001
,
1000
2000
0100
3200
,
0000
0320
0000
0031
,
1000
0001
0200
0000
,
0310
0020
1000
2030
,
0000
3200
0000
0310
,
0001
0000
1000
0000
0100
0000
0000
0010
,
0100
0001
1000
0100
0010
0000
0001
1000
,
0001
0001
0100
1000
,
0100
0000
0001
0100
1000
0000
0001
0100
,
1000
0001
1000
0010
,
0010
0000
1000
0001
1000
0000
0101
0000
,
0010
0100
0001
0000
1001
0000
1100
0000
,
0001
0000
1000
0100
0010
0000
0001
0100
,
1000
1100
0011
0100
,
0100
0000
1000
0100
0001
0000
1000
0100
,
0001
1000
1100
0010
,
0010
1001
0000
0010
,
0100
1001
1100
0010
,
0100
0000
0000
0000
0001
0000
0000
0100
1000
0000
0000
0000
0001
0000
0000
0100
,
1000
0001
1000
0100
,
0100
0000
0010
0100
0010
0000
0001
1000
,
0001
0000
0000
0000
1000
0000
0000
0100
0001
0000
0000
0000
1000
0000
0000
0100
,
0001
1000
0001
0100
,
0100
1001
0010
1000
,
0100
0200
0000
0320
,
0000
0032
0003
1000
,
0000
0000
0000
0000
;

//---------------dance-single - ----------------
#NOTES:
     dance-single:
     :
     Hard:
     10:
     0.422483,0.387979,0.103933,0.103933,0.056691,291.000000,11.000000,11.000000,0.000000,0.000000,0.000000,0.422483,0.387979,0.103933,0.103933,0.056691,291.000000,11.000000,11.000000,0.000000,0.000000,0.000000:
// measure 0
0000
0000
0000
0000
,  // measure 1
0000
0000
0000
0000
,  // measure 2
0000
0000
0000
0000
,  // measure 3
0001
1000
0100
0010
,  // measure 4
0001
1000
0001
1000
,  // measure 5
0001
0001
0100
0010
,  // measure 6
0010
0000
1000
0001
0000
0100
0000
0010
,  // measure 7
0100
0000
1000
0001
1100
0110
0001
0000
,  // measure 8
0001
0001
0001
1000
,  // measure 9
1000
0000
1000
0000
1000
0000
0001
0100
,  // measure 10
0010
1000
0001
1000
0100
0010
0001
1000
,  // measure 11
0010
0100
0010
0000
1000
0001
0100
0000
,  // measure 12
0010
0100
0002
0000
0000
0000
0003
0000
,  // measure 13
1000
0100
0001
0101
,  // measure 14
0001
0100
1000
1100
,  // measure 15
0010
0000
0010
0000
1000
0001
1000
0000
,  // measure 16
0100
0000
0100
0000
0010
1000
0100
0000
,  // measure 17
0010
0001
0100
0000
0010
1000
0001
0000
,  // measure 18
0010
0001
0100
0000
0110
0000
0101
0000
,  // measure 19
1000
0010
0100
0000
1001
0000
1100
0000
,  // measure 20
0010
0001
0100
0000
1010
0000
0110
0000
,  // measure 21
0001
1000
0100
0000
0010
0100
0000
1000
,  // measure 22
0000
1000
0100
0010
0001
1000
0001
0000
,  // measure 23
0100
0010
0000
0010
0001
0100
1000
0000
,  // measure 24
0100
0010
0000
0010
1000
0100
0001
0000
,  // measure 25
1000
0100
0001
0000
1000
0100
0001
0100
,  // measure 26
1000
0010
0000
0010
0001
0100
1000
0100
,  // measure 27
0010
1000
0001
0100
1000
0100
0001
1000
,  // measure 28
0100
0010
0000
0010
2001
0000
0100
0000
,  // measure 29
3001
0020
0001
0032
,  // measure 30
0000
2003
0100
3200
,  // measure 31
0010
0301
2000
0000
,  // measure 32
3000
0002
0100
0203
,  // measure 33
0010
0301
2000
0000
,  // measure 34
3010
1000
0200
0000
,  // measure 35
0310
0001
1000
0100
0001
0100
1000
0100
,  // measure 36
0001
0100
1000
0100
0001
0100
1000
0010
,  // measure 37
0000
0010
0001
0100
1000
0100
0001
0100
,  // measure 38
1000
0100
0001
0100
1000
0100
0001
0000
,  // measure 39
0010
0001
0100
0000
0010
1000
0100
0000
,  // measure 40
0010
0010
0001
1000
0001
1000
0100
0010
,  // measure 41
0000
0010
0001
0100
0001
0010
0001
0100
,  // measure 42
0001
0010
1000
0001
1000
0001
0100
0010
,  // measure 43
0000
0010
0001
0010
1000
0100
0010
0100
,  // measure 44
0001
0100
0001
0001
0010
0100
1000
0010
,  // measure 45
0000
0010
1000
0010
0001
0100
0010
0100
,  // measure 46
1000
0100
1000
1000
0010
0100
0001
0010
,  // measure 47
0000
0000
0010
0000
1000
0000
0000
1000
0100
0000
0000
0000
0100
0000
0000
0100
,  // measure 48
1000
0000
0000
0000
0010
0000
0000
0010
1000
0000
0000
0000
0001
0000
0000
0001
,  // measure 49
1000
0000
0000
0000
0100
0000
0000
0100
1000
0000
0000
0000
0000
0000
0001
0000
,  // measure 50
0000
0000
1000
0000
0001
0000
0000
0001
0100
0000
0000
0000
0100
0000
0000
0100
,  // measure 51
0001
0000
0000
0000
0010
0000
0000
0010
0001
0000
0000
0000
1000
0000
0000
1000
,  // measure 52
0001
0000
0000
0000
0100
0000
0000
0100
0001
0000
0000
0000
0000
0000
0010
0000
,  // measure 53
0000
0000
0010
0000
1000
0000
0000
1000
0001
0000
0000
0000
0001
0000
0000
0001
,  // measure 54
1000
0001
0100
0010
;

//---------------dance-double - ----------------
#NOTES:
     dance-double:
     :
     Easy:
     5:
     0.202468,0.206922,0.132279,0.000000,0.000000,136.000000,14.000000,0.000000,0.000000,0.000000,0.000000,0.202468,0.206922,0.132279,0.000000,0.000000,136.000000,14.000000,0.000000,0.000000,0.000000,0.000000:
00000000
00000000
00000000
00000000
,
00000000
00000000
00000000
00000000
,
00000000
00000000
00000000
00000000
,
10010000
00000000
00000000
00000000
,
00010000
00001000
00000001
00000000
,
00001001
00000000
00001000
00010000
,
10000000
00000000
10010000
00000000
00000000
01000000
00000000
00000000
,
01000000
00100000
01000000
00001000
,
00010000
00001000
00000000
00010000
,
00001000
00010000
00000000
00100000
,
10000000
01000000
00100000
00010000
,
01000000
00010000
00001000
00000010
,
00000001
00000100
00001000
00001000
,
00000001
00000000
00000100
00000000
,
00001000
00001000
00000000
00100000
,
10000000
00000000
01000000
00000000
,
00010000
00010000
00000000
00000010
,
00000001
00000000
00000100
00000010
,
00001000
00000100
00000100
00000100
,
00000001
00000000
00000100
00000000
,
00000010
00001000
00010000
01000000
,
10000000
00000000
01000000
00000000
,
00100000
00010000
00001000
00000100
,
00000001
00000000
00001000
00000100
,
00000001
00000000
00000110
00000000
,
00000000
00000000
00011000
00000000
,
00000000
00000000
01100000
00000000
,
00000000
00000000
10010000
00000000
,
00000000
00000000
10010000
01000000
,
00000000
00010000
00000000
00001000
,
00000000
00010000
00000000
01000000
,
00000000
00100000
00010000
00000000
,
00000000
00001000
00000000
00010000
,
00000000
00001000
00000000
00000100
,
00000000
00000010
00001000
00000000
,
00000000
00000001
00000100
00001000
,
00000000
00000100
00001000
00010000
,
00000000
00001000
00010000
01000000
,
00000000
10000000
00100000
00010000
,
01000000
10000000
00000000
01000000
,
00000000
00010000
00000000
01000000
,
00000000
10000000
01000000
00010000
,
00000000
01000000
00010000
00001000
,
00000000
00010000
00001000
00000100
,
00000000
00000001
00000010
00001000
,
00000100
00000001
00000000
00000100
,
00000000
00000100
00000000
00001001
,
00001001
00000001
00000000
00000100
,
00000000
00001000
00000000
00010000
,
00000000
01000000
00000000
10010000
,
10010000
10000000
00000000
01000000
,
00000000
00010000
00000000
00001000
,
00000000
00000100
00000000
00001001
,
00001001
00000010
00000000
00010000
,
00000000
01000000
00000000
10000000
,
00000000
00000000
00000000
00000000
;

//---------------dance-double - ----------------
#NOTES:
     dance-double:
     :
     Medium:
     9:
     0.346895,0.362113,0.141727,0.037794,0.018897,238.000000,15.000000,4.000000,0.000000,0.000000,0.000000,0.346895,0.362113,0.141727,0.037794,0.018897,238.000000,15.000000,4.000000,0.000000,0.000000,0.000000:
00000000
00000000
00000000
00000000
,
00000000
00000000
00000000
00000000
,
00000000
00000000
00000000
00000000
,
10000000
01000000
00100000
00010000
,
01000000
00001000
00000100
00000010
,
00000001
00001000
00100000
01000000
,
00010000
00000000
10000000
00100000
00000000
01000000
00000000
00001000
,
00010000
00000000
00000100
00000010
00000001
00001000
00000001
00000000
,
00000010
00000010
00000010
00001000
,
00100000
10000000
10000000
00010000
,
00010000
10000000
00010000
00000000
01000000
00000000
01000000
00100000
,
10000000
00010000
00000100
00000010
,
00001000
00000000
00001000
00000000
00000001
00000100
00000010
00000000
,
00001000
00100000
10000000
00010000
,
01000000
00000000
01000000
00000000
00100000
10000000
00010000
00000000
,
01000000
00001000
00000010
00000001
,
00001000
00000001
00001000
00000000
00000100
00000010
00001000
00000000
,
00000110
00000000
00000001
00001000
00000100
00000000
00001100
00000000
,
00011000
01000000
00010000
01000000
,
01100000
10000000
01000000
00100000
,
00010000
00000000
00000100
00000000
00000010
00000000
00001000
00000001
,
00000100
00000010
00010000
00001000
,
01000000
00000000
00100000
01000000
00010000
00000000
10000000
00000000
,
10000000
01000000
00100000
00001000
,
00000100
00000000
00000001
00000000
00000110
00000000
00001000
00000001
,
00000100
00000010
00011000
00010000
,
01100000
00000000
00010000
10000000
00010000
00000000
11000000
00000000
,
01100000
00000000
00001000
00010000
00001000
00000000
00000100
00000000
,
00000001
00000100
00011000
00100000
,
10000000
02000000
00000000
03100000
,
00000000
00001000
00000000
00000100
,
00000010
00000100
00000002
00000000
,
00001003
00000020
00000000
00010030
,
00000000
02000000
00000000
13000000
,
00000000
00100000
10000000
01000000
,
00010000
00000000
10000000
01000000
00010000
00000000
10000000
01000000
,
00010000
00000000
00001000
00010000
00001000
00000000
00000100
00000000
,
00000100
00000000
00000001
00000100
00001000
00000000
00000001
00000100
,
00001000
00000000
00000010
00001000
00000100
00010000
00100000
00000000
,
00100000
00000000
10000000
00010000
01000000
00000000
00100000
00000000
,
00100000
00000000
10000000
00010000
01000000
00100000
10000000
00000000
,
11000000
00000000
00010000
01000000
10000000
00000000
00010000
01000000
,
10000000
00000000
01100000
00000000
10000000
00010000
01000000
00100000
,
11000000
00000000
00100000
00001000
00000100
00000000
00000001
00001000
,
00000100
00000010
00000001
00000000
00001100
00000000
00000010
00000000
,
00000010
00000000
00010000
00001000
00010000
01000000
00100000
01000000
,
00100000
00010000
11000000
00100000
,
00010000
00000000
00000000
00000000
10000000
00000000
00000000
10000000
01000000
00000000
00000000
00000000
00010000
00000000
00000000
00010000
,
01000000
00001000
00001000
00010000
,
00000000
00000100
00000000
00000001
,
00001000
00000000
00000000
00000000
00000001
00000000
00000000
00000001
00000100
00000000
00000000
00000000
00001000
00000000
00000000
00001000
,
00000100
00010000
00010000
00001000
,
00000000
01000000
00000000
00010000
,
10000000
00010000
01000000
00000000
00100000
01000000
00001000
00000000
,
00000010
00000100
00000010
00000000
00001000
00000000
00000100
00000000
,
00000000
00000000
00000000
00000000
;

//---------------dance-double - ----------------
#NOTES:
     dance-double:
     :
     Hard:
     12:
     0.403586,0.413844,0.009448,0.103933,0.056691,287.000000,1.000000,11.000000,0.000000,0.000000,0.000000,0.403586,0.413844,0.009448,0.103933,0.056691,287.000000,1.000000,11.000000,0.000000,0.000000,0.000000:
00000000
00000000
00000000
00000000
,
00000000
00000000
00000000
00000000
,
00000000
00000000
00000000
00000000
,
10000000
10000000
00010000
01000000
,
00001000
00001000
00000010
00000001
,
00000100
00000000
00000010
00000000
00001000
00000001
00000100
00000000
,
00000010
00000000
00001000
00100000
00000000
10000000
00000000
01000000
,
00100000
00000000
00010000
10000000
00010000
01000000
00001000
00000000
,
00000010
00000001
00000100
00000010
,
00010000
00000000
00100000
00000000
10000000
00000000
01000000
00010000
,
00000010
00001000
00000001
00000100
00000010
00010000
00001000
00010000
,
00100000
01000000
00010000
10000000
01000000
00100000
01000000
00010000
,
10000000
00010000
00200000
00000000
00000000
00000000
00300000
00000000
,
00010000
00000000
00000100
00000000
00000010
00001000
00000001
00000000
,
00000100
00000001
00001000
00000010
,
00001000
00000000
00000100
00000000
00000010
00000000
00010000
00001000
,
01000000
00100000
10000000
01000000
,
00100000
00000000
00100000
00000000
00001000
00100000
00001000
00000000
,
00000010
00000001
00000000
00000100
00000001
00001000
00000010
00000000
,
00000100
00000001
00001000
00000000
00000100
00000010
00000000
00001000
,
00100000
01000000
00100000
00000000
10000000
00010000
00000000
10000000
,
00100000
01000000
00010000
00000000
00100000
00010000
00000000
00001000
,
00000000
00000100
00000001
00000100
00000010
00010000
00100000
00000000
,
01000000
00100000
00000000
00100000
10000000
00010000
00000010
00000000
,
00000001
00001000
00000000
00000001
00000100
00000010
00010000
00000000
,
00001000
01000000
00100000
00000000
10000000
00010000
10000000
01000000
,
00100000
00001000
00000100
00000000
00000001
00001000
00000010
00010000
,
00001000
00100000
01000000
10000000
00010000
10000000
00010000
01000000
,
00100000
10000000
00000000
00000000
00020000
00000000
10000000
00000000
,
01030000
00200000
01000000
02300000
,
00000000
03002000
00000010
00003020
,
00000001
00000130
00000200
00000000
,
00000300
00002000
00000010
00003020
,
00000100
00001030
00020000
00000000
,
00130000
10000000
02000000
00000000
,
03100000
00001000
00000010
00000100
00001000
00000010
00010000
00000100
,
00001000
00100000
10000000
00100000
00010000
10000000
01000000
00100000
,
00000000
00100000
00010000
01000000
10000000
01000000
00010000
01000000
,
00001000
00000010
00000100
00000001
00001000
00000010
00000100
00000010
,
00000000
00000010
00000001
00000000
00000100
00000000
00001000
01000000
,
00100000
00000000
10000000
00000000
00010000
00000000
01000000
00100000
,
00000000
00100000
00010000
01000000
10000000
01000000
00010000
01000000
,
00010000
00001000
00000100
00000010
00001000
00000001
00000100
00000010
,
00000000
00000010
00001000
00000100
00000001
00000100
00001000
00000100
,
00101000
00000000
01000000
00010000
10000000
00100000
01000000
00100000
,
00000000
00100000
10000000
00000000
01000000
00000000
00010000
00000010
,
00000100
00000000
00000001
00000000
00001000
00000000
01000000
00100000
,
00000000
00000000
00100000
00000000
00010000
00000000
00000000
00010000
01000000
00000000
00000000
00000000
00001000
00000000
00000000
00001000
,
00010000
00000000
00000000
00000000
00000010
00000000
00000000
00000010
00001000
00000000
00000000
00000000
00000001
00000000
00000000
00000001
,
00000010
00000000
00000000
00000000
00000100
00000000
00000000
00000100
00001000
00000000
00000000
00000000
00000100
00000000
00000010
00000000
,
00000000
00000000
00000010
00000000
00001000
00000000
00000000
00001000
00000100
00000000
00000000
00000000
00010000
00000000
00000000
00010000
,
00001000
00000000
00000000
00000000
00100000
00000000
00000000
00100000
00010000
00000000
00000000
00000000
10000000
00000000
00000000
10000000
,
00100000
00000000
00000000
00000000
01000000
00000000
00000000
01000000
00010000
00000000
00000000
00000000
01000000
00000000
00100000
00000000
,
00000000
00000000
00100000
00000000
10000000
00000000
00000000
10000000
00010000
00000000
00000000
00000000
00001000
00000000
00000000
00001000
,
00010000
00100000
00000000
01000000
,
00000000
00000000
00000000
00000000
;

//---------------dance-single - ----------------
#NOTES:
     dance-single:
     :
     Challenge:
     11:
     0.527766,0.626435,0.085036,0.566909,0.155900,322.000000,9.000000,60.000000,0.000000,0.000000,0.000000,0.527766,0.626435,0.085036,0.566909,0.155900,322.000000,9.000000,60.000000,0.000000,0.000000,0.000000:
// measure 0
0000
0000
0000
0000
,  // measure 1
0000
0000
0000
0000
,  // measure 2
0000
0000
0000
0000
,  // measure 3
1000
0000
0001
0000
0000
0000
0000
0001
0000
0000
0000
0000
0010
0000
0100
0000
,  // measure 4
0010
0000
1000
0001
1000
0000
0100
0000
,  // measure 5
0001
0000
0100
0000
1000
0002
0000
2003
,  // measure 6
0000
3000
0010
0110
0000
1001
0000
1000
,  // measure 7
0100
0000
1000
0100
0010
1001
0001
0100
,  // measure 8
0020
0030
1000
0001
0200
0300
0001
0100
,  // measure 9
1000
0010
1000
0100
0001
1000
0010
1000
,  // measure 10
0001
0100
0010
0110
0000
1000
0010
0100
,  // measure 11
0010
1000
0001
0100
0010
0010
1000
1000
,  // measure 12
0100
0100
0020
0000
0000
0000
0000
0000
,  // measure 13
0031
0100
1000
0200
0000
0301
0010
0100
,  // measure 14
0001
0100
2000
0000
0000
0000
3100
0010
,  // measure 15
0200
0000
0000
0301
1000
0100
1000
0010
,  // measure 16
0100
0100
0002
0000
0000
0000
1003
1000
,  // measure 17
0020
0000
0030
0100
0100
0001
1000
0001
,  // measure 18
0100
0010
0020
0000
0000
0000
0030
0000
,  // measure 19
1000
0100
0001
0200
0000
1300
0020
0000
,  // measure 20
1030
0001
1000
0001
1000
0000
0000
0000
0020
0000
0000
0000
1030
0000
0002
0000
,  // measure 21
0000
0203
0000
0320
,  // measure 22
2030
0000
3200
0000
0310
0010
0000
0101
,  // measure 23
0000
0000
0001
0000
2000
0000
0000
0000
3010
0100
0010
0100
0010
0000
0000
1000
,  // measure 24
0100
0000
1000
1001
0001
0100
0002
0003
,  // measure 25
0001
0100
2000
0000
3001
0100
0010
0100
,  // measure 26
0001
2000
0000
3000
0001
0100
0010
0100
,  // measure 27
0010
1000
0001
1000
0001
0100
0010
1000
,  // measure 28
0100
0010
0001
1000
1001
0000
0020
0000
,  // measure 29
0230
0000
0302
0000
1003
0010
0200
0300
,  // measure 30
0001
1000
0002
0000
0203
0000
0320
2030
,  // measure 31
3200
0320
0032
0000
,  // measure 32
0203
0320
2030
0000
3002
0203
0302
0000
,  // measure 33
2003
3020
0230
0000
0302
0000
2003
3200
,  // measure 34
0320
0032
2003
0000
,  // measure 35
3001
0001
2001
0000
3010
0100
0010
1000
,  // measure 36
0010
0000
0100
0000
0001
0000
0000
0001
1000
0000
0010
0000
0100
0000
0010
0000
,  // measure 37
1000
0000
0001
0000
0100
0000
0000
0100
0010
0000
0000
0000
1000
0000
0001
0000
,  // measure 38
1000
0000
0000
0000
1000
0000
0100
0000
0001
0000
0010
0000
0001
0000
0000
0100
,  // measure 39
1000
0000
0001
0000
1000
0000
0000
1000
0010
0000
0100
0000
0001
0000
0000
0010
,  // measure 40
0001
0000
0100
0000
1000
0000
0000
0100
0001
0000
0010
0000
0100
0000
0001
0000
,  // measure 41
0100
0000
1000
0000
0010
0000
0000
0010
0100
0000
0000
0100
0001
0000
0000
0001
,  // measure 42
0010
0000
0000
0010
1000
0000
0000
1000
0010
0000
0000
0010
0100
0000
0000
0100
,  // measure 43
1000
0000
0000
1000
0001
0000
0000
0000
0001
0000
0010
0000
0001
0000
0000
0000
,  // measure 44
0100
0010
0100
0000
0001
1000
0001
0100
,  // measure 45
0010
0000
1000
0000
0010
0000
0100
0000
0001
0000
0010
0000
0001
0000
0000
0001
,  // measure 46
1000
0000
0010
0000
1000
0001
0000
0100
0001
0000
0001
0000
2000
0000
0000
0000
,  // measure 47
3020
0000
0000
0000
0130
0000
0000
0100
0010
0000
1000
0000
0001
0000
0000
0001
,  // measure 48
0100
0000
0010
0000
1000
0000
0000
1000
0100
0000
0010
0000
0001
0000
0000
0001
,  // measure 49
0100
0000
0010
0000
1000
0000
0000
1000
0001
0000
0100
0000
2000
0000
0000
0000
,  // measure 50
3200
0000
0000
0000
0301
0000
0000
0001
0100
0000
1000
0000
0100
0000
0000
0100
,  // measure 51
0001
0000
0010
0000
1000
0000
0000
1000
0010
0000
0001
0000
0010
0000
0000
0010
,  // measure 52
0100
0000
1000
0000
0100
0000
0000
0100
0010
0000
0000
0000
1002
0000
0000
0000
,  // measure 53
2003
3020
0100
0230
,  // measure 54
0001
0302
1000
2003
,  // measure 55
0000
3000
0000
0000
;
