#TITLE:Illegal Function Call;
#SUBTITLE:;
#ARTIST:U1-ASAMi;
#TITLETRANSLIT:;
#SUBTITLETRANSLIT:;
#ARTISTTRANSLIT:;
#GENRE:;
#CREDIT:;
#BANNER:Illegal Function Call.png;
#BACKGROUND:Illegal Function Call-bg.png;
#LYRICSPATH:;
#CDTITLE:;
#MUSIC:Illegal Function Call.ogg;
#OFFSET:0.000000;
#SAMPLESTART:88.614998;
#SAMPLELENGTH:15.000000;
#SELECTABLE:YES;
#DISPLAYBPM:130.000000:260.000000;
#BPMS:0.000000=260.000000
,88.000000=130.000000
,104.000000=260.000000
,168.000000=130.000000
,192.000000=260.000000
;
#STOPS:
;
#BGCHANGES:;
#KEYSOUNDS:;
#ATTACKS:;

//---------------dance-single - ----------------
#NOTES:
     dance-single:
     :
     Beginner:
     4:
     0.159382,0.290439,0.016169,0.040423,0.000000,138.000000,136.000000,2.000000,5.000000,0.000000,0.000000,0.159382,0.290439,0.016169,0.040423,0.000000,138.000000,136.000000,2.000000,5.000000,0.000000,0.000000:
0000
0000
0000
0000
,
0000
0000
0000
0000
,
0000
0000
0000
0000
,
0000
0000
0000
0000
,
0000
0000
0000
0000
,
0000
0000
0000
0000
,
0000
0000
0000
0000
,
0000
0000
0000
0000
,
0000
0000
0000
0000
,
0000
0000
0000
0000
,
1000
0000
0000
0000
,
1000
0000
0000
0000
,
0001
0000
0010
0000
,
0001
0000
0000
0000
,
0001
0000
0000
0000
,
0001
0000
0000
0000
,
0001
0000
1000
0000
,
0100
0000
0000
0000
,
1000
0000
0000
0000
,
0001
0000
0000
0000
,
0010
0000
0010
0000
,
0010
0000
0000
0000
,
1000
0000
0001
0000
,
1000
1000
1000
0000
,
0100
0000
0100
0000
,
0010
0010
0010
0000
,
0010
0000
0000
0000
,
0000
0000
0000
0000
,
0001
0000
0000
0000
,
0000
0000
0000
0000
,
1000
0000
1000
0000
,
0010
0000
0010
0000
,
0001
0000
0000
0000
,
0000
0000
0000
0000
,
0001
0000
0000
0000
,
0010
0000
0000
0000
,
1000
0000
0000
0000
,
0010
0000
0000
0000
,
0001
0000
0000
0000
,
0100
0000
0000
0000
,
1000
0000
0000
0000
,
0100
0000
0000
0000
,
0001
0000
1000
0000
,
0001
0001
0001
0000
,
0100
0000
0100
0000
,
0010
0010
0010
0000
,
0200
0000
0000
0000
,
0000
0000
0000
0300
,
1000
0000
0000
0000
,
0001
0000
0000
0000
,
1000
0000
0000
0000
,
0001
0000
0000
0000
,
0001
0000
0001
0000
,
0001
0000
0000
0000
,
0100
0000
0100
0000
,
0100
0000
0000
0000
,
1000
0000
1000
0000
,
1000
0000
0000
0000
,
0010
0000
0010
0000
,
0010
0000
0000
0000
,
0001
0000
0000
0000
,
1000
0000
0000
0000
,
0001
0000
0000
0000
,
1000
0000
1000
0000
,
1000
0000
0000
0000
,
0001
0000
0000
0000
,
1000
0000
1000
0000
,
1000
0000
0000
0000
,
0000
0000
1000
0000
,
0000
0000
0010
0000
,
0000
0000
0001
0000
,
0000
0000
0010
0000
,
1000
0000
0000
0000
,
1000
0000
1000
0000
,
0001
0000
0000
0000
,
0001
0000
0001
0000
,
1000
0000
1000
0000
,
0100
0000
0100
0000
,
0010
0000
0010
0000
,
0010
0000
0010
0000
,
2002
0000
0000
0000
,
0000
0000
0000
0000
,
0000
0000
0000
3003
,
0000
0000
0000
0000
,
0000
0000
0000
0000
,
0000
0000
0000
0000
,
1000
0000
1000
0000
,
1000
0000
0000
0000
,
0001
0000
0001
0000
,
0001
0000
0000
0000
,
0010
0000
0000
0000
,
1000
0000
0000
0000
,
0010
0000
0000
0000
,
0001
0000
0000
0000
,
0001
0000
0001
0000
,
0001
0000
0000
0000
,
1000
0000
1000
0000
,
1000
0000
0000
0000
,
0010
0000
0000
0000
,
0001
0000
0000
0000
,
0010
0000
0000
0000
,
1000
0000
0000
0000
,
0001
0001
0000
0000
,
0000
0000
0000
0000
,
0010
0010
0000
0000
,
0000
0000
0000
0000
,
1000
1000
0000
0000
,
0000
0000
0000
0000
,
0100
0000
0000
0000
,
0100
0000
0000
0000
,
1000
1000
0000
0000
,
0000
0000
0000
0000
,
0010
0010
0000
0000
,
0000
0000
0000
0000
,
0010
0000
0010
0000
,
0001
0000
0001
0000
,
0100
0000
0100
0000
,
0100
0000
0000
0000
,
2002
0000
0000
0000
,
0000
0000
0000
3003
;

//---------------dance-single - ----------------
#NOTES:
     dance-single:
     :
     Easy:
     10:
     0.437723,0.580878,0.145523,0.040423,0.000000,379.000000,361.000000,18.000000,5.000000,0.000000,0.000000,0.437723,0.580878,0.145523,0.040423,0.000000,379.000000,361.000000,18.000000,5.000000,0.000000,0.000000:
0000
0000
0000
0000
,
0000
0000
0000
0000
,
0000
0000
0000
0000
,
0000
0000
0000
0000
,
0000
0000
0000
0000
,
0000
0000
0000
0000
,
0000
0000
0000
0000
,
0000
0000
0000
0000
,
0000
0000
0000
0000
,
0000
0000
0000
0000
,
1000
1000
0010
1000
,
0100
1000
0001
0010
,
0001
0001
0010
0100
,
1000
0100
1000
0000
,
0001
0001
0010
0001
,
0100
0001
1000
0010
,
1000
1000
0010
0100
,
0001
0100
0001
0000
,
1000
1000
0010
1000
,
0100
1000
0001
0010
,
0000
0010
0000
0000
0010
0000
0000
0000
,
0010
0001
0001
0000
,
1000
0010
0001
0010
,
1000
0100
0001
0100
,
1000
0010
0001
0010
,
1000
0100
0001
0110
,
0100
0100
1000
0001
,
0010
0100
1000
0000
,
0001
0001
0010
0100
,
1000
0001
0100
0000
,
0010
1000
0010
0000
,
0100
0001
0100
0000
,
1000
0001
0100
0000
,
1000
0100
0010
0000
,
1001
0000
1001
0110
,
0000
0110
0011
0000
,
0011
0010
0001
0010
,
0001
1000
0001
0000
,
1001
0000
1001
0110
,
0000
0110
1100
0000
,
1100
1000
0100
1000
,
0010
0100
0001
0010
,
0001
0100
1000
0100
,
0001
0010
1000
0010
,
0001
0100
1000
0100
,
0001
0010
1000
0110
,
0200
0000
0000
0000
,
0000
0000
0000
0300
,
1000
0100
0010
0001
,
0001
0100
0010
1000
,
1000
0001
1000
0010
,
0100
0001
1000
0001
,
0001
1000
0100
0010
,
0100
1000
0100
1000
,
1000
0100
1000
0010
,
1000
0100
1000
1000
,
0001
0001
1000
0100
,
1000
0001
1000
0001
,
0001
1000
0100
1000
,
0001
1000
0100
0010
,
0001
1000
1000
1000
,
0010
0010
0010
0000
,
0001
0001
0001
0001
,
0010
0010
0010
0000
,
1000
1000
1000
1000
,
0100
0100
0100
0100
,
0001
0001
0001
0001
,
0100
0100
0100
0000
,
0000
1000
0001
1000
,
0100
1000
0010
0100
,
0000
0010
1000
0100
,
0010
0001
1000
0100
,
0000
0001
0010
0100
,
1000
0001
1000
0010
,
0000
1000
0001
0010
,
0001
1000
0100
0010
,
0001
0010
0100
1000
,
0100
1000
0010
0100
,
0001
0010
0001
1000
,
0010
0100
0001
1000
,
2002
0000
0000
0000
,
0000
0000
0000
0000
,
0000
0000
0000
3003
,
0000
0000
0000
0000
,
0000
0000
0000
0000
,
0000
0000
0000
0000
,
1000
0010
1000
0001
,
1000
0100
1000
0010
,
0100
0010
1000
0001
,
1000
0001
0100
0000
,
0010
0000
1000
0010
,
0000
0100
0010
0000
,
0001
0010
0000
0100
,
0001
0100
0010
1000
,
0001
0010
0001
1000
,
0001
0100
0001
0010
,
0100
0010
0001
1000
,
0001
1000
0100
0000
,
0010
0000
0001
0010
,
0000
0100
0010
0000
,
1000
0010
0000
0100
,
1000
0100
0010
0001
,
0000
0001
1000
0100
,
0010
0100
1000
0010
,
0000
1000
0010
0001
,
0010
1000
0000
0100
,
1000
1000
0001
0001
,
1000
0010
0100
0001
,
1000
0001
0100
0001
,
0100
0010
0100
0000
,
1000
0100
1000
0100
,
0010
0001
0010
0000
,
1000
0001
0100
0001
,
0100
0010
0100
0001
,
1000
0100
0001
0100
,
0010
0001
0100
1000
,
0100
0001
0100
0010
,
1001
0000
0110
0000
,
2002
0000
0000
0000
,
0000
0000
0000
3003
;

//---------------dance-single - ----------------
#NOTES:
     dance-single:
     :
     Medium:
     13:
     0.563612,0.822911,0.088931,0.064677,0.008085,488.000000,477.000000,11.000000,8.000000,0.000000,0.000000,0.563612,0.822911,0.088931,0.064677,0.008085,488.000000,477.000000,11.000000,8.000000,0.000000,0.000000:
0000
0000
0000
0000
,
0000
0000
0000
0000
,
0000
0000
0000
0000
,
0000
0000
0000
0000
,
0000
0000
0000
0000
,
0000
0000
0000
0000
,
0000
0000
0000
0000
,
0000
0000
0000
0000
,
0000
0000
0000
0000
,
0000
0000
0000
0000
,
1000
1000
0010
1000
,
0100
0000
1000
0000
0001
0000
0010
0001
,
0100
0001
0010
0100
,
1000
0000
0100
0000
1000
0000
0100
1000
,
0001
0001
0010
0001
,
0100
0000
0001
0000
1000
0000
0010
1000
,
0100
1000
0010
0100
,
0001
0000
0100
0000
0001
0000
0100
0001
,
1000
1000
0010
1000
,
0100
0000
1000
0000
0001
0000
0010
0001
,
0010
0001
0000
0010
0000
0100
0000
1000
,
0000
0100
0000
0010
0000
0001
0000
1000
,
0001
0000
0000
0110
0000
0000
1000
0010
,
0001
0000
0000
0110
0000
0000
1000
0000
,
1010
0000
0000
0110
0000
0000
0001
0010
,
1000
0000
0000
0110
0000
1000
0100
0000
,
1000
0100
0000
1000
0000
0001
0000
0010
,
0000
0100
0000
1000
0000
0001
0000
1000
,
0100
1000
0000
0010
0000
0100
0000
0001
,
0000
1000
0000
0100
0000
1000
0000
0001
,
0010
0001
0010
0001
1000
0100
1000
0100
,
1000
0000
0001
0000
1000
0000
0001
0100
,
0001
1000
0100
1000
,
0001
0000
0100
0000
0010
0000
1000
0010
,
1000
0010
1000
0010
1000
0001
0100
0000
,
0010
0000
0100
0000
0001
0000
0100
0010
,
0100
0001
1000
0100
,
1000
0010
1000
0000
0100
0000
1000
0001
,
0000
0100
0001
1000
0100
1000
0010
1000
,
0000
0001
0000
0100
0000
0010
0000
0100
,
0001
0100
0001
0100
0001
0000
0100
0010
,
0100
0010
0100
0010
1000
0000
0100
0000
,
2000
0000
0000
3010
0000
0000
0001
0010
,
2000
0000
0000
3010
0000
0000
0001
0000
,
0110
0000
0000
0000
0011
0000
0000
0000
1000
0100
1000
0000
0001
0010
0001
0000
,
2000
0000
3010
0000
1000
0100
0010
0001
,
0020
0000
0000
0000
,
0000
0000
0000
0030
,
1000
0100
0010
0001
,
0001
0000
0100
0000
0010
0000
1000
0100
,
1000
0001
1000
0010
,
0100
0000
0001
0000
1000
0000
0010
0100
,
0010
1000
0100
0001
,
0100
0000
1000
0000
0100
0000
1000
0001
,
1000
0100
1000
0010
,
1000
0000
0100
0000
1000
0000
1000
0001
,
1000
0001
1000
0100
,
1000
0000
0001
0000
1000
0000
0001
0010
,
0001
1000
0100
1000
,
0001
0000
1000
0000
0100
0000
0010
0100
,
1000
1000
1000
0100
,
0010
0000
0010
0000
0010
0000
0010
0100
,
1000
0001
0001
0010
,
0010
0000
1000
0000
1000
0000
0010
0100
,
0010
1000
0001
0001
,
0001
0000
1000
0000
1000
0000
0001
0010
,
0001
0100
1000
0100
,
0010
0000
0001
0000
0010
0000
1000
0100
,
0000
1000
0000
0001
0000
1000
0000
0100
,
0000
1000
0000
0010
0000
0001
0000
0010
,
0100
0010
0000
1000
0000
0100
0000
0010
,
0000
0001
0000
1000
0000
0100
0000
1000
,
0000
0001
0000
0010
0000
0100
0000
1000
,
0000
0001
0000
1000
0000
0010
0000
1000
,
0100
1000
0000
0001
0000
0010
0000
0001
,
0000
1000
0000
0100
0000
0010
0000
0001
,
0010
0001
0100
1000
,
0100
0000
0001
0000
1000
0000
0100
1000
,
0100
0010
0001
1000
,
0010
0100
0001
0100
,
2002
0000
0000
0000
,
0000
0000
0000
0000
,
0000
0000
0000
3003
,
0000
0000
0000
0000
,
0000
0000
0000
0000
,
0000
0000
0000
0000
,
1000
1010
1000
0001
,
1000
0000
0100
0000
1000
0000
0010
0100
,
0001
1000
0001
0010
,
0001
0000
1000
0000
0100
0000
1000
0100
,
1000
0100
1000
0010
,
0100
0000
0001
0000
0010
0000
0100
1000
,
0100
1000
0010
0100
,
0001
0000
0010
0000
0100
0000
1000
0100
,
0010
0110
0001
1000
,
0001
0000
0100
0000
0001
0000
0010
0100
,
1000
0001
1000
0010
,
1000
0000
0001
0000
0100
0000
0001
0100
,
0001
0100
0001
0010
,
0100
0000
1000
0000
0010
0000
0100
0001
,
0100
0001
0010
0100
,
1000
0000
0010
0000
0100
0000
0001
0100
,
0000
0001
0000
1000
0000
0100
0000
0010
,
0000
0100
0000
1000
0000
0010
0000
0100
,
0010
1000
0000
0010
0000
0100
0000
0001
,
0000
1000
0000
0001
0000
0100
0000
0001
,
0010
0001
0010
0001
1000
0000
0100
0000
,
1000
0000
0010
0000
0100
0000
0001
1000
,
0001
1000
0100
1000
,
0001
0000
0010
0000
0001
0000
0010
0001
,
1000
0100
1000
0100
1000
0010
1000
0010
,
1000
0100
1000
0100
,
0010
0100
0010
0100
1000
0010
1000
0010
,
1000
0100
1000
0100
,
1000
0100
1000
0010
0100
0001
0100
0010
,
1000
0001
1000
0001
,
0010
0001
0010
0100
1000
0100
1000
0010
,
1000
0100
0010
0001
,
2002
0000
0000
0000
,
0000
0000
0000
3003
;

//---------------dance-single - ----------------
#NOTES:
     dance-single:
     :
     Hard:
     16:
     0.853502,1.161757,0.323384,0.105100,0.109142,739.000000,699.000000,40.000000,13.000000,0.000000,0.000000,0.853502,1.161757,0.323384,0.105100,0.109142,739.000000,699.000000,40.000000,13.000000,0.000000,0.000000:
// measure 0
0000
0000
0000
0000
,  // measure 1
0000
0000
0000
0000
,  // measure 2
0000
0000
0000
0000
,  // measure 3
0000
0000
0000
0000
,  // measure 4
0000
0000
0000
0000
,  // measure 5
0000
0000
0000
0000
,  // measure 6
0000
0000
0000
0000
,  // measure 7
0000
0000
0000
0000
,  // measure 8
0000
0000
0000
0000
,  // measure 9
0000
0000
0000
0000
,  // measure 10
1000
0100
1000
0100
0010
0001
0100
0010
,  // measure 11
0100
0010
1000
0100
1000
0100
0010
0001
,  // measure 12
0100
0010
1000
0100
0010
0100
1000
0001
,  // measure 13
1000
0000
0100
0000
1000
0000
0100
1000
,  // measure 14
0001
0100
0001
0100
0010
1000
0100
0010
,  // measure 15
0100
0010
0001
0100
0001
0100
0010
1000
,  // measure 16
0100
0010
0001
0100
0010
0100
0001
1000
,  // measure 17
0001
0000
0100
0000
0001
0000
0100
0001
,  // measure 18
1000
0100
1000
0100
0010
0001
0100
0010
,  // measure 19
0100
0010
1000
0100
1000
0100
0010
0001
,  // measure 20
0010
0001
0000
0110
0000
1100
0000
1001
,  // measure 21
0000
0110
0000
0010
0000
0001
0000
1000
,  // measure 22
0001
0000
0010
0000
0001
0000
0100
1000
0100
0000
0010
0000
0100
0010
1000
0000
,  // measure 23
0002
0000
0203
2300
0000
3100
0001
0000
,  // measure 24
1000
0000
0010
0000
1000
0000
0100
1000
0100
0000
0010
0000
0100
0010
0001
0000
,  // measure 25
1000
0000
0000
0000
0001
0000
0000
0000
0100
0000
0000
0000
0010
0000
0000
0000
0100
0000
0000
0000
0001
0000
0000
0000
1000
0000
0000
0010
0000
0000
1000
0000
0000
0000
0000
0000
0100
0000
0000
0010
0000
0000
0001
0000
0000
0010
0000
0000
,  // measure 26
0100
1000
0000
0011
0000
0110
0000
0001
,  // measure 27
0010
0100
0010
1000
0010
0001
0100
1000
,  // measure 28
0100
1000
0000
0110
0000
0101
0000
0001
,  // measure 29
0000
1000
0001
1000
0001
1000
0000
0001
,  // measure 30
0010
1000
0010
0001
0100
1000
0100
0001
,  // measure 31
0010
0000
0010
0000
0010
0000
0000
0000
0010
0000
0100
0010
0100
0000
0010
0000
,  // measure 32
0001
1000
0100
1000
0100
0010
0100
0000
,  // measure 33
0011
0000
1100
0000
1010
0000
0110
0010
,  // measure 34
0100
0001
0010
0100
1000
0010
0100
0000
,  // measure 35
0110
0000
0101
0000
1001
0000
0100
0010
,  // measure 36
0100
0000
0001
0010
1000
0000
0110
0000
,  // measure 37
0100
0010
0001
0000
0110
0000
1000
0001
,  // measure 38
0000
0100
0001
1000
0100
1000
0001
0010
,  // measure 39
0001
1000
0010
0100
0000
0110
0000
0010
,  // measure 40
1000
0100
0010
0100
1000
0010
0100
1000
,  // measure 41
0100
0001
0100
1000
0100
0010
0100
0010
,  // measure 42
1000
0000
0100
0000
1000
0000
0010
1000
0010
0000
0100
0000
0010
0100
0001
0000
,  // measure 43
2000
0000
3020
0032
0000
0013
1000
0000
,  // measure 44
1000
0010
0000
0000
0001
0100
0000
0000
0010
0100
0010
0000
0100
0010
0100
0000
,  // measure 45
0010
0000
0000
0000
1000
0000
0000
0000
0100
0000
0000
0000
0001
0000
0000
0000
0100
0000
0000
0000
1000
0000
0000
0000
0001
0000
0000
0010
0000
0000
0001
0000
0000
0000
0000
0000
0100
0000
0000
0010
0000
0000
1000
0000
0000
0010
0000
0000
,  // measure 46
0200
1000
0000
0010
0002
0003
0002
0003
,  // measure 47
0010
0000
1000
0000
0010
0000
0010
0310
,  // measure 48
1000
0010
0100
0001
0010
0100
1000
0001
,  // measure 49
1000
0001
0100
0001
0010
0001
1000
0100
,  // measure 50
1000
0001
1000
0100
1000
0001
0010
1000
,  // measure 51
0100
1000
0001
0010
0001
0010
0100
0010
,  // measure 52
0110
1100
0100
0001
,  // measure 53
0100
0000
1000
0000
0100
0000
1000
0001
,  // measure 54
1000
0100
1000
0010
,  // measure 55
1000
0000
0100
0000
1000
0000
1000
0010
,  // measure 56
0100
0000
0001
0010
0000
0010
0100
0000
,  // measure 57
1000
0100
1000
0001
0100
0000
0010
0100
,  // measure 58
0010
0000
0011
0000
0000
1000
0010
0100
,  // measure 59
0001
0000
0000
0000
1000
0000
0000
0000
0100
1000
0100
0000
1000
0000
0100
0000
,  // measure 60
1000
0010
1000
0100
0010
0000
0001
1000
,  // measure 61
0010
0100
0010
0000
1000
0100
0010
0100
,  // measure 62
1000
0000
0001
0000
0100
0001
0100
0000
,  // measure 63
0100
0000
0010
0000
1000
0010
1000
0000
0010
0000
0100
0000
0010
0000
1000
0000
,  // measure 64
0010
0100
0000
0100
0001
0000
0001
0010
,  // measure 65
0000
0010
1000
0000
1000
0100
1000
0000
,  // measure 66
0010
0100
0000
0100
1000
0000
1000
0010
,  // measure 67
0000
0010
0001
0000
0001
0100
0001
0000
,  // measure 68
0000
0110
0000
0011
0000
1100
0000
0110
,  // measure 69
0000
1100
0000
0010
0000
0001
0000
0010
,  // measure 70
0100
0010
0000
1100
0000
0110
0000
0011
,  // measure 71
0000
0001
0000
1000
0000
0100
0000
1000
,  // measure 72
0000
0011
0000
0110
0000
1100
0000
1000
,  // measure 73
0000
0001
0000
1000
0000
0010
0000
1000
,  // measure 74
0100
1000
0000
0011
0000
0110
0000
0102
,  // measure 75
0000
1003
0000
0100
0000
0010
0000
0001
,  // measure 76
0010
0100
0010
0001
0100
0000
0001
0010
,  // measure 77
0100
0010
0001
0000
0100
1000
0100
0001
,  // measure 78
0100
0000
0010
0100
1000
0100
0001
0000
,  // measure 79
0010
0001
0100
0001
1000
0000
0100
1000
,  // measure 80
0001
0010
0100
1000
0010
0100
0001
1000
,  // measure 81
0001
1000
0100
1000
0010
1000
0001
0100
,  // measure 82
0001
1000
0001
0100
0001
1000
0010
0001
,  // measure 83
0100
0001
1000
0010
1000
0010
0100
0010
,  // measure 84
0200
0000
0000
0000
,  // measure 85
0000
0000
0000
0300
,  // measure 86
0001
0010
0001
1000
0001
0100
0001
0000
,  // measure 87
0100
0010
0100
0001
0010
0100
0010
0000
,  // measure 88
0001
0010
0001
1000
0001
0100
0010
0000
,  // measure 89
1000
0010
1000
0010
0100
0010
1000
0100
,  // measure 90
1000
0010
0000
0010
0001
0000
0001
0100
,  // measure 91
0000
0100
1000
0010
1000
0001
0100
0001
,  // measure 92
0100
0001
0000
0100
0010
0000
0010
0001
,  // measure 93
0000
0001
0010
0000
0100
0000
1000
0000
,  // measure 94
0100
0010
0001
1000
0001
0100
0001
0000
,  // measure 95
0100
0010
0100
0001
0010
0100
0010
0000
,  // measure 96
0001
0010
0001
1000
0001
0100
0010
0000
,  // measure 97
1000
0010
1000
0010
0100
0010
1000
0100
,  // measure 98
1000
0010
0000
0010
0001
0000
0001
0100
,  // measure 99
0000
0100
1000
0010
1000
0001
0100
0001
,  // measure 100
0100
0001
0000
0100
0010
0000
0010
1000
,  // measure 101
0000
1000
0010
0000
0100
0000
0001
0100
,  // measure 102
0000
0001
1000
0100
0010
0100
1000
0010
,  // measure 103
0000
0100
0000
0010
0000
0010
0000
0100
,  // measure 104
0010
1000
0001
0010
0001
0100
0000
0001
,  // measure 105
0000
0100
0000
1000
0000
0100
0000
0001
,  // measure 106
0010
0100
0010
0001
1000
0100
1000
0000
,  // measure 107
0100
0000
0010
0000
0100
0000
0010
0100
,  // measure 108
0010
0001
0100
0010
,  // measure 109
1000
0000
1000
0000
0100
0000
0010
0001
,  // measure 110
1000
0100
0010
0100
1000
0010
0100
0010
,  // measure 111
0001
0010
0100
0010
1000
0100
0010
0001
,  // measure 112
0010
0100
0010
0100
1000
0010
0100
0010
,  // measure 113
1000
0001
0100
0001
1000
0001
0100
0001
,  // measure 114
1000
0100
1000
0010
0100
0001
0100
0010
,  // measure 115
1000
0100
0001
0100
1000
0010
0001
0010
,  // measure 116
0100
0001
0010
0100
1000
0100
1000
0000
,  // measure 117
1100
0110
0011
1001
,  // measure 118
2002
0000
0000
0000
,  // measure 119
0000
0000
0000
3003
;

//---------------dance-double - ----------------
#NOTES:
     dance-double:
     :
     Easy:
     10:
     0.421554,0.629285,0.137438,0.088931,0.000000,365.000000,348.000000,17.000000,11.000000,0.000000,0.000000,0.421554,0.629285,0.137438,0.088931,0.000000,365.000000,348.000000,17.000000,11.000000,0.000000,0.000000:
00000000
00000000
00000000
00000000
,
00000000
00000000
00000000
00000000
,
00000000
00000000
00000000
00000000
,
00000000
00000000
00000000
00000000
,
00000000
00000000
00000000
00000000
,
00000000
00000000
00000000
00000000
,
00000000
00000000
00000000
00000000
,
00000000
00000000
00000000
00000000
,
00000000
00000000
00000000
00000000
,
00000000
00000000
00000000
00000000
,
10000000
10000000
00100000
10000000
,
01000000
00010000
00001000
00000000
,
00001000
00001000
00000010
00000001
,
00000100
00000010
00001000
00000000
,
00001000
00001000
00000100
00000010
,
00000001
00000010
00001000
00000000
,
00001000
00001000
00010000
00001000
,
00010000
00100000
01000000
00000000
,
01000000
01000000
00100000
10000000
,
01000000
00010000
00001000
00010000
,
00000000
00011000
00000000
00001010
,
00000000
00000001
00001001
00000000
,
00000002
00000000
00000103
00000000
,
00000200
00000000
00000310
00000000
,
00000020
00000000
00001030
00000000
,
00001000
00000001
00000100
00000100
,
00001000
00010000
00001000
00010000
,
00100000
01000000
00010000
00010000
,
10000000
10000000
01000000
00010000
,
00001000
00010000
00011000
00000000
,
00001000
00001000
00000010
00000001
,
00001000
00000100
00000010
00000001
,
00000100
00000100
00001000
00001000
,
00010000
00001000
00011000
00000000
,
00010000
00100000
10000000
00100000
,
00010000
00100000
10000000
00000000
,
10000000
01000000
00010000
00001000
,
00010000
00001000
00000010
00000000
,
00000001
00000010
00001000
00000010
,
00000001
00000010
00001000
00000000
,
00010000
00001000
00100000
00010000
,
10000000
01000000
01100000
00000000
,
11000000
10000000
01000000
00000000
,
00110000
00010000
00100000
00000000
,
00011000
00001000
00020000
00032000
,
00003100
00000110
00001010
00001001
,
00000002
00000000
00000000
00000000
,
00000000
00000000
00000000
00000000
,
00002003
00000000
00000000
00000000
,
00000000
00000000
00000000
00000000
,
00000000
00000000
00000000
00003000
,
00000000
00000000
00000000
00000000
,
00000001
00000100
00000010
00001000
,
00000100
00010000
00001000
00001000
,
00100000
00010000
10000000
01000000
,
00100000
00010000
10000000
00000000
,
10000000
01000000
10000000
00100000
,
01000000
00010000
00100000
00100000
,
00001000
00010000
00001000
00000100
,
00000001
00000010
00000100
00000000
,
00001000
00001000
00000100
00000100
,
00010000
00010000
00001000
00001000
,
00010000
01000000
00010000
01000000
,
10000000
00100000
00100000
00000000
,
10000000
10000000
00100000
00100000
,
01000000
01000000
00010000
00010000
,
00100000
00001000
00010000
00001000
,
00010000
00000100
00001000
00000000
,
00000000
00000001
00001000
00000001
,
00000100
00000010
00001000
00000100
,
00000000
00010000
00001000
00010000
,
00100000
10000000
00010000
01000000
,
00000000
00010000
00100000
01000000
,
10000000
00010000
10000000
01000000
,
00000000
00010000
00001000
00010000
,
00001000
00000100
00000001
00000010
,
00000100
00000100
00001000
00000001
,
00000100
00000010
00001000
00000100
,
00010000
00001000
00100000
00010000
,
10000000
00100000
01000000
00010000
,
20020000
00000000
00000000
00000000
,
00000000
00000000
00000000
00000000
,
00000000
00000000
00000000
30030000
,
00000000
00000000
00000000
00000000
,
00000000
00000000
00000000
00000000
,
00000000
00000000
00000000
00000000
,
10000000
00100000
10000000
00010000
,
10000000
01000000
00010000
00001000
,
00010000
00001000
00000010
00000001
,
00000100
00000010
00001000
00000000
,
00000001
00000010
00000001
00001000
,
00000001
00000100
00001000
00010000
,
00001000
00010000
00100000
10000000
,
01000000
00100000
00010000
00000000
,
00010000
00100000
00010000
10000000
,
00010000
01000000
00100000
10000000
,
01000000
00010000
00001000
00010000
,
00001000
00000010
00000001
00000000
,
00000010
00000001
00000010
00000100
,
00001000
00000001
00000100
00000100
,
00001000
00010000
00001000
00000100
,
00001000
00010000
00100000
00100000
,
00000000
00100000
10000000
01000000
,
00100000
01000000
10000000
00010000
,
00000000
00010000
10000000
01000000
,
00010000
00001000
00010000
00001000
,
00000010
00000010
00000001
00000001
,
00001000
00000010
00000100
00000000
,
00000001
00000100
00000010
00001000
,
00000100
00010000
00011000
00000000
,
00010000
00100000
10000000
01000000
,
00100000
00010000
00100000
00001000
,
00010000
00001000
00000100
00000001
,
00000010
00000100
00001000
00000000
,
00000001
00000010
00001000
00010000
,
00000010
00001000
00010000
01000000
,
00100000
10000000
00010000
01000000
,
10010000
00000000
01100000
00000000
,
20020000
00000000
00000000
00000000
,
00000000
00000000
00000000
30030000
;

//---------------dance-double - ----------------
#NOTES:
     dance-double:
     :
     Medium:
     14:
     0.550908,0.774504,0.040423,0.080846,0.008085,477.000000,472.000000,5.000000,10.000000,0.000000,0.000000,0.550908,0.774504,0.040423,0.080846,0.008085,477.000000,472.000000,5.000000,10.000000,0.000000,0.000000:
00000000
00000000
00000000
00000000
,
00000000
00000000
00000000
00000000
,
00000000
00000000
00000000
00000000
,
00000000
00000000
00000000
00000000
,
00000000
00000000
00000000
00000000
,
00000000
00000000
00000000
00000000
,
00000000
00000000
00000000
00000000
,
00000000
00000000
00000000
00000000
,
00000000
00000000
00000000
00000000
,
00000000
00000000
00000000
00000000
,
10000000
01000000
00010000
00001000
,
01000000
00000000
00100000
00000000
00010000
00000000
00001000
00010000
,
00001000
00000100
00000001
00001000
,
00000001
00000000
00000010
00000000
00000100
00000000
00001000
00000100
,
00000010
00000001
00000010
00001000
,
00010000
00000000
01000000
00000000
10000000
00000000
01000000
00100000
,
00010000
10000000
00010000
00100000
,
00001000
00000000
00010000
00000000
01000000
00000000
10000000
01000000
,
00100000
00001000
00010000
00001000
,
00000100
00000000
00000001
00000000
00000010
00000000
00000100
00001000
,
00000000
00000001
00000000
00000100
00000000
00001000
00000000
00010000
,
00000000
00100000
00000000
10000000
00000000
00010000
00000000
01000000
,
00002000
00000000
00000000
00000000
,
02000000
00000000
03000000
01000000
00000000
00000000
00000000
00000000
,
00000020
00000000
00000030
00000010
00000000
00000000
00000000
00000000
,
00013000
00000000
00000000
00000000
00000100
00000000
00000000
00000000
00000010
00000001
00000010
00000000
00000100
00001000
00000100
00000000
,
00010000
00001000
00000000
00000010
00000000
00000100
00000000
00000010
,
00000000
00000001
00000000
00001000
00000000
00000100
00000000
00010000
,
00000100
00001000
00000000
00000010
00000000
00001000
00000000
00010000
,
00000000
01000000
00000000
00100000
00000000
10000000
00000000
00100000
,
01000000
00010000
00000000
01000000
00001000
00010000
00001000
00000000
,
00000100
00000000
00000001
00000000
00000100
00000000
00000010
00001000
,
00000100
00010000
00001000
00100000
,
01000000
00000000
00100000
00000000
00010000
00000000
10000000
00100000
,
01000000
00000000
00010000
10000000
01000000
00100000
00010000
00000000
,
00001000
00000000
00000100
00000000
00000010
00000000
00000001
00001000
,
00000001
00000100
00000010
00000100
,
00001000
00000000
00010000
00000000
00100000
00000000
10000000
00100000
,
00000000
00010000
00100000
10000000
00000000
00100000
01000000
00100000
,
00000000
00010000
00000000
00001000
00000000
00000100
00000000
00000001
,
00000100
00000010
00000100
00000000
00000001
00001000
00000001
00000000
,
00000010
00000100
00000010
00000001
00001000
00000010
00000100
00000001
,
00000010
00000000
00000010
00000000
00002000
00000000
00013000
00001000
,
00010000
00000000
00010000
00000000
00200000
00000000
10300000
00100000
,
10000000
00000000
11000000
00000000
01000000
01000000
00010000
00010000
,
00001000
00000000
00001100
00000000
00000100
00000100
00000001
00000001
,
00002000
00000000
00000000
00000000
,
00000000
00000000
00000000
00000000
,
00003001
00000010
00001000
00010000
,
01000000
00000000
10000000
00000000
01000000
00000000
00100000
00010000
,
00100000
00001000
00010000
00001000
,
00000100
00000000
00000001
00000000
00000100
00000000
00000010
00001000
,
00000001
00000010
00000100
00010000
,
00001000
00000000
00100000
00000000
00010000
00000000
10000000
01000000
,
00100000
00001000
00010000
01000000
,
10000000
00000000
01000000
00000000
00010000
00000000
00001000
00010000
,
00100000
10000000
00100000
00010000
,
00001000
00000000
00000010
00000000
00001000
00000000
00010000
00001000
,
00000100
00000001
00000100
00001000
,
00010000
00000000
00001000
00000000
00000010
00000000
00001000
00010000
,
00001000
00010000
01000000
10000000
,
00010000
00000000
01000000
00000000
10000000
00000000
01000000
00100000
,
00010000
00001000
00000100
00000001
,
00000010
00000000
00001000
00000000
00000010
00000000
00000100
00000010
,
00000001
00000010
00001000
00010000
,
01000000
00000000
10000000
00000000
00010000
00000000
01000000
00100000
,
00010000
10000000
01000000
00100000
,
00010000
00000000
00001000
00000000
00000100
00000000
00000001
00000010
,
00000000
00000001
00000000
00000001
00000000
00000100
00000000
00000100
,
00000000
00001000
00000000
00001000
00000000
00010000
00000000
00001000
,
00010000
00001000
00000000
00010000
00000000
00010000
00000000
00100000
,
00000000
00100000
00000000
10000000
00000000
10000000
00000000
00010000
,
00000000
00010000
00000000
10000000
00000000
01000000
00000000
00010000
,
00000000
10000000
00000000
00100000
00000000
00010000
00000000
00001000
,
00010000
00001000
00000000
00000100
00000000
00000001
00000000
00000100
,
00000000
00000010
00000000
00001000
00000000
00010000
00000000
00001000
,
00010000
00100000
10000000
00010000
,
01000000
00000000
00100000
00000000
10000000
00000000
01000000
00100000
,
00010000
00001000
00000100
00000010
,
00000001
00000000
00001000
00000000
00000010
00000000
00000100
00000002
,
00002000
00000000
00000000
00000000
,
00000000
00000000
00000000
00000000
,
00000000
00000000
00000000
00003003
,
00000000
00000000
00000000
00000000
,
00000000
00000000
00000000
00000000
,
00000000
00000000
00000000
00000000
,
00000001
00000100
00001000
00010000
,
00001000
00000000
00000010
00000000
00001000
00000000
00010000
01000000
,
00100000
00010000
10000000
00100000
,
00010000
00000000
00001000
00000000
00010000
00000000
00100000
10000000
,
00010000
00100000
01000000
10000000
,
01000000
00000000
00010000
00000000
00001000
00000000
00000010
00000001
,
00000010
00000100
00001000
00000001
,
00000100
00001000
00010000
00100000
,
10000000
00100000
00010000
00001000
,
00010000
00000000
01000000
00000000
00010000
00000000
00001000
00000010
,
00000100
00001000
00000001
00000100
,
00001000
00000000
00010000
00000000
00001000
00000000
00000100
00000001
,
00001000
00000100
00000010
00000001
,
00000010
00000000
00001000
00000000
00010000
00000000
01000000
10000000
,
01000000
00100000
00010000
10000000
,
00100000
00000000
00010000
00000000
00001000
00000000
00000100
00000001
,
00000000
00000010
00000000
00000001
00000000
00000010
00000000
00001000
,
00000000
00010000
00000000
01000000
00000000
00100000
00000000
00010000
,
00100000
01000000
00000000
10000000
00000000
01000000
00000000
00010000
,
00000000
01000000
00000000
10000000
00000000
00100000
00000000
00010000
,
00001000
00010000
00001000
00000100
00000010
00000100
00000010
00000000
,
00000001
00000000
00000010
00000000
00001000
00000000
00000001
00000100
,
00000010
00010000
00001000
00100000
,
01000000
00000000
10000000
00000000
00010000
00000000
10000000
00100000
,
01000000
00010000
01000000
00010000
00100000
00001000
00100000
00000000
,
00001000
00010000
00000010
00000100
,
00000001
00000010
00000001
00000010
00000100
00001000
00000100
00001000
,
00000001
00000100
00001000
00010000
,
00001000
00010000
00001000
00010000
00100000
01000000
00100000
01000000
,
00010000
10000000
00010000
00000000
00100000
00000000
01000000
00000000
,
10000000
01000000
00100000
00010000
00001000
00000100
00000010
00000001
,
00000010
00000100
00001001
00000110
,
00002002
00000000
00000000
00000000
,
00000000
00000000
00000000
00003003
;

//---------------dance-double - ----------------
#NOTES:
     dance-double:
     :
     Hard:
     16:
     0.825784,1.161757,0.396145,0.064677,0.084888,715.000000,666.000000,49.000000,8.000000,0.000000,0.000000,0.825784,1.161757,0.396145,0.064677,0.084888,715.000000,666.000000,49.000000,8.000000,0.000000,0.000000:
00000000
00000000
00000000
00000000
,
00000000
00000000
00000000
00000000
,
00000000
00000000
00000000
00000000
,
00000000
00000000
00000000
00000000
,
00000000
00000000
00000000
00000000
,
00000000
00000000
00000000
00000000
,
00000000
00000000
00000000
00000000
,
00000000
00000000
00000000
00000000
,
00000000
00000000
00000000
00000000
,
00000000
00000000
00000000
00000000
,
10000000
01000000
10000000
01000000
00100000
00010000
00100000
00010000
,
10000000
01000000
00100000
00010000
00001000
00000100
00000010
00000000
,
00000001
00000100
00000010
00000000
00001000
00000010
00000100
00000000
,
00000001
00000010
00001000
00010000
00000100
00010000
00001000
00000000
,
00010000
01000000
00010000
01000000
10000000
01000000
10000000
02000000
,
00100000
00100000
00010000
03010000
,
00001000
00010000
00001000
00010000
00000100
00001000
00000100
00000020
,
00000100
00000100
00000001
00000031
,
00000100
00000001
00000100
00000001
00001000
00000010
00001000
00000010
,
00010000
00001000
00010000
00001000
00100000
00010000
00100000
00010000
,
00000000
00110000
00000000
10010000
00000000
11000000
00000000
01100000
,
00000000
00101000
00000000
00011000
00000000
00001100
00000000
00000110
,
00001001
00000000
00000001
00000001
00000100
00000010
00000100
00000000
,
00001010
00000000
00000010
00000010
00010000
00001000
00010000
00000000
,
00100000
00000000
10000000
00000000
00100000
00000000
01000000
00010000
01000000
00000000
00100000
00000000
10000000
00000000
01000000
00000000
,
00010000
00000000
00000000
00000000
00001000
00000000
00000000
00000000
00010000
00000000
00000000
00000000
01000000
00000000
00000000
00000000
00100000
00000000
00000000
00000000
01000000
00000000
00000000
00000000
10000000
00000000
00000000
01000000
00000000
00000000
00100000
00000000
00000000
00000000
00000000
00000000
00001000
00000000
00000000
00010000
00000000
00000000
00000100
00000000
00000000
00000010
00000000
00000000
,
00000001
00000010
00000000
00000011
00000000
00000110
00000000
00001000
,
00000100
00000010
00000100
00010000
00001000
00000100
00001000
00000000
,
00010000
00100000
00000000
10100000
00000000
11000000
00000000
01100000
,
00100000
00010000
00100000
01000000
10000000
01000000
00100000
00000000
,
00001000
00010000
01000000
00100000
00001000
00010000
00001000
00000100
,
00000001
00000010
00000100
00000000
00001000
00000010
00000001
00000000
,
00000010
00000100
00000010
00000100
00001000
00010000
00001000
00000000
,
00011000
00110000
10100000
11000000
,
00100000
00010000
00100000
01000000
10000000
01000000
00100000
00000000
,
00110000
00000000
10100000
00000000
00110000
00000000
10000000
01000000
,
00010000
00000000
00001000
00010000
00001000
00000000
00000110
00000000
,
00000001
00000100
00000010
00001000
00000010
00000100
00000001
00000000
,
00000001
00000010
00000001
00001000
00000100
00010000
00001000
00100000
,
00010000
00000000
00010000
01000000
00000000
10100000
00000000
00010000
,
10000000
00100000
01000000
00010000
10000000
01000000
00100000
00010000
,
00001000
00000100
00000010
00000001
00000100
00000001
00000010
00000100
,
00001000
00000000
00000000
00000000
00000001
00000000
00001000
00000000
00000000
00000000
00000010
00000000
00000010
00000100
00000010
00000000
,
00000100
00000000
00000000
00000000
00000100
00000000
00001000
00000000
00000000
00000000
00010000
00000000
00001000
00010000
00001000
00000000
,
00010000
00100000
00000000
00000000
10000000
00100000
00000000
00000000
01000000
00010000
01000000
00000000
00010000
00100000
00010000
00000000
,
10000000
00000000
00000000
00000000
01000000
00000000
00000000
00000000
00010000
00000000
00000000
00000000
00001000
00000000
00000000
00000000
00000010
00000000
00000000
00000000
00000001
00000000
00000000
00000000
00000010
00000000
00000000
00000100
00000000
00000000
00000010
00000000
00000000
00000000
00000000
00000000
00000100
00000000
00000000
00001000
00000000
00000000
00000001
00000000
00000000
00001000
00000000
00000000
,
00000020
00000000
00000000
00000000
,
00000000
00000000
00000000
00000000
,
00001030
00000001
00000100
00000010
00001000
00000100
00010000
00001000
,
00010000
01000000
10000000
00010000
00100000
01000000
10000000
00000000
,
10000000
00010000
10000000
00100000
01000000
00010000
00100000
01000000
,
10000000
01000000
00010000
00001000
00010000
00001000
00000010
00000001
,
00000011
00000000
00000110
00000000
00001000
00000100
00001000
00000000
,
00000001
00000010
00000001
00000000
00000010
00000000
00001000
00010000
,
00001000
00000000
00010000
00000000
00100000
10000000
00100000
00000000
,
01000000
00010000
01000000
00000000
00100000
00000000
10000000
01000000
,
00010000
00000000
00001000
00010000
00000000
00010000
00001000
00000000
,
00001000
00000100
00001000
00000100
00000001
00000000
00001000
00000010
,
00001000
00000000
00000101
00000000
00000000
00000001
00000100
00000010
,
00001000
00000000
00010000
01000000
00100000
10000000
00010000
00000000
,
00100000
01000000
10000000
00010000
00100000
00000000
01000000
00100000
,
00010000
10000000
01000000
00000000
00010000
00001000
00000100
00001000
,
00010000
00000000
00001000
00000000
00000010
00000001
00000010
00000000
,
00000100
00000010
00000001
00000010
00000100
00001000
00000001
00000100
,
00001000
00010000
00000000
00010000
00100000
00000000
00100000
10000000
,
00000000
10000000
00010000
00000000
00100000
01000000
00100000
00000000
,
01000000
10000000
00000000
10000000
01000000
00000000
01000000
00010000
,
00000000
00010000
00001000
00000000
00000010
00000001
00000010
00000000
,
00000000
00000011
00000000
00000110
00000000
00001100
00000000
00001001
,
00000000
00000101
00000000
00001000
00000000
00001000
00000000
00010000
,
00000000
00100000
01000000
00100000
00000000
01100000
00000000
10100000
,
00000000
10010000
00000000
00010000
00000000
00100000
00000000
00010000
,
00000000
10010000
00000000
11000000
00000000
01100000
00000000
00110000
,
00000000
00010000
00000000
00001000
00000000
00000100
00000000
00000010
,
00000001
00000010
00000000
00000011
00000000
00000110
00000000
00001000
,
00000000
00000010
00000000
00001000
00000000
00010000
00000000
01000000
,
00100000
10000000
00100000
01000000
00010000
00000000
00010000
00100000
,
01000000
00100000
00010000
00000000
10000000
01000000
00010000
00001000
,
00010000
00000000
00001000
00000010
00000001
00000010
00001000
00000000
,
00000010
00000001
00000100
00000001
00000010
00000000
00000100
00001000
,
00000001
00000010
00000100
00001000
00000010
00000100
00000001
00001000
,
00000010
00000100
00001000
00010000
00100000
00000000
10000000
00000000
,
00010000
00100000
00010000
00100000
01000000
10000000
01000000
10000000
,
01000000
00010000
00001000
00010000
00001000
00000010
00000001
00000010
,
00000200
00000000
00000000
00000000
,
00000000
00000000
00000000
00000300
,
00001000
00000100
00000010
00000100
00001000
00000001
00000100
00000000
,
00000201
00000310
00002100
00013000
,
00100000
10000000
00010000
10000000
00100000
01000000
00010000
00000000
,
00010000
00100000
00001000
00010000
00000010
00000100
00000001
00000010
,
00000100
00001000
00000000
00001000
00000001
00000000
00000001
00000010
,
00000000
00000010
00001000
00010000
00001000
00010000
01000000
00000000
,
01000000
10000000
00000000
10000000
00100000
00000000
00100000
00010000
,
00000000
00010000
00100000
00000000
01000000
00000000
10000000
00000000
,
01000000
00100000
00010000
00100000
10000000
00100000
00010000
00000000
,
00001000
00010000
00001000
00000100
00000001
00000100
00000010
00000000
,
00001000
00000100
00000001
00000100
00001000
00000100
00000010
00000000
,
00000001
00000010
00000100
00000000
00010000
00000000
00011000
00000000
,
00010000
01000000
00000000
01000000
10000000
00000000
10000000
00100000
,
00000000
00100000
00010000
00001000
00010000
00100000
10000000
00000000
,
10000000
01000000
00000000
01000000
00010000
00000000
00010000
00001000
,
00000000
00001000
00000100
00000000
00000001
00000000
00001000
00000100
,
00000000
00000010
00000001
00000010
00000100
00001000
00000010
00000100
,
00000000
00001000
00000000
00010000
00000000
00010000
00000000
00100000
,
01000000
10000000
01000000
00010000
00100000
00010000
00000000
01000000
,
00000000
10000000
00000000
01000000
00000000
00100000
00000000
00010000
,
00001000
00000010
00001000
00010000
00001000
00000100
00000001
00000000
,
00000100
00000000
00000010
00000000
00000100
00000000
00001000
00010000
,
00001000
00010000
00100000
10000000
,
01000000
00000000
00100000
00000000
00010000
00000000
10000000
01000000
,
00100000
00010000
00100000
00010000
00001000
00000100
00001000
00000100
,
00000010
00000001
00000010
00000100
00001000
00000001
00000100
00000000
,
00000010
00001000
00000010
00001000
00000100
00010000
00000100
00010000
,
00001000
00010000
01000000
10000000
00010000
00100000
01000000
00000000
,
10000000
01000000
10000000
01000000
00100000
00010000
00100000
00010000
,
10000000
01000000
00100000
00010000
00001000
00000100
00000010
00000001
,
00001000
00000010
00000100
00000001
00000100
00000010
00001000
00000010
,
00010010
00011000
00101000
01100000
,
20020000
00000000
00000000
00000000
,
00000000
00000000
00000000
30030000
;

//---------------dance-single - ----------------
#NOTES:
     dance-single:
     :
     Challenge:
     18:
     1.046378,1.452196,0.371891,0.274876,0.343595,906.000000,860.000000,46.000000,34.000000,0.000000,0.000000,1.046378,1.452196,0.371891,0.274876,0.343595,906.000000,860.000000,46.000000,34.000000,0.000000,0.000000:
// measure 0
0000
0000
0000
0000
,  // measure 1
0000
0000
0000
0000
,  // measure 2
0000
0000
0000
0000
,  // measure 3
0000
0000
0000
0000
,  // measure 4
0000
0000
0000
0000
,  // measure 5
0000
0000
0000
0000
,  // measure 6
0001
0010
1000
0010
0001
0100
1000
0000
,  // measure 7
0100
0001
0010
0100
0001
0100
2000
0000
,  // measure 8
3010
0100
0001
0100
0010
1000
0200
0000
,  // measure 9
0310
0001
1000
0001
0100
0010
1000
0001
,  // measure 10
1001
0100
0010
0100
1000
0001
0100
0001
,  // measure 11
0010
0100
1000
0100
0001
0100
1000
0010
,  // measure 12
0100
0001
0010
0001
1000
0100
1000
0010
,  // measure 13
0100
0000
0001
0000
0100
0000
0010
0000
1000
0100
1000
0000
0100
0000
0010
0000
,  // measure 14
0011
0001
1000
0100
0010
1000
0010
0001
,  // measure 15
0100
0010
1000
0100
0001
0100
0010
0001
,  // measure 16
0010
0100
1000
0100
0010
0100
1000
0001
,  // measure 17
0010
0100
0001
0100
1000
0010
0100
0001
,  // measure 18
0101
0000
0100
0000
0010
0000
1000
0000
0010
0001
0010
0000
1000
0000
0010
0000
,  // measure 19
0100
0000
0010
0000
1000
0000
0100
0000
1000
0100
1000
0000
0100
0000
0010
0000
,  // measure 20
0001
1000
0001
1000
0010
0000
0110
0000
0000
0000
1100
0000
0000
0000
1001
0000
,  // measure 21
0000
0000
0010
0100
0010
0000
0001
0000
1000
0000
0001
0000
0010
0000
1000
0000
,  // measure 22
1010
0000
0010
0001
0010
0000
0100
1000
0001
0000
0100
0000
0010
0100
0001
0000
,  // measure 23
2000
0000
0000
0000
3002
0000
0203
0000
0310
0100
0010
0000
0001
0010
0001
1000
,  // measure 24
0001
0010
0100
0000
1000
0000
0001
1000
0010
0000
0100
0000
0010
0001
1000
0000
,  // measure 25
0010
0000
0000
0000
0000
0000
0000
0000
0000
0000
0000
0000
0000
0000
0000
0000
0001
0000
0000
0000
0000
0000
0000
0000
0000
0000
0000
0000
0000
0000
0000
0000
0100
0000
0000
0000
0000
0000
0000
0000
0000
0000
0000
0000
0000
0000
0000
0000
0010
0000
0000
0000
0000
0000
0000
0000
0000
0000
0000
0000
0000
0000
0000
0000
1000
0000
0000
0000
0000
0000
0000
0000
0000
0000
0000
0000
0000
0000
0000
0000
0001
0000
0000
0000
0000
0000
0000
0000
0000
0000
0000
0000
0000
0000
0000
0000
1000
0000
0000
0000
0000
0000
0010
0000
0000
0000
0000
0000
1000
0000
0000
0000
0000
0000
0010
0000
0000
0000
0000
0000
1000
0000
0000
0000
0000
0000
0000
0000
0000
0000
0000
0000
0000
0000
0000
0000
0000
0000
0000
0000
0000
0000
0000
0000
0100
0000
0000
0000
0000
0000
0010
0000
0000
0000
0000
0000
0100
0000
0000
0000
0000
0000
0010
0000
0000
0000
0000
0000
0100
0000
0000
0000
0000
0000
0010
0000
0000
0000
0000
0000
0100
0000
0000
0000
0000
0000
0000
0000
0000
0000
0000
0000
,  // measure 26
0001
1000
0010
0110
0000
0101
0000
0001
,  // measure 27
0010
0100
0010
0000
1000
0000
0010
0000
0001
0000
0100
0000
0010
0000
1010
0000
,  // measure 28
0000
0000
0100
0101
0000
1001
0000
1000
,  // measure 29
0000
0000
0001
0000
0010
0000
1000
0000
0010
0000
0001
0100
0001
0100
0010
0000
,  // measure 30
1000
0010
0001
0100
0010
1000
0100
0001
,  // measure 31
0100
0000
0100
0000
0100
0000
0000
0000
1000
0000
0100
0010
0100
0000
0010
0000
,  // measure 32
0001
1000
0010
1000
0100
0001
0100
0000
,  // measure 33
1100
0000
1010
0000
0011
0000
0110
0100
,  // measure 34
0001
0010
0100
1000
0010
0100
0001
0000
,  // measure 35
1001
0000
0000
0000
1010
0000
0000
0000
0011
0000
0000
0000
0100
0010
0100
0000
,  // measure 36
0010
0000
0001
0010
1000
0000
0110
0000
,  // measure 37
0100
0010
0001
1000
0110
0010
1000
0001
,  // measure 38
0100
0001
0010
1000
0100
1000
0001
0010
,  // measure 39
0001
0000
1000
0010
1000
0000
0100
0000
0001
0000
0110
0000
0000
0000
0010
1000
,  // measure 40
0010
0100
0010
0100
1000
0010
0100
1000
,  // measure 41
0100
0001
0100
0000
1000
0000
0001
0000
0100
0010
0100
0000
0001
0000
0010
0000
,  // measure 42
1010
0000
0010
0000
0001
0010
0100
1000
0010
0000
0100
0001
0010
0001
1000
0000
,  // measure 43
2000
0000
3020
0032
0000
0023
2030
0000
,  // measure 44
3001
0001
0000
0000
0100
0100
0000
0000
0010
1000
0010
0000
0100
0010
0001
0000
,  // measure 45
0010
0000
0000
0000
1000
0000
0000
0000
0100
0000
0000
0000
0010
0000
0000
0000
0100
0000
0000
0000
1000
0000
0000
0000
0010
0000
0000
0100
0000
0000
0001
0000
0000
0010
0000
0000
0100
0000
0000
0010
0000
0000
1000
0000
0000
0010
0000
0000
,  // measure 46
0200
0000
1000
0000
1000
0000
0001
0000
2000
0000
3000
0001
0002
0000
0003
0000
,  // measure 47
0010
0000
0000
0000
1000
0000
1000
0000
0010
0000
0000
0010
0010
0000
1300
0000
,  // measure 48
0001
0010
0100
0010
0001
0100
1000
0100
,  // measure 49
0001
0000
0010
0000
0100
0000
1000
0000
0010
0001
0010
0000
1000
0000
0100
0000
,  // measure 50
0001
0100
1000
0010
0001
0010
1000
0010
,  // measure 51
1000
0010
0100
0001
0100
0010
0100
0001
,  // measure 52
1001
0000
1100
0000
0110
0000
0001
0010
,  // measure 53
1000
0000
1000
0010
0001
0100
0010
1000
,  // measure 54
0001
0000
0100
0000
0010
0100
0001
0100
,  // measure 55
1000
0000
0000
0000
0100
0000
0010
0000
1000
0001
1000
0000
0010
0000
0100
0000
,  // measure 56
0001
0000
1000
0010
0001
0010
0100
0000
,  // measure 57
0001
0100
1000
0100
0010
0000
0010
1000
,  // measure 58
0100
0000
0011
0000
0001
1000
0010
0100
,  // measure 59
0010
0000
0000
0000
0100
0000
0000
0000
0001
1000
0001
0000
0010
0000
0100
0000
,  // measure 60
1000
0001
0100
0001
2000
0000
3001
0010
,  // measure 61
1000
0010
0002
0000
1003
0100
0001
0100
,  // measure 62
2000
0000
3002
0000
0103
0010
0100
0000
,  // measure 63
0100
0000
0001
0000
1000
0010
1000
0000
0010
0000
0001
0000
0010
0000
1000
0000
,  // measure 64
0100
0010
0000
0001
0010
0000
0010
1000
,  // measure 65
0000
1000
0001
0000
0100
1000
0100
0000
,  // measure 66
0001
0100
0000
0100
1000
0000
1000
0010
,  // measure 67
0000
0000
0010
0000
0001
0000
0100
0000
0001
0100
0001
0100
0001
0000
1000
0000
,  // measure 68
0000
1010
0000
0011
0000
1010
0000
0101
,  // measure 69
0000
1100
0000
0110
0000
0011
0000
0010
,  // measure 70
0100
1000
0000
1010
0000
1001
0000
0101
,  // measure 71
0000
0101
0000
0110
0000
0010
1000
0010
,  // measure 72
0100
0001
0000
0101
0000
1100
0000
1001
,  // measure 73
0000
0001
1000
0001
0100
0010
0000
1000
,  // measure 74
0100
0010
1000
0010
0000
0001
0100
0102
,  // measure 75
0100
0013
0000
1000
0010
0001
0000
0001
,  // measure 76
0010
0100
0010
1000
0100
0001
0100
1000
,  // measure 77
0100
0010
0002
0000
0013
1000
0010
0001
,  // measure 78
0200
0000
0310
0100
0001
0100
0020
0000
,  // measure 79
1030
0001
1000
0000
0100
0000
0010
0000
0001
1000
0001
1000
0001
0000
0100
0000
,  // measure 80
0010
1000
0100
1000
0010
0100
0001
0010
,  // measure 81
1000
0010
0100
1000
0010
1000
0001
0100
,  // measure 82
0010
0100
0001
0100
0010
1000
0010
0100
,  // measure 83
0001
0010
0100
0010
0001
1000
0001
0010
,  // measure 84
0200
0001
1000
0001
,  // measure 85
1000
0001
1000
0301
,  // measure 86
0001
0010
0001
0000
1000
0000
0010
0000
0100
0000
0010
0000
1000
0000
0010
0000
,  // measure 87
0100
0010
1000
0001
0010
0100
0010
0001
,  // measure 88
0010
0100
0010
0000
0001
0000
0010
0000
0100
0000
1000
0000
0001
0000
0100
0000
,  // measure 89
0001
0010
0001
0000
0100
0000
0001
0000
0100
0010
0100
0000
0010
0000
0100
0000
,  // measure 90
0001
1001
0000
0100
0102
0000
1003
0010
,  // measure 91
0000
0010
0100
0001
0100
0010
1000
0010
,  // measure 92
1000
0002
0000
0103
0010
0000
0010
0001
,  // measure 93
0000
0000
0001
0000
0020
0000
0000
0000
0230
0000
0000
0000
0301
1000
0001
0000
,  // measure 94
1000
0010
1000
0000
0100
0000
1000
0000
0001
0000
0010
0000
0100
0000
0010
0000
,  // measure 95
0001
0010
0001
0000
1000
0000
0001
0000
1000
0100
1000
0000
0002
0000
0000
0000
,  // measure 96
1003
0010
0001
1000
0001
0100
0010
1000
,  // measure 97
0001
0010
0001
0000
1000
0000
0010
0000
0100
0010
0100
0010
0001
0000
0100
0000
,  // measure 98
1000
0010
0000
0010
0001
0000
0001
0100
,  // measure 99
0000
0100
1000
0010
1000
0001
0100
0001
,  // measure 100
0100
0002
1000
0103
0010
0000
0010
1000
,  // measure 101
0000
1000
0010
0000
0100
0001
0100
0001
,  // measure 102
1000
0001
1000
0100
0010
0100
1000
0010
,  // measure 103
0100
0001
0010
0100
1000
0010
0100
0001
,  // measure 104
0010
0000
0001
0000
1000
0000
0010
0000
1000
0000
0100
0001
0100
0000
0002
0000
,  // measure 105
0000
0203
0000
2300
0000
3200
0000
0301
,  // measure 106
0010
1000
0010
0001
0100
0001
0010
0001
,  // measure 107
0100
0000
1000
0000
0100
0000
0001
0100
,  // measure 108
0001
0000
1000
0000
0100
0000
0010
0000
0001
0010
0001
0000
0100
0000
0010
0000
,  // measure 109
1000
0000
0010
0000
1000
0000
0100
0000
0010
0001
0010
0001
0010
0000
0001
0000
,  // measure 110
1000
0010
0100
0010
1000
0010
0100
0010
,  // measure 111
0001
0000
0010
0000
0100
0010
0100
0000
0001
1000
0001
0000
0010
0000
0001
0000
,  // measure 112
0010
0000
1000
0000
0010
0000
0001
0000
0100
0000
0010
0000
1000
0010
1000
0000
,  // measure 113
0001
0000
0010
0000
0100
0000
0001
0000
0100
1000
0100
0000
1000
0000
0001
0000
,  // measure 114
0010
0000
0001
0000
0100
0000
0010
0000
0100
0000
0001
0000
0010
0100
0010
0000
,  // measure 115
0100
1000
0001
1000
0100
0010
0001
0010
,  // measure 116
0100
0000
1000
0000
0010
0000
0100
0000
0001
0100
0001
0000
1000
0100
1000
0000
,  // measure 117
0100
0010
0001
0010
0100
1000
0001
1000
,  // measure 118
2002
0000
0000
0000
,  // measure 119
0000
0000
0000
3003
;
