#TITLE:I Ran;
#SUBTITLE:;
#ARTIST:Spacebar vs. Naughty G;
#TITLETRANSLIT:;
#SUBTITLETRANSLIT:;
#ARTISTTRANSLIT:;
#GENRE:;
#CREDIT:;
#BANNER:I Ran.png;
#BACKGROUND:I Ran-bg.png;
#LYRICSPATH:;
#CDTITLE:;
#MUSIC:I Ran.mp3;
#OFFSET:1.629000;
#SAMPLESTART:40.345001;
#SAMPLELENGTH:15.000000;
#LASTBEATHINT:1.467667;
#SELECTABLE:YES;
#BPMS:0.000000=140.000000
;
#STOPS:
;
#BGCHANGES:;
#KEYSOUNDS:;
#ATTACKS:;

//---------------dance-single - ----------------
#NOTES:
     dance-single:
     :
     Beginner:
     1:
     0.089973,0.224138,0.074095,0.000000,0.000000,68.000000,60.000000,8.000000,0.000000,0.000000,0.000000,0.089973,0.224138,0.074095,0.000000,0.000000,68.000000,60.000000,8.000000,0.000000,0.000000,0.000000:
0000
0000
0000
0000
,
0000
0000
0000
0000
,
0000
0000
0000
0000
,
0001
0000
0000
0000
,
0000
0000
0000
0000
,
1000
0000
0000
0000
,
0000
0000
0000
0000
,
0000
0000
0000
0000
,
0000
0000
0000
0000
,
0001
0000
0000
0000
,
0001
0000
0000
0000
,
0001
0000
0000
0000
,
0010
0000
0000
0001
,
0001
0000
0000
0000
,
0000
0000
0000
0001
,
0001
0000
0000
0000
,
0000
0000
0000
0000
,
1000
0000
0000
0000
,
1000
0000
0000
0000
,
1000
0000
0000
0000
,
0010
0000
0000
1000
,
1000
0000
0000
0000
,
0000
0000
0000
1000
,
1000
0000
0000
0000
,
0000
0000
0000
1001
,
0000
0000
0000
1000
,
0000
0000
0000
0100
,
0000
0000
0000
1000
,
0000
0000
0000
1001
,
0000
0000
0000
0001
,
0000
0000
0000
0010
,
0000
0000
0000
0001
,
0000
0000
1001
0000
,
1000
1000
1000
0000
,
1000
1000
1000
0000
,
0001
0001
0001
0000
,
0001
0001
0001
0000
,
0000
0001
0000
0000
,
0000
0000
0000
0000
,
0000
1000
0000
0000
,
0000
0000
0000
0000
,
0000
1000
0000
0000
,
0000
0000
0000
0000
,
0000
0001
0000
0000
,
0000
0000
0000
1001
,
0000
0000
0000
1000
,
0000
0000
0000
0100
,
0000
0000
0000
1000
,
0000
0000
0000
1001
,
0000
0000
0000
0001
,
0000
0000
0000
0010
,
0000
0000
0000
0001
,
0000
0000
0000
1001
,
0000
0000
0000
1000
,
0000
0000
0000
0010
,
0000
0000
0000
1000
,
0000
0000
0000
1001
,
0000
0000
0000
0001
,
0000
0000
0000
0100
,
0000
0000
0000
0001
,
0000
0000
1001
0000
;

//---------------dance-single - ----------------
#NOTES:
     dance-single:
     :
     Easy:
     4:
     0.191854,0.309464,0.148191,0.000000,0.000000,145.000000,129.000000,16.000000,0.000000,0.000000,0.000000,0.191854,0.309464,0.148191,0.000000,0.000000,145.000000,129.000000,16.000000,0.000000,0.000000,0.000000:
0000
0000
0000
0000
,
0000
0000
0000
0000
,
0000
0000
0000
0000
,
1000
0000
0000
0000
,
0000
0000
0000
0000
,
0001
0000
0000
0000
,
0001
0000
0000
0000
,
1000
0000
0001
0000
,
1000
1000
0001
0001
,
1000
0000
0100
0000
,
1000
0010
1000
0000
,
0001
0000
0010
0000
,
0001
0100
0001
0000
,
0100
0100
0000
0100
,
0010
0010
0000
0010
,
0100
0100
0000
0100
,
0000
0000
0000
0000
,
0001
0000
0100
0000
,
0001
0010
0001
0000
,
1000
0000
0010
0000
,
1000
0100
1000
0000
,
0010
0010
0000
0010
,
0100
0100
0000
0100
,
0010
0010
0000
0010
,
0000
0000
0110
1001
,
0000
0010
0000
0001
,
0000
0100
0000
0001
,
0000
1000
0000
0001
,
0000
0000
0110
1001
,
0000
0010
0000
1000
,
0000
0010
0000
1000
,
0000
0001
0000
1000
,
0000
0000
1001
1001
,
0001
0100
0001
0100
,
0001
0100
0001
0100
,
0010
1000
0010
1000
,
0010
1000
0010
1000
,
0000
1000
0000
0010
,
0000
0100
0000
1000
,
0000
0001
0000
0010
,
0000
0010
0000
0001
,
0000
0001
0000
0100
,
0000
0010
0000
0001
,
0000
0010
0000
0010
,
0000
0000
0110
1001
,
0000
0010
0000
0001
,
0000
0100
0000
0001
,
0000
1000
0001
0000
,
0000
0000
0110
1001
,
0000
0010
0000
1000
,
0000
0100
0000
1000
,
0000
0001
1000
0000
,
0000
0000
0110
1001
,
0000
0100
0000
1000
,
0000
0010
0000
1000
,
0000
0001
1000
0000
,
0000
0000
0110
1001
,
0000
0100
0000
0001
,
0000
0010
0000
0001
,
0000
1000
0001
0000
,
0000
0000
1001
1001
;

//---------------dance-single - ----------------
#NOTES:
     dance-single:
     :
     Medium:
     8:
     0.269919,0.393863,0.185238,0.000000,0.000000,204.000000,184.000000,20.000000,0.000000,0.000000,0.000000,0.269919,0.393863,0.185238,0.000000,0.000000,204.000000,184.000000,20.000000,0.000000,0.000000,0.000000:
0000
0000
0000
0000
,
0000
0000
0000
0000
,
0000
0000
0000
0000
,
0110
0000
0000
0000
,
0000
0000
0000
0000
,
1001
0000
0000
0000
,
1000
0000
0000
0000
,
0001
0000
1000
0000
,
0001
0001
1000
1000
,
0001
0000
0100
0000
,
1000
0000
0100
0000
0001
0100
0010
0000
,
1000
0000
0100
0000
,
0001
0000
0010
0000
1000
0010
0100
0000
,
0100
0000
0000
0100
0100
0000
0000
0000
,
0100
0000
0000
0100
0100
0000
0000
0000
,
0010
0000
0000
0010
0010
0000
0000
0000
,
0000
0000
0000
0000
,
1000
0000
0001
0000
,
1000
0000
0100
0000
1000
0100
0010
0000
,
0001
0000
1000
0000
,
0001
0000
0010
0000
0001
0010
0100
0000
,
0100
0000
0000
0100
0100
0000
0000
0000
,
0100
0000
0000
0100
0100
0000
0000
0000
,
0010
0000
0000
0010
0010
0000
0000
0000
,
0000
0000
1100
0011
,
1000
0000
0000
1000
1000
0000
0100
0000
,
0010
0000
0000
0010
0010
0000
0100
0000
,
0010
0000
0000
0001
0001
0000
0000
0000
,
0000
0000
0101
1010
,
0001
0000
0000
0001
0001
0000
0010
0000
,
0100
0000
0000
0100
0100
0000
0010
0000
,
0100
0000
0000
1000
1000
0000
0000
0000
,
0000
0110
0000
0000
0011
0000
1001
0000
,
1000
0000
0100
0100
1000
1000
0100
0000
,
1000
0000
0100
0100
1000
1000
0100
0000
,
0010
0000
0001
0001
0010
0010
0001
0000
,
0010
0000
0001
0001
0010
0010
0001
0000
,
0000
0001
0000
0010
,
0000
0000
0100
0000
0000
0000
0001
1000
,
0000
1000
0000
0010
,
0000
0000
0010
0000
0000
0000
1000
0001
,
0000
1000
0000
0100
,
0000
0000
0010
0000
0000
0000
1000
0100
,
0000
0010
0000
0010
,
0000
0000
1100
0011
,
1000
0000
0000
1000
1000
0000
0100
0000
,
0010
0000
0000
0010
0010
0000
0100
0000
,
0010
0000
0000
0001
0001
0000
0000
0000
,
0000
0000
0101
1010
,
0001
0000
0000
0001
0001
0000
0010
0000
,
0100
0000
0000
0100
0100
0000
0010
0000
,
0100
0000
0000
1000
1000
0000
0000
0000
,
0000
0000
0011
1100
,
1000
0000
0000
1000
1000
0000
0100
1000
,
0010
0000
0000
0010
0010
0000
0100
0001
,
0010
0000
0000
0001
0001
0000
0000
0000
,
0000
0000
1010
0101
,
0001
0000
0000
0001
0001
0000
0010
0001
,
0100
0000
0000
0100
0100
0000
0010
1000
,
0100
0000
0000
1000
1000
0000
0000
0000
,
0000
0110
0000
0000
1010
0000
1001
0000
;

//---------------dance-single - ----------------
#NOTES:
     dance-single:
     :
     Hard:
     10:
     0.404878,0.478262,0.194500,0.000000,0.000000,306.000000,285.000000,21.000000,0.000000,0.000000,0.000000,0.404878,0.478262,0.194500,0.000000,0.000000,306.000000,285.000000,21.000000,0.000000,0.000000,0.000000:
// measure 0
0000
0000
0000
0000
,  // measure 1
0000
0000
0000
0000
,  // measure 2
0000
0000
0000
0000
,  // measure 3
0110
0100
0000
0100
0100
0000
0000
0000
,  // measure 4
0000
0000
0000
0000
,  // measure 5
1001
0001
0000
0001
0001
0000
0000
0000
,  // measure 6
0001
1000
0000
1000
1000
0000
0000
0000
,  // measure 7
1000
0001
0000
0001
0001
0000
0000
0000
,  // measure 8
1000
0000
0100
0000
1000
0001
1000
0000
,  // measure 9
1000
0100
0010
0001
,  // measure 10
1000
0010
0100
0000
0010
0001
0001
0000
,  // measure 11
1000
0010
0100
0001
,  // measure 12
0001
0010
0100
0000
0010
1000
1000
0000
,  // measure 13
0100
0000
0010
0000
0100
0100
0100
0000
,  // measure 14
0010
0100
0010
0100
,  // measure 15
0010
0000
0100
0000
0010
0010
0010
0000
,  // measure 16
1001
0000
0000
0000
,  // measure 17
0001
0100
0010
1000
,  // measure 18
0001
0010
0100
0000
0010
1000
1000
0000
,  // measure 19
0001
0100
0001
1000
,  // measure 20
1000
0010
0100
0000
0010
0001
0001
0000
,  // measure 21
0010
0000
0100
0000
0010
0010
0010
0000
,  // measure 22
0100
0010
0100
0010
,  // measure 23
0100
0000
0010
0000
0100
0100
0100
0000
,  // measure 24
0000
0000
0011
1100
,  // measure 25
0001
1000
0000
1000
0000
1000
0100
0001
,  // measure 26
0000
0001
0100
1000
0000
1000
0100
0001
,  // measure 27
0000
0001
1000
0001
0000
0001
0100
0001
,  // measure 28
0000
0000
1010
0101
,  // measure 29
1000
0001
0000
0001
0000
0001
0100
1000
,  // measure 30
0000
1000
0100
0001
0000
0001
0100
1000
,  // measure 31
0000
1000
0001
1000
0000
1000
0100
1000
,  // measure 32
0000
0110
0000
0000
1100
0000
1001
0000
,  // measure 33
0001
0001
0010
0010
0001
0001
0010
0010
,  // measure 34
0001
0001
0010
0010
0001
0001
0010
0010
,  // measure 35
0100
0100
1000
1000
0100
0100
1000
1000
,  // measure 36
0100
0100
1000
1000
0100
0100
1000
1000
,  // measure 37
0010
1000
0010
0100
,  // measure 38
0001
0100
0000
0100
1000
0000
0001
0000
,  // measure 39
0010
0001
1000
0100
,  // measure 40
1000
0100
0000
0100
0001
0000
1000
0000
,  // measure 41
0100
0001
0100
0010
,  // measure 42
0001
0010
0000
0010
1000
0000
0001
0000
,  // measure 43
1000
0100
0010
0100
,  // measure 44
1000
0010
0011
1100
,  // measure 45
0001
1000
0000
1000
0000
1000
0100
0001
,  // measure 46
0000
0001
0100
1000
0000
1000
0001
1000
,  // measure 47
0001
0001
0000
0001
0000
0001
0010
1000
,  // measure 48
0000
0000
1010
0101
,  // measure 49
1000
0001
0000
0001
0000
0001
0010
1000
,  // measure 50
0000
1000
0010
0001
0000
0001
1000
0001
,  // measure 51
1000
1000
0000
1000
0000
1000
0100
0001
,  // measure 52
0000
0000
1100
0011
,  // measure 53
1000
0001
0000
0001
0000
0001
0100
0010
,  // measure 54
1000
0100
1000
0010
1000
0001
1000
0001
,  // measure 55
1000
1000
0000
1000
0000
1000
0100
0001
,  // measure 56
0000
0000
0101
1010
,  // measure 57
0001
1000
0000
1000
0000
1000
0010
0100
,  // measure 58
0001
0010
0001
0100
0001
1000
0001
1000
,  // measure 59
0001
0001
0000
0001
0000
0001
0010
1000
,  // measure 60
0000
0110
0000
0000
0101
0000
1001
0000
;

//---------------dance-single - ----------------
#NOTES:
     dance-single:
     :
     Challenge:
     12:
     0.559684,0.545527,0.361215,0.231548,0.277858,423.000000,384.000000,39.000000,25.000000,0.000000,0.000000,0.559684,0.545527,0.361215,0.231548,0.277858,423.000000,384.000000,39.000000,25.000000,0.000000,0.000000:
// measure 0
0000
0000
0000
0000
,  // measure 1
0000
0000
0000
0000
,  // measure 2
0000
0000
0000
0000
,  // measure 3
1001
0000
0000
1010
0000
0000
0110
0000
0000
0000
0100
0000
0001
0000
0010
0000
,  // measure 4
0001
1000
0001
1000
0010
0100
0010
0000
,  // measure 5
0101
0000
0000
1001
0000
0000
1010
0000
0000
0110
0000
0000
0101
0000
0000
0000
,  // measure 6
0001
0010
1000
0010
0001
0100
1000
0100
,  // measure 7
0001
1000
0001
0000
1000
0010
1000
0000
,  // measure 8
0010
0000
0100
0000
0001
0010
0000
0000
0001
0000
1000
0000
0100
0000
0100
0000
,  // measure 9
1000
0010
1000
0100
0020
0000
0031
0200
,  // measure 10
0000
0000
1300
0000
0200
0000
0000
0000
0301
0000
0010
0001
0010
0000
0001
0000
,  // measure 11
0100
0010
1000
0010
0200
0000
0301
0020
,  // measure 12
0000
0000
2030
0000
0000
0000
3020
0000
0000
0000
0031
0100
0001
0000
1000
0000
,  // measure 13
0020
0000
0000
0100
0000
0000
0100
0000
0000
0100
0000
0000
0130
0000
0000
0000
,  // measure 14
1000
0100
0001
0100
1000
0010
0001
0010
,  // measure 15
2000
0000
0000
0000
3100
0000
0001
0000
0100
0000
0000
0000
1000
0000
0001
0010
,  // measure 16
0001
0000
0100
0000
0000
0100
0000
0000
0010
0000
1000
0000
0010
0000
0100
0000
,  // measure 17
0001
0010
0001
1000
0200
0000
0301
0200
,  // measure 18
0000
0000
1300
0000
0010
0000
0100
0000
0001
0000
0010
0100
0010
0000
0001
0000
,  // measure 19
1000
0000
0010
0100
0010
1000
0001
0000
,  // measure 20
0100
0000
0001
0000
0010
0000
0001
0000
1000
0000
0100
1000
0100
0000
1000
0000
,  // measure 21
0020
0000
0000
0100
0000
0000
0100
0000
0000
0100
0000
0000
0130
0000
0000
0000
,  // measure 22
0001
0010
0001
0010
0100
1000
0100
0000
,  // measure 23
1000
0010
1000
0010
0001
0000
0010
0010
,  // measure 24
1000
0000
0000
0000
1100
0000
0000
0000
0100
0000
0000
0100
0010
0000
0001
0000
,  // measure 25
0010
0100
0010
0000
0100
1000
0100
0000
,  // measure 26
0001
0010
0001
0100
0020
0000
1030
0100
,  // measure 27
0010
0000
0000
0011
0000
0000
0101
0000
0000
0110
0000
0000
1010
0000
1000
0000
,  // measure 28
0100
0000
0010
0000
0001
0010
1000
0010
,  // measure 29
0001
0000
0000
0101
0000
0000
1100
0000
0000
0101
0000
0000
0011
0000
0000
0000
,  // measure 30
0010
0100
1000
0100
0010
0001
0010
0001
,  // measure 31
0100
0000
0000
0110
0000
0000
1010
0000
0000
1100
0000
0000
0110
0000
0000
0000
,  // measure 32
0010
0000
0000
0010
0100
0000
1000
0000
0001
1000
0001
0000
0100
0000
0010
0000
,  // measure 33
0200
0000
0000
0000
0301
0000
0010
0000
0001
0000
0010
0000
0100
1000
0100
0000
,  // measure 34
1000
0000
0000
1000
0010
0000
0000
0010
0100
0000
0000
0100
0001
0010
0001
0000
,  // measure 35
0010
0000
0000
0010
0100
0000
0000
0100
1000
0000
0000
1000
0001
0000
0000
0001
,  // measure 36
0010
0000
0000
0010
0001
0000
0000
0001
0100
0000
0000
0100
1000
0000
0000
1000
,  // measure 37
0001
0010
0001
1000
1001
0000
0101
0000
,  // measure 38
0100
0000
0010
0000
1000
0000
0010
0000
0100
0000
0001
0010
0001
0000
0010
0000
,  // measure 39
0200
0000
0000
1000
0000
0000
1000
0000
0000
1000
0000
0000
1300
0000
0001
0000
,  // measure 40
0020
0000
0000
0000
0031
0000
0100
0000
1000
0000
0100
0001
0100
0000
0001
0000
,  // measure 41
0020
0000
0000
1000
0000
0000
0031
0000
0000
0000
0000
0000
0001
0000
0100
0000
,  // measure 42
1000
0000
1100
0000
0001
0010
0100
1000
,  // measure 43
0001
0000
0101
0000
0010
1000
0100
1000
,  // measure 44
0001
0000
0000
0000
0011
0000
0000
0000
0110
0000
0000
0100
1000
0000
0010
0000
,  // measure 45
2000
0000
0000
0001
0000
0000
0010
0000
0000
0001
0000
0000
3010
0000
0100
0000
,  // measure 46
0001
0000
0001
0000
1000
0000
1000
0100
,  // measure 47
0001
0100
0000
1000
0100
0000
0010
0001
0000
0100
0010
0000
0100
0000
0000
0000
,  // measure 48
0001
0010
0001
1000
0100
0000
1100
0000
,  // measure 49
1010
0000
0000
0010
0100
0000
0001
0000
0100
0000
0010
0000
1000
0000
0000
0000
,  // measure 50
2100
3200
0320
0032
,  // measure 51
0023
0000
0000
0100
0000
0000
0100
0000
0000
1000
0000
0000
1030
0000
0000
0000
,  // measure 52
0001
0000
0000
0100
0001
0000
0000
0000
1000
0000
0000
0010
1000
0000
0000
0000
,  // measure 53
0020
0000
0000
0100
0000
0000
0001
0000
0000
0100
0000
0000
0031
0000
0000
0000
,  // measure 54
1000
0010
0001
0010
1000
0000
0100
0001
,  // measure 55
0100
0000
0000
1100
0000
0000
1010
0000
0000
0011
0000
0000
1010
0000
0000
0000
,  // measure 56
1000
0100
0010
0000
0001
0010
1000
0010
,  // measure 57
0001
0000
0000
0001
0100
0000
0010
0000
1000
0000
0010
0000
0100
0000
0000
0000
,  // measure 58
0001
0010
0001
0000
1000
0100
1000
0000
,  // measure 59
1010
0000
0000
0011
0000
0000
1010
0000
0000
1100
0000
0000
0101
0000
0000
0000
,  // measure 60
0100
1000
0010
0000
0100
0001
0010
0100
,  // measure 61
2000
0000
0000
0000
,  // measure 62
3000
0000
0000
0000
;
