#TITLE:Horatio;
#SUBTITLE:;
#ARTIST:OR-IF-IS;
#TITLETRANSLIT:;
#SUBTITLETRANSLIT:;
#ARTISTTRANSLIT:;
#GENRE:;
#CREDIT:;
#BANNER:Horatio.png;
#BACKGROUND:Horatio-bg.png;
#LYRICSPATH:;
#CDTITLE:;
#MUSIC:Horatio.ogg;
#OFFSET:0.000000;
#SAMPLESTART:27.669987;
#SAMPLELENGTH:15.000000;
#SELECTABLE:YES;
#DISPLAYBPM:165.000000;
#BPMS:0.000000=165.138000
,4.000000=164.996994
;
#STOPS:
;
#BGCHANGES:0.000=Horatio.avi=1.000=0=0=0=StretchNoLoop====,
99999=-nosongbg-=1.000=0=0=0 // don't automatically add -songbackground-
;
#KEYSOUNDS:;
#ATTACKS:;

//---------------dance-single - ----------------
#NOTES:
     dance-single:
     :
     Beginner:
     2:
     0.134900,0.202849,0.069948,0.011658,0.000000,81.000000,75.000000,6.000000,1.000000,0.000000,0.000000,0.134900,0.202849,0.069948,0.011658,0.000000,81.000000,75.000000,6.000000,1.000000,0.000000,0.000000:
// measure 0
0000
0000
0000
0000
,  // measure 1
0000
0000
0000
0000
,  // measure 2
0000
0000
0000
0000
,  // measure 3
0000
0000
0000
0000
,  // measure 4
0000
0000
0000
0000
,  // measure 5
0001
0000
0000
0000
,  // measure 6
0100
0000
0100
0000
,  // measure 7
1000
0000
0000
0000
,  // measure 8
0100
0000
0100
0000
,  // measure 9
0001
0000
0000
0000
,  // measure 10
0010
0000
0010
0000
,  // measure 11
0100
0000
0000
0000
,  // measure 12
1000
0000
0000
0000
,  // measure 13
0100
0000
0100
0000
,  // measure 14
0010
0000
0000
0000
,  // measure 15
0001
0000
0001
0000
,  // measure 16
0100
0000
0000
0000
,  // measure 17
0010
0000
0010
0000
,  // measure 18
1000
0000
0000
0000
,  // measure 19
0001
0000
0001
0000
,  // measure 20
1000
0000
1000
0000
,  // measure 21
0001
0000
0001
0000
,  // measure 22
0001
0000
0001
0000
,  // measure 23
0100
0000
0100
0000
,  // measure 24
0010
0000
0010
0000
,  // measure 25
0100
0000
0100
0000
,  // measure 26
0100
0000
0100
0000
,  // measure 27
1000
0000
1000
0000
,  // measure 28
0001
0000
0001
0000
,  // measure 29
1000
0000
0001
0000
,  // measure 30
1001
0000
0000
0000
,  // measure 31
0000
0000
0000
0000
,  // measure 32
1001
0000
0000
0000
,  // measure 33
0000
0000
0000
0000
,  // measure 34
0110
0000
0000
0000
,  // measure 35
0000
0000
0000
0000
,  // measure 36
0110
0000
0000
0000
,  // measure 37
0000
0000
0000
0000
,  // measure 38
0001
0000
0000
0000
,  // measure 39
1000
0000
0000
0000
,  // measure 40
0001
0000
0000
0000
,  // measure 41
1000
0000
0000
0000
,  // measure 42
0020
0000
0000
0030
,  // measure 43
0000
0000
0000
0000
,  // measure 44
0001
0000
0000
0000
,  // measure 45
1000
0000
1000
0000
,  // measure 46
0100
0000
0000
0000
,  // measure 47
0001
0000
0001
0000
,  // measure 48
0100
0000
0000
0000
,  // measure 49
1000
0000
0001
0000
,  // measure 50
1000
0000
0000
0000
,  // measure 51
1000
0000
1000
0000
,  // measure 52
0100
0000
0100
0000
,  // measure 53
0010
0000
0010
0000
,  // measure 54
0001
0000
0001
0000
,  // measure 55
1000
0000
1000
0000
,  // measure 56
0010
0000
0010
0000
,  // measure 57
0110
0000
0000
0000
,  // measure 58
0110
0000
0000
0000
;

//---------------dance-single - ----------------
#NOTES:
     dance-single:
     :
     Easy:
     4:
     0.229829,0.304274,0.116580,0.046632,0.000000,138.000000,128.000000,10.000000,4.000000,0.000000,0.000000,0.229829,0.304274,0.116580,0.046632,0.000000,138.000000,128.000000,10.000000,4.000000,0.000000,0.000000:
// measure 0
0000
0000
0000
0000
,  // measure 1
0000
0000
0000
0000
,  // measure 2
0000
0000
0000
0000
,  // measure 3
0000
0000
0000
0000
,  // measure 4
0100
0000
0000
0000
,  // measure 5
1000
0000
1000
0000
,  // measure 6
0001
0000
0100
0000
,  // measure 7
0010
0000
0010
0000
,  // measure 8
1000
0000
0001
0000
,  // measure 9
0010
0000
0010
0000
,  // measure 10
0100
0000
1000
0000
,  // measure 11
0001
0000
0001
0000
,  // measure 12
0100
0000
1000
0000
,  // measure 13
0100
0000
0001
0001
,  // measure 14
0010
0000
1000
0000
,  // measure 15
0010
0000
0001
0001
,  // measure 16
0100
0000
0010
0000
,  // measure 17
1000
0000
0001
0001
,  // measure 18
0010
0010
0100
0100
,  // measure 19
0110
0000
1000
0000
,  // measure 20
0110
0000
0001
0000
,  // measure 21
1001
0000
0100
0000
,  // measure 22
1001
0000
0010
0000
,  // measure 23
1000
1000
0100
0000
,  // measure 24
0001
0001
0100
0000
,  // measure 25
1000
1000
0010
0000
,  // measure 26
0001
0001
0010
0000
,  // measure 27
0100
0100
1000
0000
,  // measure 28
0010
0010
0100
0000
,  // measure 29
0001
0001
1000
1000
,  // measure 30
1001
0000
0000
0001
,  // measure 31
0010
0100
1000
0000
,  // measure 32
1001
0000
0000
0100
,  // measure 33
0010
0100
0010
0000
,  // measure 34
0110
0000
0000
1000
,  // measure 35
0010
0100
0001
0000
,  // measure 36
1001
0000
0000
0010
,  // measure 37
0100
0010
0100
0000
,  // measure 38
0002
0000
0003
0000
,  // measure 39
0200
0000
0300
0000
,  // measure 40
2000
0000
3000
0000
,  // measure 41
0020
0000
0030
0000
,  // measure 42
0110
0000
0000
0000
,  // measure 43
1000
0100
0010
0001
,  // measure 44
1000
0000
0001
0000
,  // measure 45
1000
0000
0010
0000
,  // measure 46
0100
0000
0001
0000
,  // measure 47
0100
0100
0010
0010
,  // measure 48
1000
0000
0100
0000
,  // measure 49
0010
0000
0001
0000
,  // measure 50
1000
0000
0100
0100
,  // measure 51
0100
0000
0001
0000
,  // measure 52
0010
0000
1000
1000
,  // measure 53
0100
0000
0001
0000
,  // measure 54
0100
0000
1000
1000
,  // measure 55
0010
0000
0100
0000
,  // measure 56
0001
0000
1000
1000
,  // measure 57
0100
0000
0010
0000
,  // measure 58
0110
0000
0000
0000
;

//---------------dance-single - ----------------
#NOTES:
     dance-single:
     :
     Medium:
     9:
     0.457993,0.507123,0.361398,0.163212,0.000000,275.000000,244.000000,31.000000,14.000000,0.000000,0.000000,0.457993,0.507123,0.361398,0.163212,0.000000,275.000000,244.000000,31.000000,14.000000,0.000000,0.000000:
// measure 0
0000
0000
0000
0000
,  // measure 1
0000
0000
0000
0000
,  // measure 2
0000
0000
0000
0000
,  // measure 3
0000
0000
0000
0000
,  // measure 4
1001
0000
0000
0000
,  // measure 5
0010
0000
0100
1000
0000
0100
0001
0000
,  // measure 6
0100
0000
1000
0010
0000
0001
0010
0000
,  // measure 7
0100
0000
1000
0100
0000
0001
0100
0000
,  // measure 8
0010
0000
1000
0010
0000
0001
0010
0000
,  // measure 9
0100
0000
0001
0010
0000
0001
0100
0000
,  // measure 10
0010
0000
1000
0100
0000
1000
0010
0000
,  // measure 11
0100
0000
0001
1000
0000
0010
0100
0001
,  // measure 12
2000
0100
0100
3100
,  // measure 13
0100
1000
0100
1000
0100
0010
0100
0010
,  // measure 14
0002
1000
1000
1003
,  // measure 15
1000
0010
1000
0010
0100
0010
0100
0010
,  // measure 16
0200
0001
0001
0301
,  // measure 17
0001
0100
0001
0100
0001
0010
0001
0010
,  // measure 18
0100
1000
0001
1000
,  // measure 19
0020
1000
0100
1030
,  // measure 20
0200
0001
0010
0301
,  // measure 21
0020
0001
0100
0031
,  // measure 22
0200
1000
0010
1300
,  // measure 23
0021
0100
0001
0130
,  // measure 24
1200
0010
1000
0310
,  // measure 25
2100
0001
0100
3001
,  // measure 26
0102
1000
0100
1003
,  // measure 27
1001
0000
0000
0101
0000
0000
0011
0000
,  // measure 28
1001
0000
0000
1010
0000
0000
1100
0000
,  // measure 29
1001
0000
0000
0110
0000
1000
0001
1000
,  // measure 30
1001
0000
0000
1001
0000
0000
0100
0000
,  // measure 31
0010
0001
1000
0100
,  // measure 32
1100
0000
0000
1100
0000
0000
0010
0000
,  // measure 33
0001
0010
0001
0100
,  // measure 34
0101
0000
0000
0101
0000
0000
1000
0000
,  // measure 35
0010
0100
0001
0010
,  // measure 36
0110
0000
0000
0110
0000
0000
0001
0000
,  // measure 37
0010
0100
1000
0010
,  // measure 38
1010
0000
0000
1001
0000
0000
0000
0000
,  // measure 39
0011
0000
0000
1001
0000
0000
0000
0000
,  // measure 40
1100
0000
0000
1001
0000
0000
0000
0000
,  // measure 41
0101
0000
0000
1001
0000
0000
0000
0000
,  // measure 42
0110
0000
0000
1001
0000
0000
0000
0000
,  // measure 43
1000
0100
0010
0001
1000
0100
0010
0001
,  // measure 44
0100
0000
0010
1000
0000
0010
0001
0000
,  // measure 45
0010
0000
1000
0100
0000
0001
0100
0000
,  // measure 46
0010
0000
1000
0010
0000
0001
0010
0000
,  // measure 47
0100
0000
1000
0100
0000
0001
0100
0000
,  // measure 48
0010
0000
0001
0100
0000
0001
0010
0000
,  // measure 49
0100
0000
1000
0010
0000
1000
0100
0000
,  // measure 50
0010
0000
0001
1000
0000
0100
0010
0001
,  // measure 51
2000
0100
0001
3010
,  // measure 52
0010
1000
0010
1000
0010
0100
0010
0100
,  // measure 53
0002
0010
1000
0103
,  // measure 54
1000
0100
1000
0100
0010
0100
0010
0100
,  // measure 55
0020
1000
0100
0031
,  // measure 56
1000
0001
1000
0001
1000
0010
0100
0010
,  // measure 57
0100
0000
0000
1000
0000
0001
1000
0100
,  // measure 58
0001
0000
0000
0000
;

//---------------dance-single - ----------------
#NOTES:
     dance-single:
     :
     Hard:
     15:
     0.881012,1.115671,0.303108,0.139896,0.915153,529.000000,503.000000,26.000000,12.000000,0.000000,0.000000,0.881012,1.115671,0.303108,0.139896,0.915153,529.000000,503.000000,26.000000,12.000000,0.000000,0.000000:
// measure 0
0000
0000
0000
0000
,  // measure 1
0000
0000
0000
0000
,  // measure 2
0000
0000
0000
0000
,  // measure 3
0000
0000
0000
0000
,  // measure 4
1001
0000
0000
0000
,  // measure 5
1000
0010
1000
0010
1000
0010
1000
0010
1000
0010
1000
0010
1000
0010
1000
0010
,  // measure 6
0100
0001
0100
0001
1000
0001
1000
0001
,  // measure 7
0010
0001
0010
0001
0010
0001
0010
0001
0010
0001
0010
0001
0010
0001
0010
0001
,  // measure 8
1000
0100
1000
0100
1000
0001
1000
0001
,  // measure 9
0100
0001
0100
0001
0100
0001
0100
0001
0100
0001
0100
0001
0100
0001
0100
0001
,  // measure 10
1000
0010
1000
0010
1000
0100
1000
0100
,  // measure 11
1000
0001
1000
0001
1000
0001
1000
0001
1000
0001
1000
0001
1000
0001
1000
0001
,  // measure 12
0100
0010
1000
0001
0100
0010
1000
0001
,  // measure 13
0100
0010
0100
0010
0100
0010
0100
0010
1000
0010
1000
0010
1000
0010
1000
0001
,  // measure 14
1000
0100
1000
0010
0100
0001
1000
0100
,  // measure 15
0010
0100
0010
0100
0010
0100
0010
0100
1000
0100
1000
0100
1000
0100
1000
0001
,  // measure 16
1000
0100
0010
0001
1000
0010
0100
0001
,  // measure 17
0010
0001
0010
0001
0010
0001
0010
0001
1000
0001
1000
0001
1000
0001
1000
0010
,  // measure 18
1000
0001
0100
0010
1000
0001
1000
0001
,  // measure 19
2001
0100
0001
3100
,  // measure 20
1001
0000
0000
1000
0100
0000
0000
0100
0010
0000
0000
0010
0001
0000
0000
0000
,  // measure 21
1002
0100
1000
0103
,  // measure 22
1001
0000
0000
1000
0010
0000
0000
0010
0100
0000
0000
0100
0001
0000
0000
0000
,  // measure 23
1001
0000
0000
0100
0001
0000
0000
0010
0100
0000
0000
1000
0010
0000
0000
0000
,  // measure 24
1001
0000
0000
0001
0010
0000
0000
0010
0001
0000
0000
1000
0100
0000
1000
0000
,  // measure 25
0011
0000
0000
0100
1000
0000
0000
0010
0100
0000
0000
0001
0010
0000
0000
0000
,  // measure 26
1001
0000
0000
1000
0010
0000
0000
0010
1000
0000
0000
0001
0100
0000
0001
0000
,  // measure 27
1010
0000
0000
0100
0001
0000
0000
1000
0100
0000
0000
1000
0001
0000
0000
0000
,  // measure 28
0011
0000
0000
0100
1000
0000
0000
0001
0100
0000
0000
0001
1000
0000
0000
0000
,  // measure 29
1010
0000
0000
0010
0100
0000
0000
0100
0001
0000
1000
0001
1000
0001
1000
0000
,  // measure 30
1001
0000
0000
0000
0000
0000
1001
0000
0000
0000
0001
1000
0001
0000
0000
0000
,  // measure 31
0010
0100
1000
0001
,  // measure 32
1001
0000
0000
0000
0000
0000
1001
0000
0000
0000
0100
0010
0100
0000
0000
0000
,  // measure 33
0100
0100
0100
0100
,  // measure 34
0110
0000
0000
0210
0000
0000
0320
0000
,  // measure 35
2030
3002
0203
0310
,  // measure 36
0110
0000
0000
0120
0000
0000
2030
0000
,  // measure 37
3002
0000
0023
0000
0230
0000
1300
0001
,  // measure 38
1000
0001
1000
0001
1000
0001
1000
0001
1000
0001
1000
0001
1000
0001
1000
0001
,  // measure 39
1000
0010
0100
0001
1000
0100
0010
0001
,  // measure 40
1000
0100
0010
0001
1000
0010
0100
0001
,  // measure 41
1000
0100
0010
1000
0001
1000
0010
0100
,  // measure 42
1000
0000
0001
0000
0100
0000
0010
0000
1000
0100
1000
0100
1000
0100
1000
0100
,  // measure 43
0010
0001
1000
0100
0010
0001
1000
0100
,  // measure 44
0001
0000
0100
0000
1000
0000
0001
0000
0100
0000
0001
1000
0001
0000
0100
0000
,  // measure 45
0010
0000
1000
0000
0010
0000
0100
0000
0001
0000
1000
0100
1000
0000
0001
0100
,  // measure 46
0001
0000
0010
0000
0001
0000
0100
0000
0001
0000
1000
0010
1000
0000
0001
0010
,  // measure 47
0001
0000
1000
0000
0100
0000
0010
0001
0010
0000
0100
1000
0100
0000
1000
0001
,  // measure 48
1000
0000
0001
0000
0010
0000
0100
0000
1000
0000
0001
0100
0001
0000
1000
0100
,  // measure 49
1000
0000
0010
0000
0001
0000
0010
0000
1000
0000
0100
0010
0100
0000
1000
0001
,  // measure 50
1000
1001
0110
1001
,  // measure 51
0001
0100
0001
0100
0001
0100
0001
0100
0001
0100
0001
0100
0001
0100
0001
0100
,  // measure 52
0001
1000
0001
1000
0001
1000
0001
1000
0100
1000
0100
1000
0100
1000
0100
1000
,  // measure 53
0001
0010
0001
0010
0001
0010
0001
0010
0001
0010
0001
0010
0001
0010
0001
0010
,  // measure 54
0001
1000
0001
1000
0001
1000
0001
1000
0010
1000
0010
1000
0010
1000
0010
1000
,  // measure 55
0010
0100
0010
0100
0010
0100
0010
0100
0010
0100
0010
0100
0010
0100
0010
0100
,  // measure 56
0001
0100
0001
0100
0001
0100
0001
0100
0001
1000
0001
1000
0001
1000
0001
0000
,  // measure 57
1001
0000
0000
0110
0000
1000
0001
1000
,  // measure 58
0110
0000
0000
0000
;

//---------------dance-single - ----------------
#NOTES:
     dance-single:
     :
     Challenge:
     15:
     0.761101,0.912821,0.244818,0.139896,0.716967,457.000000,436.000000,21.000000,12.000000,148.000000,0.000000,0.761101,0.912821,0.244818,0.139896,0.716967,457.000000,436.000000,21.000000,12.000000,148.000000,0.000000:
// measure 0
0000
0000
0000
0000
,  // measure 1
0000
0000
0000
0000
,  // measure 2
0000
0000
0000
0000
,  // measure 3
0000
0000
0000
0000
,  // measure 4
1001
0000
0000
0000
,  // measure 5
MMMM
0000
1000
0010
1000
0010
1000
0000
MMMM
0000
1000
0010
1000
0010
1000
0010
,  // measure 6
0100
0001
0100
0001
1000
0001
1000
0001
,  // measure 7
MMMM
0000
0010
0001
0010
0001
0010
0000
MMMM
0000
0010
0001
0010
0001
0010
0001
,  // measure 8
1000
0100
1000
0100
1000
0001
1000
0001
,  // measure 9
MMMM
0000
0100
0001
0100
0001
0100
0000
MMMM
0000
0100
0001
0100
0001
0100
0001
,  // measure 10
1000
0010
1000
0010
1000
0100
1000
0100
,  // measure 11
MMMM
0000
1000
0001
1000
0001
1000
0000
MMMM
0000
1000
0001
1000
0001
1000
0001
,  // measure 12
0100
0010
1000
0001
0100
0010
1000
0001
,  // measure 13
MMMM
0000
0100
0010
0100
0010
0100
0000
MMMM
0000
1000
0010
1000
0010
1000
0001
,  // measure 14
1000
0100
1000
0010
0100
0001
1000
0100
,  // measure 15
MMMM
0000
0010
0100
0010
0100
0010
0000
MMMM
0000
1000
0100
1000
0100
1000
0001
,  // measure 16
1000
0100
0010
0001
1000
0010
0100
0001
,  // measure 17
MMMM
0000
0010
0001
0010
0001
0010
0000
MMMM
0000
1000
0001
1000
0001
1000
0010
,  // measure 18
1000
0001
0100
0010
1000
0001
1000
0001
,  // measure 19
2001
0100
0001
3100
,  // measure 20
MMMM
0000
0000
1000
0100
0000
0000
0100
0010
0000
0000
0010
0001
0000
0000
0000
,  // measure 21
1002
0100
1000
0103
,  // measure 22
MMMM
0000
0000
1000
0010
0000
0000
0010
0100
0000
0000
0100
0001
0000
0000
0000
,  // measure 23
1001
0000
0000
0100
0001
0000
0000
0010
0100
0000
0000
1000
0010
0000
0000
0000
,  // measure 24
MMMM
0000
0000
0001
0010
0000
0000
0010
0001
0000
0000
1000
0100
0000
1000
0000
,  // measure 25
0011
0000
0000
0100
1000
0000
0000
0010
0100
0000
0000
0001
0010
0000
0000
0000
,  // measure 26
MMMM
0000
0000
1000
0010
0000
0000
0010
1000
0000
0000
0001
0100
0000
0001
0000
,  // measure 27
1010
0000
0000
0100
0001
0000
0000
1000
0100
0000
0000
1000
0001
0000
0000
0000
,  // measure 28
MMMM
0000
0000
0100
1000
0000
0000
0001
0100
0000
0000
0001
1000
0000
0000
0000
,  // measure 29
1010
0000
0000
0010
0100
0000
0000
0100
0001
0000
1000
0001
1000
0001
1000
0000
,  // measure 30
1001
0000
0000
0000
MMMM
0000
1001
0000
0000
0000
0001
1000
0001
0000
0000
0000
,  // measure 31
0010
0100
1000
0001
,  // measure 32
1001
0000
0000
0000
MMMM
0000
1001
0000
0000
0000
0100
0010
0100
0000
0000
0000
,  // measure 33
0100
0100
0100
0100
,  // measure 34
0110
0000
MMMM
0210
0000
0000
0320
0000
,  // measure 35
2030
3002
0203
0310
,  // measure 36
0110
0000
MMMM
0120
0000
0000
2030
0000
,  // measure 37
3002
0000
0023
0000
0230
0000
1300
0001
,  // measure 38
1000
0001
1000
0001
1000
0001
1000
0001
1000
0001
1000
0001
1000
0001
1000
0000
,  // measure 39
MMMM
0010
0100
MMMM
1000
0100
0010
0001
,  // measure 40
MMMM
0100
0010
MMMM
1000
0010
0100
0001
,  // measure 41
MMMM
0100
0010
MMMM
0001
1000
0010
0100
,  // measure 42
MMMM
0000
0001
0000
0100
0000
MMMM
0000
1000
0100
1000
0100
1000
0100
1000
0100
,  // measure 43
0010
0001
1000
0100
0010
0001
1000
0100
,  // measure 44
0001
0000
0100
0000
1000
0000
0001
0000
0100
0000
0001
1000
0001
0000
0100
0000
,  // measure 45
0010
0000
1000
0000
0010
0000
0100
0000
0001
0000
1000
0100
1000
0000
0001
0100
,  // measure 46
0001
0000
0010
0000
0001
0000
0100
0000
0001
0000
1000
0010
1000
0000
0001
0010
,  // measure 47
0001
0000
1000
0000
0100
0000
0010
0001
0010
0000
0100
1000
0100
0000
1000
0001
,  // measure 48
1000
0000
0001
0000
0010
0000
0100
0000
1000
0000
0001
0100
0001
0000
1000
0100
,  // measure 49
1000
0000
0010
0000
0001
0000
0010
0000
1000
0000
0100
0010
0100
0000
1000
0001
,  // measure 50
1000
1001
0110
1001
,  // measure 51
0001
0100
0001
0100
0001
0100
0001
0100
0001
0100
0001
0100
0001
0100
0001
0000
,  // measure 52
MMMM
0000
0001
1000
0001
1000
0001
0000
MMMM
0000
0100
1000
0100
1000
0100
1000
,  // measure 53
0001
0010
0001
0010
0001
0010
0001
0010
0001
0010
0001
0010
0001
0010
0001
0000
,  // measure 54
MMMM
0000
0001
1000
0001
1000
0001
0000
MMMM
0000
0010
1000
0010
1000
0010
1000
,  // measure 55
0010
0100
0010
0100
0010
0100
0010
0100
0010
0100
0010
0100
0010
0100
0010
0000
,  // measure 56
MMMM
0000
0001
0100
0001
0100
0001
0000
MMMM
0000
0001
1000
0001
1000
0001
0000
,  // measure 57
1001
0000
0000
0110
0000
1000
0001
1000
,  // measure 58
0110
0000
0000
0000
;

//---------------dance-double - ----------------
#NOTES:
     dance-double:
     :
     Easy:
     5:
     0.229829,0.304274,0.163212,0.116580,0.000000,138.000000,124.000000,14.000000,10.000000,0.000000,0.000000,0.229829,0.304274,0.163212,0.116580,0.000000,138.000000,124.000000,14.000000,10.000000,0.000000,0.000000:
00000000
00000000
00000000
00000000
,
00000000
00000000
00000000
00000000
,
00000000
00000000
00000000
00000000
,
00000000
00000000
00000000
00000000
,
10000000
00000000
00000000
00000000
,
00100000
00000000
00100000
00000000
,
01000000
00000000
00010000
00000000
,
00100000
00000000
00100000
00000000
,
00001000
00000000
00010000
00000000
,
00000100
00000000
00000100
00000000
,
00000010
00000000
00000001
00000000
,
00001000
00000000
00001000
00000000
,
00000010
00000010
00000010
00000000
,
00000100
00000000
00001000
00000000
,
00010000
00001000
00010000
00000000
,
01000000
00000000
00100000
00000000
,
00010000
00010000
00010000
00000000
,
10000000
00000000
00100000
00000000
,
01000000
01000000
00100000
00100000
,
01100000
00000000
00010000
00000000
,
01100000
00000000
00010000
00000000
,
00011000
00000000
00001000
00000000
,
00011000
00000000
00010000
00000000
,
00011000
00000000
00001000
00000000
,
00000110
00000000
00001000
00000000
,
00000110
00000000
00000001
00000000
,
00001001
00000000
00001000
00000000
,
00000100
00010000
00010000
00000000
,
00001000
00100000
00100000
00000000
,
00010000
01000000
00100000
10000000
,
10010000
00000000
00000000
00100000
,
10000000
01000000
00010000
00000000
,
00011000
00000000
00000000
00001000
,
00010000
00001000
00010000
00000000
,
00011000
00000000
00000000
00000010
,
00001000
00000001
00000100
00000000
,
00001001
00000000
00000000
00000001
,
00001000
00000001
00001000
00000000
,
00000002
00000000
00000003
00000000
,
00000200
00000000
00000300
00000000
,
00002000
00000000
00003000
00000000
,
00020000
00000000
00030000
00000000
,
00011000
00000000
00000000
00000000
,
00010000
00100000
10000000
01000000
,
00100000
00000000
00010000
00000000
,
10000000
00000000
00100000
00000000
,
01000000
00000000
00001000
00000000
,
00010000
00000000
00000100
00000000
,
00000010
00000000
00000001
00000000
,
00001000
00000000
00000010
00000000
,
00000100
00000000
00000001
00000000
,
00000100
00000100
00000100
00000100
,
00002000
00003000
00020000
00030000
,
01000000
01000000
01000000
01000000
,
20000000
30000000
00200000
00300000
,
00010000
00010000
00010000
00010000
,
00002000
00003000
00000200
00000300
,
00000001
00000000
00001000
00000000
,
00001001
00000000
00000000
00000000
,
00000000
00000000
00000000
00000000
;

//---------------dance-double - ----------------
#NOTES:
     dance-double:
     :
     Medium:
     8:
     0.386379,0.473315,0.244818,0.174870,0.000000,232.000000,211.000000,21.000000,15.000000,0.000000,0.000000,0.386379,0.473315,0.244818,0.174870,0.000000,232.000000,211.000000,21.000000,15.000000,0.000000,0.000000:
00000000
00000000
00000000
00000000
,
00000000
00000000
00000000
00000000
,
00000000
00000000
00000000
00000000
,
00000000
00000000
00000000
00000000
,
10010000
00000000
00000000
00000000
,
10000000
00000000
00000000
01000000
00000000
01000000
00100000
00000000
,
00010000
00000000
00000000
01000000
00000000
01000000
00100000
00000000
,
00010000
00000000
00000000
00001000
00000000
00001000
00000100
00000000
,
00000001
00000000
00000000
00000010
00000000
00000010
00001000
00000000
,
00010000
00000000
00000000
01000000
00000000
01000000
00100000
00000000
,
00010000
00000000
00000000
10000000
00000000
10000000
00100000
00000000
,
01000000
00000000
00100000
10000000
00000000
10000000
00010000
01000000
,
00100000
00000000
00100000
00010000
00000000
00010000
00001000
00000000
,
00000100
00000000
00000100
00000001
00000000
00000001
00000010
00000000
,
00000100
00000000
00000100
00001000
00000000
00001000
00000010
00000000
,
00000100
00000000
00000100
00001000
00000000
00001000
00010000
00000000
,
00001000
00000000
00100000
00010000
00000000
00010000
01000000
00000000
,
00100000
00000000
10000000
01000000
00000000
01000000
00100000
00000000
,
00010000
00000000
00010000
00100000
00000000
00100000
00001000
00010000
,
00002000
00010000
00010000
00013000
,
00001000
00000100
00000001
00000010
,
00000200
00001000
00001000
00001300
,
00000100
00010000
00001000
01000000
,
00200000
10000000
10000000
10300000
,
01000000
00010000
00100000
01000000
,
20000000
00010000
00010000
30010000
,
00100000
00001000
00010000
00000010
,
00000200
00000001
00000001
00000301
,
00002000
00000100
00000100
00003100
,
00020000
00000000
00001000
00000000
00031000
00010000
00001000
00010000
,
00011000
00000000
00000000
00022000
00000000
00000000
00000000
00000000
,
00033000
00000000
00000000
00000000
,
11000000
00000000
00000000
22000000
00000000
00000000
00000000
00000000
,
33000000
00000000
00000000
00000000
,
00110000
00000000
00000000
00220000
00000000
00000000
00000000
00000000
,
00330000
00000000
00000000
00000000
,
00001100
00000000
00000000
00002200
00000000
00000000
00000000
00000000
,
00003300
00000000
00000000
00000000
,
00001001
00000000
00000000
00001001
00000000
00000000
00000000
00000000
,
00000101
00000000
00000000
00000101
00000000
00000000
00000000
00000000
,
00001010
00000000
00000000
00001010
00000000
00000000
00000000
00000000
,
00011000
00000000
00000000
00011000
00000000
00000000
00000000
00000000
,
00110000
00000000
00000000
00110000
00000000
00000000
00000000
00000000
,
10000000
01000000
00100000
00010000
10000000
01000000
00100000
00010000
,
10000000
00000000
10000000
00100000
00000000
00100000
01000000
00000000
,
00010000
00000000
00010000
00100000
00000000
00100000
01000000
00000000
,
00010000
00000000
00010000
00001000
00000000
00001000
00000010
00000000
,
00000001
00000000
00000001
00000100
00000000
00000100
00001000
00000000
,
00010000
00000000
00010000
00100000
00000000
00100000
01000000
00000000
,
00010000
00000000
00010000
10000000
00000000
10000000
01000000
00000000
,
00100000
00000000
01000000
10000000
00000000
10000000
00010000
00100000
,
01000000
00000000
01000000
00010000
00000000
00010000
00001000
00000000
,
00000010
00000000
00000010
00000001
00000000
00000001
00000100
00000000
,
00000010
00000000
00000010
00001000
00000000
00001000
00000100
00000000
,
00000010
00000000
00000010
00001000
00000000
00001000
00010000
00000000
,
00001000
00000000
01000000
00010000
00000000
00010000
00100000
00000000
,
01000000
00000000
10000000
00100000
00000000
00100000
00010000
00000000
,
00011000
00000000
00000000
00011000
00000000
00000100
00001000
00010000
,
00100000
00000000
00000000
00000000
,
00000000
00000000
00000000
00000000
;

//---------------dance-double - ----------------
#NOTES:
     dance-double:
     :
     Hard:
     14:
     0.737785,0.879013,0.244818,0.046632,0.285621,443.000000,422.000000,21.000000,4.000000,0.000000,0.000000,0.737785,0.879013,0.244818,0.046632,0.285621,443.000000,422.000000,21.000000,4.000000,0.000000,0.000000:
00000000
00000000
00000000
00000000
,
00000000
00000000
00000000
00000000
,
00000000
00000000
00000000
00000000
,
00000000
00000000
00000000
00000000
,
00011000
00000000
00000000
00000000
,
10000000
01000000
00010000
01000000
10000000
01000000
00010000
01000000
,
10000000
00010000
01000000
00100000
00010000
00001000
00000100
00000010
,
00000001
00000010
00001000
00000010
00000001
00000010
00001000
00000010
,
00000001
00000010
00010000
00000100
00010000
00001000
01000000
00001000
,
00010000
00100000
10000000
00100000
00010000
00100000
10000000
00100000
,
00010000
00001000
00100000
00010000
00001000
00000100
00000010
00000001
,
00001000
00000000
00000010
00000000
00000100
00000000
00001000
00000000
00010000
00000000
00001000
00010000
00001000
00010000
00001000
00000000
,
00011000
00000000
00000000
00001000
00010000
00000000
00011000
00000000
00000000
00000000
00100000
00000000
00001000
00000000
00010000
00000000
,
00100000
00000000
00000000
00010000
00100000
00000000
00110000
00000000
00000000
00000000
00100000
00000000
00010000
00000000
00001000
00000000
,
00000010
00000000
00000000
00001000
00000010
00000000
00001010
00000000
00000000
00000000
00010000
00000000
00000100
00000000
00001000
00000000
,
00000010
00001000
00000100
00000000
00010000
00000000
00001000
00000000
01000000
00010000
00100000
00000000
00001000
00000000
00010000
00000000
,
00011000
00000000
00000000
00010000
00001000
00000000
00011000
00000000
00000000
00000000
00000100
00000000
00010000
00000000
00001000
00000000
,
00000100
00000000
00000000
00000001
00000100
00000000
00000101
00000000
00000000
00000000
00000100
00000000
00001000
00000000
00010000
00000000
,
01000000
00000000
00000000
10000000
01000000
00000000
11000000
00000000
00000000
00000000
00100000
00000000
00100000
00000000
00100000
00000000
,
00010000
01000000
00001000
00100000
00010000
00100000
00001000
01000000
,
00100000
00010000
00001000
00000010
00001000
00010000
00100000
00010000
,
00001000
00000100
00000010
00001000
00000001
00000010
00000100
00001000
,
00000001
00000001
00000001
00001000
00001000
00001000
00000100
00010000
,
00001000
00100000
00010000
01000000
00001000
01000000
00010000
00100000
,
01000000
00010000
00001000
00000100
00001000
00010000
01000000
00010000
,
00001000
00000010
00000100
00001000
00000001
00000100
00000010
00001000
,
00000001
00000001
00000001
00000100
00000100
00000100
00001000
00010000
,
00001000
00100000
00010000
01000000
00100000
10000000
01000000
00100000
,
00010000
10000000
01000000
00010000
00001000
00000010
00000001
00001000
,
00000010
00000000
00000100
00000000
00000001
00000000
00000010
00000000
00000100
00000000
00010000
00001000
00010000
00001000
00010000
00000000
,
00011000
00000000
00000000
00011000
00000000
00100000
00010000
00100000
,
01000000
10000000
00100000
01000000
00010000
00100000
00001000
00010000
,
00011000
00000000
00000000
00011000
00000000
00000010
00001000
00000010
,
00000001
00000010
00001000
00000010
00000001
00000010
00001000
00000100
,
00011000
00000000
00000000
00012000
00000000
00000000
00010000
00000000
,
00100000
00000000
00010000
00000000
01000000
00000000
00010000
00003000
,
00011000
00000000
00000000
00021000
00000000
00000000
00001000
00000000
,
00000100
00001000
01000000
00031000
,
00011000
00000000
00000000
00022000
00000000
00000000
00033000
00000000
,
00000010
00001000
00000100
00000010
00000001
00001000
00000100
00000010
,
00000001
00001000
00000100
00010000
00001000
00100000
00010000
10000000
,
00100000
01000000
00010000
00100000
00001000
00010000
00000010
00001000
,
00000001
00000000
00000100
00000000
00001000
00000000
00010000
00001000
00010000
00001000
00010000
00001000
00010000
00001000
00010000
00001000
,
00010000
01000000
10000000
00100000
00010000
00001000
00000010
00000001
,
00000100
00000000
00000000
00000010
00000100
00000000
00000001
00000000
00000000
00000010
00000100
00000000
00001000
00000000
00000001
00000000
,
00000100
00001000
00000100
00001000
00010000
01000000
00010000
01000000
,
10000000
00000000
00000000
00100000
01000000
00000000
00010000
00000000
00000000
00100000
01000000
00000000
10000000
00000000
00010000
00000000
,
01000000
00001000
01000000
00001000
00010000
00000100
00010000
00000100
,
00001000
00000000
00000000
00000100
00000010
00000000
00000001
00000000
00000000
00000100
00000010
00000000
00001000
00000000
00000001
00000000
,
00000010
00001000
00000010
00001000
00010000
00100000
00010000
00100000
,
10000000
00000000
00000000
01000000
00100000
00000000
00010000
00000000
00000000
01000000
00100000
00000000
10000000
00000000
00010000
00000000
,
01000000
00100000
01000000
00100000
01000000
00100000
01000000
00100000
01000000
00100000
01000000
00100000
01000000
00100000
01000000
00100000
,
10000000
00010000
00100000
00001000
00010000
00000010
00001000
00000001
,
00000010
00000100
00000010
00000100
00000010
00000100
00000010
00000100
00000010
00000100
00000010
00000100
00000010
00000100
00000010
00000100
,
00001000
00000001
00000100
00000010
00010000
00001000
00100000
01000000
,
10000000
00010000
10000000
00010000
10000000
00010000
10000000
00010000
10000000
00010000
10000000
00010000
10000000
00010000
10000000
00010000
,
10000000
01000000
00010000
00001000
00000100
00000001
00000010
00001000
,
00011000
00000000
00000000
00011000
00000000
01000000
00010000
00001000
,
00000010
00000000
00000000
00000000
,
00000000
00000000
00000000
00000000
;

//---------------dance-double - ----------------
#NOTES:
     dance-double:
     :
     Challenge:
     14:
     0.677829,0.980438,0.221502,0.046632,0.233160,407.000000,384.000000,19.000000,4.000000,320.000000,2.000000,0.677829,0.980438,0.221502,0.046632,0.233160,407.000000,384.000000,19.000000,4.000000,320.000000,2.000000:
00000000
00000000
00000000
00000000
,
00000000
00000000
00000000
00000000
,
00000000
00000000
00000000
00000000
,
00000000
00000000
00000000
00000000
,
00011000
00000000
00000000
00000000
,
10000000
01000000
00010000
01000000
10000000
01000000
00010000
01000000
,
MMMMMMMM
00010000
MMMMMMMM
00100000
MMMMMMMM
00001000
MMMMMMMM
00000010
,
00000001
00000010
00001000
00000010
00000001
00000010
00001000
00000010
,
MMMMMMMM
00000010
MMMMMMMM
00000100
MMMMMMMM
00001000
MMMMMMMM
00001000
,
00010000
00100000
10000000
00100000
00010000
00100000
10000000
00100000
,
MMMMMMMM
00001000
MMMMMMMM
00010000
MMMMMMMM
00000100
MMMMMMMM
00000001
,
00001000
00000000
00000010
00000000
00000100
00000000
00001000
00000000
00010000
00000000
00001000
00010000
00001000
00010000
00001000
00000000
,
00011000
00000000
00000000
00001000
00010000
00000000
00011000
00000000
00000000
00000000
00100000
00000000
00001000
00000000
00010000
00000000
,
00100000
00000000
00000000
00010000
00100000
00000000
00110000
00000000
00000000
00000000
00100000
00000000
00010000
00000000
00001000
00000000
,
MMMMMMMM
00001000
MMMMMMMM
00000010
MMMMMMMM
00010000
MMMMMMMM
00001000
,
00000010
00001000
00000100
00000000
00010000
00000000
00001000
00000000
01000000
00010000
00100000
00000000
00001000
00000000
00010000
00000000
,
MMMMMMMM
00001000
MMMMMMMM
00010000
MMMMMMMM
00000100
MMMMMMMM
00001000
,
00000100
00000000
00000000
00000001
00000100
00000000
00000101
00000000
00000000
00000000
00000100
00000000
00001000
00000000
00010000
00000000
,
MMMMMMMM
10000000
MMMMMMMM
01000000
MMMMMMMM
00100000
00100000
00100000
,
00010000
01000000
00001000
00100000
00010000
00100000
00001000
01000000
,
00100000
00010000
00001000
00000010
00001000
00010000
00100000
00010000
,
00001000
00000100
00000010
00001000
00000001
00000010
00000100
00001000
,
00000001
00000001
00000001
00001000
00001000
00001000
00000100
00010000
,
00001000
00100000
00010000
01000000
00001000
01000000
00010000
00100000
,
01000000
00010000
00001000
00000100
00001000
00010000
01000000
00010000
,
00001000
00000010
00000100
00001000
00000001
00000100
00000010
00001000
,
00000001
00000001
00000001
00000100
00000100
00000100
00001000
00010000
,
MMMMMMMM
00100000
00010000
01000000
MMMMMMMM
10000000
01000000
00100000
,
MMMMMMMM
10000000
01000000
00010000
MMMMMMMM
00000010
00000001
00001000
,
MMMMMMMM
00000000
00000100
00000000
00000001
00000000
00000010
00000000
MMMMMMMM
00000000
00010000
00001000
00010000
00001000
00010000
00000000
,
00011000
00000000
MMMMMMMM
00011000
00000000
00100000
00010000
00100000
,
01000000
10000000
00100000
01000000
00010000
00100000
00001000
00010000
,
00011000
00000000
MMMMMMMM
00011000
00000000
00000010
00001000
00000010
,
00000001
00000010
00001000
00000010
00000001
00000010
00001000
00000100
,
00011000
00000000
MMMMMMMM
00012000
00000000
00000000
00010000
00000000
,
00100000
00000000
00010000
00000000
01000000
00000000
00010000
00003000
,
00011000
00000000
MMMMMMMM
00021000
00000000
00000000
00001000
00000000
,
00000100
00001000
01000000
00031000
,
00011000
00000000
MMMMMMMM
00022000
00000000
00000000
00033000
00000000
,
00000010
00001000
00000100
00000010
00000001
00001000
00000100
00000010
,
00000001
00001000
00000100
00010000
00001000
00100000
00010000
10000000
,
00100000
01000000
00010000
00100000
00001000
00010000
00000010
00001000
,
00000001
00000000
00000100
00000000
00001000
00000000
00010000
00001000
00010000
00001000
00010000
00001000
00010000
00001000
00010000
00001000
,
00010000
01000000
10000000
00100000
00010000
00001000
00000010
00000001
,
00000100
00000000
00000000
00000010
00000100
00000000
00000001
00000000
00000000
00000010
00000100
00000000
MMMMMMMM
00000000
00000001
00000000
,
00000100
00001000
00000100
00001000
00010000
01000000
00010000
01000000
,
10000000
00000000
00000000
00100000
01000000
00000000
00010000
00000000
00000000
00100000
01000000
00000000
MMMMMMMM
00000000
00010000
00000000
,
01000000
00001000
01000000
00001000
00010000
00000100
00010000
00000100
,
00001000
00000000
00000000
00000100
00000010
00000000
00000001
00000000
00000000
00000100
00000010
00000000
MMMMMMMM
00000000
00000001
00000000
,
00000010
00001000
00000010
00001000
00010000
00100000
00010000
00100000
,
10000000
00000000
00000000
01000000
00100000
00000000
00010000
00000000
00000000
01000000
00100000
00000000
MMMMMMMM
00000000
00010000
00000000
,
01000000
00100000
01000000
00100000
01000000
00100000
01000000
00100000
01000000
00100000
01000000
00100000
01000000
00100000
01000000
00100000
,
10000000
00010000
00100000
00001000
00010000
00000010
00001000
00000001
,
00001111
00000000
00000010
00000100
00000010
00000100
00000010
00000000
00001111
00000000
00000010
00000100
00000010
00000100
00000010
00000100
,
00001000
00000001
00000100
00000010
00010000
00001000
00100000
01000000
,
MMMM0000
00000000
10000000
00010000
10000000
00010000
10000000
00000000
MMMM0000
00000000
10000000
00010000
10000000
00010000
10000000
00010000
,
10000000
01000000
00010000
00001000
00000100
00000001
00000010
00001000
,
00011000
00000000
MMMMMMMM
00011000
00000000
01000000
00010000
00001000
,
00000010
00000000
00000000
00000000
,
00000000
00000000
00000000
00000000
;

//---------------dance-single - ANOTHER----------------
#NOTES:
     dance-single:
     :
     Edit:
     16:
     1.089190,1.115671,0.244818,0.373056,1.474737,654.000000,633.000000,21.000000,32.000000,0.000000,0.000000,1.089190,1.115671,0.244818,0.373056,1.474737,654.000000,633.000000,21.000000,32.000000,0.000000,0.000000:
// measure 0
0000
0000
0000
0000
,  // measure 1
0000
0000
0000
0000
,  // measure 2
0000
0000
0000
0000
,  // measure 3
0000
0000
0000
0000
,  // measure 4
1001
0000
0000
0000
0000
0000
0000
0000
0000
0000
0000
0000
0001
0100
0001
0100
,  // measure 5
0010
1000
0010
1000
0100
0010
0100
0010
0001
0100
0001
0100
0010
0100
0010
0100
,  // measure 6
0001
0010
0100
1000
0001
0010
0100
0000
1000
0100
0010
0001
1000
0100
0010
0000
,  // measure 7
0001
0100
1000
0100
0001
0100
1000
0100
0001
0100
1000
0100
0001
0100
1000
0000
,  // measure 8
0100
0001
0010
0001
1000
0000
0010
0000
0100
0001
0010
0001
1000
0000
0010
0000
,  // measure 9
0100
0001
0010
0100
0010
0100
1000
0001
1000
0010
1000
0100
0010
0001
0100
0000
,  // measure 10
0010
1000
0001
1000
0010
0000
1000
0000
0100
0010
1000
0010
0100
0000
0010
0000
,  // measure 11
0001
0100
0010
0100
0001
0100
0010
0100
0001
0100
0010
1000
0001
1000
0010
0000
,  // measure 12
0100
0001
0010
0001
1000
0100
1000
0010
0100
0001
0100
0010
1000
0100
1000
0000
,  // measure 13
0001
0010
0001
0100
0010
0000
1000
0000
0010
0100
0001
0010
0100
0000
1000
0000
,  // measure 14
0010
0100
0001
1000
0100
1000
0010
1000
0100
1000
0010
1000
0100
1000
0010
0000
,  // measure 15
0100
0001
0010
0001
0100
0001
0010
0000
0100
1000
0010
1000
0100
1000
0010
0000
,  // measure 16
1000
0001
0100
0001
1000
0001
0100
0001
1000
0001
0100
0001
1000
0001
0100
0000
,  // measure 17
0010
1000
0001
1000
0010
0000
0100
0000
0001
0010
1000
0010
0001
0000
0100
0000
,  // measure 18
0010
1000
0100
1000
0001
1000
0100
1000
0001
1000
0100
0000
1001
0000
1001
0000
,  // measure 19
1000
0000
0000
1000
0010
0000
0000
0010
0100
0000
0001
0100
0001
0000
0000
0000
,  // measure 20
1001
0000
0000
1000
0010
0000
0000
0010
0100
0000
0000
0100
0001
0000
0000
0000
,  // measure 21
0011
0000
0000
0010
1000
0000
0000
1000
0010
0000
0001
0010
0001
0000
0000
0000
,  // measure 22
1100
0000
0000
1000
0100
0000
0000
0100
0010
0000
0000
0010
0001
1000
0001
1000
,  // measure 23
0100
0000
0000
0100
0010
0000
0000
0010
0001
0000
0000
1000
0001
0000
0000
0000
,  // measure 24
0101
0000
0000
0100
0010
0000
0000
0010
1000
0000
0001
0000
0100
0000
1000
0000
,  // measure 25
1100
0000
0000
0100
0001
0000
0000
0001
0010
0000
0000
0010
0100
0000
1000
0000
,  // measure 26
0100
0000
0000
0110
0000
0000
0011
0000
0000
0000
1000
0000
1000
0000
0010
0000
,  // measure 27
0110
0000
0000
0100
0001
0000
0000
0010
0100
0000
0000
1000
0010
0000
0000
1000
,  // measure 28
0010
0000
0000
0100
0001
0000
0000
0100
0001
0000
0000
0010
0001
0000
0000
0000
,  // measure 29
1001
0000
0000
1000
0100
0000
0000
0100
0010
0000
0001
0010
0100
1000
0001
0000
,  // measure 30
1001
0000
0000
0000
0000
0000
1010
0000
0000
0000
0010
0100
0001
0000
0100
0000
,  // measure 31
0010
1000
0100
1000
0001
0010
0100
1000
,  // measure 32
1001
0000
0000
0000
0000
0000
0110
0000
0000
0000
0001
1000
0001
0000
1000
0100
,  // measure 33
1000
0000
0100
0010
0100
0000
0010
0001
0010
0000
0001
0100
0001
0000
0100
0000
,  // measure 34
0001
0010
0001
0010
0001
0010
0001
0010
0001
0010
0001
0000
1000
0100
1000
0000
,  // measure 35
0010
0100
0001
0000
0100
0010
1000
0000
0001
1000
0100
0000
0010
0001
0100
0000
,  // measure 36
0010
1000
0001
1000
0010
1000
0001
1000
0010
1000
0001
0000
0200
0000
0000
0000
,  // measure 37
0302
0000
0000
0000
0023
0000
0000
0000
0230
0000
0000
0000
1300
0010
1000
0010
,  // measure 38
1000
0100
1000
0100
1000
0100
1000
0100
0010
0001
0010
0001
0010
0001
0010
0001
,  // measure 39
0200
0320
2030
3200
0320
0032
2003
3020
,  // measure 40
2030
3200
0302
0203
2300
3020
0032
0023
,  // measure 41
2030
3002
0203
0320
0230
0302
0023
0230
,  // measure 42
2300
0000
3002
0000
0023
0000
0032
0000
0103
0001
0100
0001
0010
0100
0010
0100
,  // measure 43
1000
0000
0001
0000
0100
0000
0001
0000
1000
0000
0010
0000
0100
0001
1000
0001
,  // measure 44
0100
0010
0100
0010
0100
0010
0100
0010
0100
0010
0100
0010
0100
0010
0100
0010
,  // measure 45
1000
0100
1000
0100
1000
0100
1000
0100
0010
0001
0010
0001
0010
0001
0010
0001
,  // measure 46
0100
0010
1000
0010
0100
0010
1000
0010
0100
0010
1000
0010
0100
0010
1000
0000
,  // measure 47
0010
0100
0001
0100
0010
0100
0001
0000
0100
0010
1000
0010
0100
0010
1000
0000
,  // measure 48
0001
0010
0100
1000
0001
0010
0100
1000
0001
0010
0100
1000
0001
0010
0100
1000
,  // measure 49
0010
0000
0100
0001
0100
0001
0010
0000
0100
0000
1000
0010
1000
0000
0001
1000
,  // measure 50
0001
0010
0001
0010
0100
1000
0100
1000
0010
0100
0010
0100
0001
0010
0001
1000
,  // measure 51
0100
0010
0100
0010
0100
0010
0100
0010
0100
0010
0100
0010
0100
0010
0100
0010
,  // measure 52
0001
1000
0001
1000
0001
1000
0001
1000
0001
0100
0010
0100
0001
0100
0010
0100
,  // measure 53
0001
1000
0010
1000
0001
1000
0010
1000
0001
1000
0010
1000
0001
1000
0010
1000
,  // measure 54
0001
0100
0010
0100
1000
0100
0010
0100
1000
0100
0010
0100
1000
0100
0010
1000
,  // measure 55
0001
0010
0001
0010
0100
1000
0100
1000
0010
0100
0010
0100
0001
1000
0001
1000
,  // measure 56
0010
0100
0001
0100
0010
1000
0010
0100
0010
1000
0010
0100
0001
0010
0100
1000
,  // measure 57
0001
0000
0000
1001
0000
0110
0110
0110
,  // measure 58
1001
0000
0000
0000
;
