#TITLE:Healing-D-Vision;
#SUBTITLE:;
#ARTIST:DE-STRAD;
#TITLETRANSLIT:;
#SUBTITLETRANSLIT:;
#ARTISTTRANSLIT:;
#GENRE:;
#CREDIT:;
#BANNER:Healing-D-Vision.png;
#BACKGROUND:Healing-D-Vision-bg.png;
#LYRICSPATH:;
#CDTITLE:;
#MUSIC:Healing-D-Vision.ogg;
#OFFSET:0.000000;
#SAMPLESTART:70.667000;
#SAMPLELENGTH:15.000000;
#SELECTABLE:YES;
#DISPLAYBPM:180.000000:360.000000;
#BPMS:0.000000=180.000000
,212.000000=360.000000
;
#STOPS:
;
#BGCHANGES:;
#KEYSOUNDS:;
#ATTACKS:;

//---------------dance-single - ----------------
#NOTES:
     dance-single:
     :
     Beginner:
     6:
     0.212900,0.314148,0.038709,0.000000,0.000000,154.000000,150.000000,4.000000,0.000000,0.000000,0.000000,0.212900,0.314148,0.038709,0.000000,0.000000,154.000000,150.000000,4.000000,0.000000,0.000000,0.000000:
0000
0000
0000
0000
,
0000
0000
0000
0000
,
0000
0000
0000
0000
,
0000
0000
0000
0000
,
0000
0000
0000
0000
,
1000
0000
0100
0000
,
0010
0000
0001
0000
,
1000
0000
0001
0000
,
0100
0000
1000
0000
,
1000
0000
0100
0000
,
0010
0000
0001
0000
,
1000
0000
0001
0000
,
0100
0000
1000
0000
,
1000
0000
1000
0000
,
0001
0000
0001
0000
,
1000
0000
1000
0000
,
0001
0000
0001
0000
,
1000
0000
0010
0000
,
1000
0000
1000
0000
,
0001
0000
0001
0000
,
1000
0000
1000
0000
,
1000
1000
0000
0100
,
0000
0010
0000
1001
,
0000
1000
0000
0010
,
0000
0100
0000
1001
,
0000
0001
0000
0100
,
0000
0010
0000
1001
,
0000
0001
0000
0010
,
0000
0100
0000
1001
,
0000
0100
0000
0001
,
0000
0010
0000
0010
,
0010
0000
1000
0000
,
0100
0000
0001
0000
,
0010
0000
0001
0000
,
0100
0000
1000
0000
,
0010
0000
0001
0000
,
0100
0000
1000
0000
,
0100
0000
0100
0000
,
0100
0000
0100
0000
,
0010
0000
0010
0000
,
0010
0000
0010
0000
,
1000
0000
0000
0100
,
0000
0000
0000
0100
,
0000
0000
0000
0100
,
0000
0000
0000
0100
,
0000
0000
0000
1000
,
0000
0000
0000
0001
,
0000
0000
0000
1000
,
0000
0000
0000
0001
,
0000
0000
0000
1000
,
0000
0000
0000
0001
,
0000
0000
0000
1000
,
0000
0000
0000
0000
,
1000
0000
0000
1000
,
0000
0000
0100
0000
,
0001
0000
0000
0001
,
0000
0000
0100
0000
,
1000
0000
0000
1000
,
0000
0000
0010
0000
,
0001
0000
0000
0001
,
0000
0000
0000
0000
,
0100
0000
0001
0000
,
0100
0000
0000
0000
,
0010
0000
0010
0000
,
0010
0000
0000
0000
,
1000
0000
1000
0000
,
1000
0000
0000
0000
,
0001
0000
0001
0000
,
0001
0000
0100
0000
,
0010
0000
0100
0000
,
0010
0000
0000
0000
,
0100
0000
1000
0000
,
0100
0000
0000
0000
,
1000
0000
0010
0000
,
1000
0000
0000
0000
,
0001
0000
0100
0000
,
0001
0000
0010
0000
,
0100
0000
0100
0000
,
1000
0000
1000
0000
,
0100
0000
0010
0000
,
0001
0000
0001
0000
,
0100
0000
0010
0000
,
0010
0000
0001
0000
,
0100
0000
0100
0000
,
0010
0000
1000
0000
,
1000
0000
0000
1000
,
0000
0000
1000
0000
,
0001
0000
0000
0001
,
0000
0000
0001
0000
,
0010
0000
0000
0010
,
0000
0000
0010
0000
,
0100
0000
0000
0100
,
0000
0000
0000
0010
,
0000
0000
0000
0000
;

//---------------dance-single - ----------------
#NOTES:
     dance-single:
     :
     Easy:
     9:
     0.394003,0.551604,0.174191,0.174191,0.261286,285.000000,267.000000,18.000000,18.000000,0.000000,0.000000,0.394003,0.551604,0.174191,0.174191,0.261286,285.000000,267.000000,18.000000,18.000000,0.000000,0.000000:
0000
0000
0000
0000
,
0000
0000
0000
0000
,
0000
0000
0000
0000
,
0000
0000
0000
0000
,
0000
0000
0000
0000
,
1000
0000
0100
0000
,
0010
0000
0001
0000
,
1000
0000
0001
0000
,
0100
0010
1000
0001
,
1000
0000
0100
0000
,
0010
0000
0001
0000
,
1000
0000
0001
0000
,
0100
0010
1000
0001
,
1000
0010
1000
0000
,
0001
0010
0001
0000
,
1000
0100
1000
0000
,
0001
0010
0001
0000
,
1000
0001
0010
0001
,
1000
0010
1000
0000
,
0001
0100
0001
0000
,
1000
0100
1000
0110
,
1000
1000
0100
0100
,
0010
0010
0001
1001
,
1000
1000
0010
0010
,
0100
0100
0001
1001
,
0001
0001
0100
0100
,
0010
0010
1000
1001
,
0001
0001
0010
0010
,
0100
0100
1000
1001
,
0020
0130
2000
3001
,
0200
0310
0002
0013
,
0020
1030
2000
3001
,
0200
1300
0002
0103
,
0020
0130
0002
1003
,
0200
0310
2000
3001
,
0020
1030
0002
0013
,
0200
0301
2000
3100
,
0100
0010
0100
0001
,
0100
0010
0100
1000
,
0010
0100
0010
0001
,
0010
1000
0010
0100
,
1000
0001
1000
0100
0100
0000
,
0001
1000
0001
0100
0100
0000
,
0010
0100
0010
0100
0100
0000
,
1001
0000
0000
0100
,
1000
0100
0010
0100
1000
0000
,
0001
0010
0100
0010
0001
0000
,
1000
0100
0010
0100
1000
0000
,
0001
0010
0100
0010
0001
0000
,
1000
0010
0100
0010
1000
0000
,
0001
0100
0010
0100
0001
0000
,
1000
0010
0100
0010
1000
0000
,
0001
0000
0000
0000
,
1000
0000
0100
0000
1000
0000
,
0001
0000
0100
0000
0000
0000
,
0001
0000
0100
0000
0001
0000
,
1000
0000
0100
0000
0000
0000
,
1000
0000
0010
0000
1000
0000
,
0001
0000
0010
0000
0000
0000
,
0001
0000
0010
0000
0001
0000
,
1000
0000
0010
0000
0000
0000
,
0100
0000
0101
0000
,
0100
0000
0000
0000
,
0010
0000
1010
0000
,
0010
0000
0000
0000
,
1000
0000
1100
0000
,
1000
0000
0000
0000
,
0001
0000
0101
0000
,
0001
0000
0100
0000
,
0010
0000
0011
0000
,
0010
0000
0000
0000
,
0100
0000
1100
0000
,
0100
0000
0000
0000
,
1000
0000
1010
0000
,
1000
0000
0000
0000
,
0001
0000
0011
0000
,
0001
0000
0010
0000
,
0100
0000
0011
0000
,
1000
0100
1000
0000
,
0100
0000
1010
0000
,
0001
0100
0001
0000
,
0100
0000
1010
0000
,
0010
0100
0001
0000
,
0100
0000
0011
0000
,
0010
0100
1000
0001
,
1000
0000
0100
0000
1000
0000
,
0010
0000
1000
0000
0000
0000
,
0001
0000
0100
0000
0001
0000
,
0010
0000
0001
0000
0000
0000
,
0010
0000
1000
0000
0010
0000
,
0001
0000
0010
0000
0000
0000
,
0100
0000
0001
0000
0100
0000
,
1000
0000
0000
0000
0020
0000
,
0200
0000
0000
0000
,
0000
0000
0000
0000
,
0330
0000
0000
0000
,
0000
0000
0000
0000
;

//---------------dance-single - ----------------
#NOTES:
     dance-single:
     :
     Medium:
     12:
     0.620727,0.827406,0.967726,0.019355,0.508056,449.000000,349.000000,100.000000,2.000000,0.000000,0.000000,0.620727,0.827406,0.967726,0.019355,0.508056,449.000000,349.000000,100.000000,2.000000,0.000000,0.000000:
0000
0000
0000
0000
,
0000
0000
0000
0000
,
0000
0000
0000
0000
,
0000
0000
0000
0000
,
0000
0000
0000
0000
,
0100
0000
0000
0001
0000
0000
0100
0000
0010
1000
0000
0000
,
0100
0000
0000
1000
0000
0000
0100
0000
0010
0001
0000
0000
,
1000
0000
0000
0001
0000
0000
1000
0000
0010
0100
0000
0000
,
1001
0010
1001
0100
,
0010
0000
0000
0001
0000
0000
0010
0000
0100
1000
0000
0000
,
0010
0000
0000
1000
0000
0000
0010
0000
0100
0001
0000
0000
,
1000
0000
0000
0001
0000
0000
1000
0000
0100
0010
0000
0000
,
1001
0000
0000
0100
0000
0000
1001
0000
0010
0100
0000
0000
,
0010
0000
0000
0011
0000
0000
0100
1000
0000
1000
0000
0000
,
0100
0000
0000
0101
0000
1000
0100
0000
0000
0000
0000
0100
,
0010
0000
0000
1010
0000
0000
0100
0001
0000
0001
0000
0000
,
0100
0000
0000
1100
0000
0001
0100
0000
0000
0000
0000
0010
,
0100
0000
0000
0101
0000
0000
0010
1000
0000
1000
0000
0000
,
0010
0000
0000
0011
0000
1000
0010
0000
0000
0000
0000
0010
,
0100
0000
0000
1100
0000
0000
0010
0001
0000
0001
0000
0000
,
0010
0000
0000
1010
0000
0001
0010
0000
0000
0000
0000
0100
,
0010
0000
0010
0001
0000
0001
0010
0000
0010
1000
0000
1000
,
0010
0011
0100
1100
,
0010
0000
0010
1000
0000
1000
0010
0000
0010
0001
0000
0001
,
0010
1010
0100
0101
,
0100
0000
0100
0001
0000
0001
0100
0000
0100
1000
0000
1000
,
0100
0101
0010
1010
,
0100
0000
0100
1000
0000
1000
0100
0000
0100
0001
0000
0001
,
0100
1100
0010
0011
,
1000
1001
1000
0101
,
1000
1001
1000
0101
,
0001
1001
0001
1100
,
0001
1001
0001
1100
,
1000
0011
1000
0101
,
1000
0011
1000
0101
,
0001
1010
0001
1100
,
0001
1010
0001
1100
,
0100
0000
0010
0001
0000
0000
0010
0000
0000
0001
0000
0000
,
0100
0000
0010
1000
0000
0000
0010
0000
0100
0001
0000
0000
,
0100
0000
0010
1000
0000
0000
0010
0000
0000
1000
0000
0000
,
0100
0000
0010
0001
0000
0000
0010
0000
0100
1000
0000
0000
,
0001
1000
0001
0100
0110
0000
,
1000
0001
1000
0100
0110
0000
,
0010
0100
0010
0100
0110
0000
,
1001
0000
0000
0100
,
0001
0110
0011
0110
0001
0000
,
1000
0110
1100
0110
1000
0000
,
0001
0110
0011
0110
0001
0000
,
1000
0110
1100
0110
1000
0000
,
0001
0110
1100
0110
0001
0000
,
1000
0110
0011
0110
1000
0000
,
0001
0110
1100
0110
0001
0000
,
1001
0000
0000
0000
,
1010
0000
1001
0000
1100
0000
,
0110
0000
0011
0000
0000
0000
,
0110
0000
1100
0000
1001
0000
,
0101
0000
0110
0000
0000
0000
,
0101
0000
1001
0000
0011
0000
,
0110
0000
1100
0000
0000
0000
,
0010
0000
0001
0000
1000
0000
,
0100
0000
0010
0000
0000
0000
,
0001
0000
1000
0100
0000
0000
,
1000
0000
0011
0000
,
1000
0000
0001
0100
0000
0000
,
0001
0000
1010
0000
,
0001
0000
1000
0010
0000
0000
,
1000
0000
0101
0000
,
1000
0000
0001
0010
0000
0000
,
0001
0000
0000
1100
0000
0010
,
0100
0000
0010
0001
0000
0000
,
0010
0000
1001
0000
,
0100
0000
0010
1000
0000
0000
,
0010
0000
1001
0000
,
0010
0000
0100
0001
0000
0000
,
0100
0000
1001
0000
,
0010
0000
0100
1000
0000
0000
,
0100
0000
0000
1001
0000
0010
,
0100
1000
0100
1000
,
0010
0001
0010
0001
,
0100
0010
0100
0010
,
1000
0001
1000
0001
,
0100
0001
0100
0001
,
0010
1000
0010
1000
,
0100
0001
0100
0001
,
0010
1000
0010
1000
,
0101
0000
0110
0000
1010
0000
,
0110
0000
0101
0000
0000
0000
,
1100
0000
0110
0000
0011
0000
,
0110
0000
1100
0000
0000
0000
,
0101
0000
0110
0000
1001
0000
,
0110
0000
0101
0000
0000
0000
,
1000
0000
0010
0000
1000
0000
,
0100
0000
0000
0000
0020
0000
,
0200
0000
0000
0000
,
0000
0000
0000
0000
,
0330
0000
0000
0000
,
0000
0000
0000
0000
;

//---------------dance-single - ----------------
#NOTES:
     dance-single:
     :
     Hard:
     14:
     0.732707,0.919340,1.054822,0.019355,0.788697,530.000000,421.000000,109.000000,2.000000,0.000000,0.000000,0.732707,0.919340,1.054822,0.019355,0.788697,530.000000,421.000000,109.000000,2.000000,0.000000,0.000000:
0000
0000
0000
0000
,
0000
0000
0000
0000
,
0000
0000
0000
0000
,
0000
0000
0000
0000
,
0000
0000
0000
0000
,
0100
0000
0001
0100
0000
0010
1000
0000
0000
1010
0000
0000
,
0100
0000
1000
0100
0000
0010
0001
0000
0000
0011
0000
0000
,
0100
0000
0001
0010
0000
1000
0100
0000
0000
1001
0000
0000
,
0101
1010
1100
0011
,
0100
0000
0001
0100
0000
0010
1000
0000
0000
1010
0000
0000
,
0100
0000
1000
0100
0000
0010
0001
0000
0000
0011
0000
0000
,
0100
0000
0001
0010
0000
1000
0100
0000
0000
1001
0000
0000
,
0100
0000
0000
0010
0000
0000
0100
0000
1000
0001
0000
0000
,
0100
0000
0000
1001
0000
0000
1000
0000
0001
0000
0001
0000
,
0100
0000
0000
0001
0000
0010
0100
0000
0000
0000
0000
1000
,
0100
0000
0000
1001
0000
0000
1000
0000
0001
0000
0001
0000
,
1100
0011
1010
0101
,
0010
0000
0000
1001
0000
0000
0001
0000
1000
0000
1000
0000
,
0010
0000
0000
1000
0000
0100
0010
0000
0000
0000
0000
0001
,
0010
0000
0000
1001
0000
0000
0001
0000
1000
0000
1000
0000
,
0011
1100
0101
1010
,
0100
0000
0100
0001
0000
0001
0100
0000
0100
1000
0000
1000
,
0100
0101
0010
1010
,
0100
0000
0100
1000
0000
1000
0100
0000
0100
0001
0000
0001
,
0100
1100
0010
0011
,
0010
0000
0010
0001
0000
0001
0010
0000
0010
1000
0000
1000
,
0010
0011
0100
1100
,
0100
0000
0100
1000
0000
1000
0100
0000
0100
0001
0000
0001
,
0100
1100
0010
0011
,
0100
0000
1000
0001
0000
0000
0100
0000
0000
1010
0000
0000
,
0100
0000
1000
0001
0000
0000
0100
0000
0000
1010
0000
0000
,
0100
0000
0001
1000
0000
0000
0100
0000
0000
0011
0000
0000
,
0010
0000
0001
1000
0000
0000
0010
0000
0000
0101
0000
0000
,
0010
0000
1000
0001
0000
0000
0010
0000
0000
1100
0000
0000
,
0010
0000
1000
0001
0000
0000
0010
0000
0000
1100
0000
0000
,
0010
0000
0001
1000
0000
0000
0010
0000
0000
0101
0000
0000
,
0010
0000
0001
1000
0000
0000
0010
0000
0000
0101
0000
0000
,
0010
1000
0010
0100
0000
0100
0001
0000
1000
0010
0000
0000
,
0100
0001
0100
0010
0000
0010
1000
0000
1000
0001
0000
0000
,
0010
0001
0010
0100
0000
0100
1000
0000
0001
0010
0000
0000
,
0100
1000
0100
0010
0000
0010
0001
0000
0001
1000
0000
0000
,
0001
0011
0110
1100
1000
0000
,
1000
1100
0110
0011
0001
0000
,
0001
0011
0110
1100
1000
0000
,
0110
0000
0000
0000
,
0001
0101
1010
0101
1001
0000
,
1000
1100
0011
1100
1001
0000
,
0001
0011
1100
0011
1001
0000
,
1000
1010
0101
1010
1001
0000
,
0001
0011
0110
1100
1001
0000
,
1000
1010
0110
0101
1001
0000
,
0001
0101
0110
1010
1001
0000
,
0110
0000
0000
0000
,
0011
0000
1001
0000
1100
0000
,
1001
0000
0011
0000
0000
0000
,
1100
0000
1001
0000
0011
0000
,
1001
0000
1100
0000
0000
0000
,
0011
0000
1001
0000
1100
0000
,
1001
0000
0011
0000
0000
0100
,
1000
0000
0010
0000
0100
0000
,
0001
0000
0100
0000
1000
0000
,
0001
1000
0001
0010
0000
0001
,
0100
0000
0010
1000
0100
0010
,
0001
1000
0001
0100
0000
0001
,
0010
0000
0100
1000
0010
0100
,
0010
0100
0010
1000
0000
0100
,
0010
0000
0001
0100
0010
1000
,
0100
0010
0100
1000
0000
0010
,
0100
0000
1001
0000
,
1000
0001
1000
0010
0000
1000
,
0100
0000
0010
0001
0100
0010
,
1000
0001
1000
0100
0000
1000
,
0010
0000
0100
0001
0010
0100
,
0010
0100
0010
0001
0000
0100
,
0010
0000
1000
0100
0010
0001
,
0100
0010
0100
0001
0000
0010
,
0100
0000
1001
0000
,
1000
0010
1000
0000
0001
0100
0001
0000
,
1000
0010
1000
0000
0001
0100
0001
0000
,
1000
0100
1000
0000
0001
0010
0001
0000
,
1000
0100
1000
0000
0001
0010
0001
0010
,
0100
1000
0100
0000
0010
0001
0010
0000
,
0100
1000
0100
0000
0010
0001
0010
0000
,
0100
0001
0100
0000
0010
1000
0010
0000
,
0100
0001
0100
0000
0010
1000
0010
0000
,
0101
0000
0110
0000
1010
0000
,
0110
0000
0101
0000
0000
0000
,
1010
0000
0110
0000
0101
0000
,
0110
0000
1010
0000
0000
0000
,
0101
0000
0110
0000
1010
0000
,
0110
0000
0101
0000
0000
0000
,
0010
0000
1000
0000
0001
0000
,
0100
0000
0000
0000
0002
0000
,
2000
0000
0000
0000
,
0000
0000
0000
0000
,
3003
0000
0000
0000
,
0000
0000
0000
0000
;

//---------------dance-single - ----------------
#NOTES:
     dance-single:
     :
     Challenge:
     18:
     0.840539,1.011274,0.803213,0.019355,0.938695,608.000000,525.000000,83.000000,2.000000,0.000000,0.000000,0.840539,1.011274,0.803213,0.019355,0.938695,608.000000,525.000000,83.000000,2.000000,0.000000,0.000000:
// measure 0
0000
0000
0000
0000
,  // measure 1
0000
0000
0000
0000
,  // measure 2
0000
0000
0000
0000
,  // measure 3
0000
0000
0000
0000
,  // measure 4
0000
0000
0000
0000
,  // measure 5
0100
0000
0001
0100
0000
0100
0010
0000
0010
1000
0000
0000
,  // measure 6
0100
0000
1000
0100
0000
0100
0010
0000
0010
0001
0000
0000
,  // measure 7
0100
0000
0001
0100
0000
1000
0100
0000
0001
1000
0000
0000
,  // measure 8
0001
0100
0000
0010
1000
0000
1000
0100
0000
0010
0001
0000
,  // measure 9
0010
0000
0001
0010
0000
0010
0100
0000
0100
1000
0000
0000
,  // measure 10
0010
0000
1000
0010
0000
0010
0100
0000
0100
0001
0000
0000
,  // measure 11
0010
0000
0001
0010
0000
1000
0010
0000
0001
1000
0000
0000
,  // measure 12
0100
0000
0000
0010
0000
0000
0100
0000
1000
0100
0000
0001
,  // measure 13
0100
0000
0001
1000
0000
0000
1100
0000
0001
0000
0011
0000
,  // measure 14
0100
0000
1000
0001
0000
0010
0100
0000
0000
0000
0000
1000
,  // measure 15
0100
0000
1000
0001
0000
0000
1100
0000
0001
0000
0011
0000
,  // measure 16
1000
0100
0000
0001
0010
0000
1000
0010
0000
0001
0100
0000
,  // measure 17
0010
0000
1000
0001
0000
0000
0011
0000
1000
0000
1100
0000
,  // measure 18
0010
0000
0001
1000
0000
0100
0010
0000
0000
0000
0000
0001
,  // measure 19
0010
0000
0001
1000
0000
0000
0011
0000
1000
0000
1100
0000
,  // measure 20
0001
0010
0000
1000
0100
0000
0001
0100
0000
1000
0010
0000
,  // measure 21
0100
0001
0100
0010
0000
0010
1000
0000
0001
0010
0100
0010
,  // measure 22
0100
1000
0100
0010
0000
0010
0100
0000
1000
0001
0000
1000
,  // measure 23
0100
1000
0100
0010
0000
0010
0001
0000
1000
0010
0100
0010
,  // measure 24
0100
0001
0100
0010
0000
0010
0100
0000
0001
1000
0000
0001
,  // measure 25
0010
0001
0010
0100
0000
0100
1000
0000
0001
0100
0010
0100
,  // measure 26
0010
1000
0010
0100
0000
0100
0010
0000
1000
0001
0000
1000
,  // measure 27
0010
1000
0010
0100
0000
0100
0001
0000
1000
0100
0010
0100
,  // measure 28
0010
0001
0010
0100
0000
0100
0010
0000
0001
1000
0000
0001
,  // measure 29
0010
0000
1000
0001
0000
0000
0010
0000
1000
0100
0000
0000
,  // measure 30
0010
0000
1000
0001
0000
0000
0010
0000
1000
0100
0000
0000
,  // measure 31
0010
0000
0001
1000
0000
0000
0010
0000
0001
0100
0000
0000
,  // measure 32
0010
0000
0001
1000
0000
0000
0010
0000
0001
0100
0010
1000
,  // measure 33
0100
0000
1000
0001
0000
0000
0100
0000
1000
0010
0000
0000
,  // measure 34
0100
0000
1000
0001
0000
0000
0100
0000
1000
0010
0000
0000
,  // measure 35
0100
0000
0001
1000
0000
0000
0100
0000
0001
0010
0000
0000
,  // measure 36
0100
0000
0001
1000
0000
0000
0100
0000
0000
1001
0000
0000
,  // measure 37
0010
1000
0010
0100
0000
0100
0001
1000
0001
0010
0000
0010
,  // measure 38
0100
1000
0100
0010
0000
0010
0001
0000
0001
1000
0100
0010
,  // measure 39
0100
1000
0100
0010
0000
0010
0001
1000
0001
0100
0000
0100
,  // measure 40
0010
1000
0010
0100
0000
0100
0001
0000
0001
1000
0010
0100
,  // measure 41
0001
0000
0110
0000
0011
0000
0110
0000
1001
0000
0000
0000
,  // measure 42
1000
0000
0110
0000
1100
0000
0110
0000
1001
0000
0000
0000
,  // measure 43
1000
0000
0110
0000
1010
0000
0110
0000
1001
0000
0000
0000
,  // measure 44
0110
0000
0000
0000
,  // measure 45
0001
0000
0011
0000
0110
0000
1010
0000
1001
0000
0000
0000
,  // measure 46
1000
0000
1100
0000
0110
0000
0101
0000
1001
0000
0000
0000
,  // measure 47
1000
0000
1010
0000
0110
0000
0011
0000
1001
0000
0000
0000
,  // measure 48
0001
0000
0101
0000
0110
0000
1100
0000
1001
0000
0000
0000
,  // measure 49
0001
0000
0101
0000
0110
0000
1100
0000
1001
0000
0000
0000
,  // measure 50
1000
0000
1010
0000
0110
0000
0011
0000
1001
0000
0000
0000
,  // measure 51
0001
0000
0011
0000
0110
0000
1100
0000
1001
0000
0000
0000
,  // measure 52
0110
0000
0000
0000
,  // measure 53
0011
0000
0000
0000
0101
0000
0000
0000
1100
0000
0000
0000
,  // measure 54
1010
0000
0000
0000
0110
0000
0000
0000
0000
0000
0000
0000
,  // measure 55
1010
0000
0000
0000
1100
0000
0000
0000
0101
0000
0000
0000
,  // measure 56
0011
0000
0000
0000
0110
0000
0000
0000
0000
0000
0000
0000
,  // measure 57
0101
0000
0000
0000
0011
0000
0000
0000
1010
0000
0000
0000
,  // measure 58
1100
0000
0000
0000
0110
0000
0000
0000
0000
0000
0001
0000
,  // measure 59
0100
0000
0000
0000
1000
0000
0000
0000
0100
0000
0000
0000
,  // measure 60
0010
0000
0000
0000
0001
0000
0000
0000
0010
0000
0000
0000
,  // measure 61
0100
1000
0100
0010
0001
0000
1000
0010
,  // measure 62
1000
0000
0100
0010
0001
0100
0010
0000
,  // measure 63
0100
0001
0100
0010
1000
0000
0001
0010
,  // measure 64
0001
0000
0100
0010
1000
0100
0010
0000
,  // measure 65
0100
1000
0010
0100
0001
0000
1000
0100
,  // measure 66
1000
0000
0010
0100
0001
1000
0010
0000
,  // measure 67
0100
0001
0010
0100
1000
0000
0001
0100
,  // measure 68
0001
0000
1001
0000
,  // measure 69
0010
1000
0010
0100
0001
0000
1000
0100
,  // measure 70
1000
0000
0010
0100
0001
0010
0100
0000
,  // measure 71
0010
0001
0010
0100
1000
0000
0001
0100
,  // measure 72
0001
0000
0010
0100
1000
0010
0100
0000
,  // measure 73
0010
1000
0100
0010
0001
0000
1000
0010
,  // measure 74
1000
0000
0100
0010
0001
1000
0100
0000
,  // measure 75
0010
0000
0000
0000
0100
0000
1000
0000
0000
0000
0001
0000
,  // measure 76
0010
0000
1001
0000
,  // measure 77
1000
0010
1000
0010
0001
0010
0001
0010
,  // measure 78
1000
0100
1000
0100
0001
0100
0001
0100
,  // measure 79
1000
0010
1000
0010
0001
0010
0001
0010
,  // measure 80
1000
0100
1000
0100
0001
0100
0001
0100
,  // measure 81
1000
0010
0001
0010
1000
0100
0001
0100
,  // measure 82
1000
0010
0001
0010
1000
0100
0001
0100
,  // measure 83
1000
0010
0001
0010
1000
0100
0001
0100
,  // measure 84
1000
0010
0001
0010
1000
0100
0001
0000
,  // measure 85
0101
0000
0000
0000
0110
0000
0000
0000
1100
0000
0000
0000
,  // measure 86
1001
0000
0000
0000
1010
0000
0000
0000
0000
0000
0000
0000
,  // measure 87
0110
0000
0000
0000
0011
0000
0000
0000
1001
0000
0000
0000
,  // measure 88
1100
0000
0000
0000
0110
0000
0000
0000
0000
0000
0000
0000
,  // measure 89
0101
0000
0000
0000
1001
0000
0000
0000
1100
0000
0000
0000
,  // measure 90
0110
0000
0000
0000
1010
0000
0000
0000
0000
0000
0001
0000
,  // measure 91
0010
0000
0000
0000
1000
0000
0000
0000
0010
0000
0000
0000
,  // measure 92
0100
0000
0000
0000
0000
0000
0000
0000
2000
0000
0000
0000
,  // measure 93
0002
0000
0000
0000
,  // measure 94
0000
0000
0000
0000
,  // measure 95
3003
0000
0000
0000
;

//---------------dance-double - ----------------
#NOTES:
     dance-double:
     :
     Easy:
     9:
     0.382943,0.505637,0.125804,0.174191,0.261286,277.000000,264.000000,13.000000,18.000000,0.000000,0.000000,0.382943,0.505637,0.125804,0.174191,0.261286,277.000000,264.000000,13.000000,18.000000,0.000000,0.000000:
00000000
00000000
00000000
00000000
,
00000000
00000000
00000000
00000000
,
00000000
00000000
00000000
00000000
,
00000000
00000000
00000000
00000000
,
00000000
00000000
00000000
00000000
,
10000000
00000000
10000000
00000000
,
10000000
00000000
00100000
00000000
,
10000000
00000000
00100000
00000000
,
10000000
01000000
00010000
00001000
,
00000010
00000000
00000100
00000000
,
00000010
00000000
00000001
00000000
,
00000010
00000000
00000001
00000000
,
00000100
00001000
00010000
00100000
,
10000000
01000000
00010000
00000000
,
00010000
00001000
00000100
00000000
,
00000100
00000001
00000010
00000000
,
00000010
00001000
00010000
00000000
,
01000000
10000000
01000000
00000000
,
10000000
00100000
00010000
00000000
,
00001000
00000010
00000001
00000000
,
00000001
00000100
00001000
00010000
,
00100000
10000000
01000000
10000000
,
00100000
00010000
00001000
00011000
,
00000010
00000001
00000100
00000001
,
00000010
00001000
00010000
00011000
,
01000000
10000000
00100000
10000000
,
01000000
00010000
00001000
00011000
,
00000100
00000001
00000010
00000001
,
00000100
00001000
00010000
00011000
,
00002000
00003100
00020000
01030000
,
00002000
00003100
00020000
01030000
,
00002000
00003010
00020000
00130000
,
00002000
00003010
00020000
00130000
,
00002000
00003100
00020000
01030000
,
00002000
00003010
00020000
00130000
,
00002000
00003100
00020000
01030000
,
00002000
00003010
00020000
00130000
,
00010000
00001000
00000010
00000001
,
00000010
00001000
00010000
00011000
,
01000000
00010000
00001000
00010000
,
01000000
10000000
00100000
00010000
,
00001000
00001000
00010000
00001000
00001000
00000000
,
00000100
00000100
00001000
00000100
00000100
00000000
,
00001000
00001000
00010000
00001000
00001000
00000000
,
00010000
00000000
00000000
00001000
,
00010000
00010000
00001000
00010000
00010000
00000000
,
00100000
00100000
00010000
00100000
00100000
00000000
,
00010000
00010000
00001000
00010000
00010000
00000000
,
00001000
00001000
00000100
00001000
00001000
00000000
,
00010000
00010000
00001000
00010000
00010000
00000000
,
01000000
01000000
00010000
00001000
00001000
00000000
,
00000010
00000010
00001000
00010000
00010000
00000000
,
00001000
00000000
00000000
00000000
,
00010000
00000000
01000000
00000000
10000000
00000000
,
01000000
00000000
00010000
00000000
00000000
00000000
,
00001000
00000000
00000100
00000000
00000001
00000000
,
00000100
00000000
00001000
00000000
00000000
00000000
,
00010000
00000000
00100000
00000000
10000000
00000000
,
00100000
00000000
00010000
00000000
00000000
00000000
,
00001000
00000000
00000010
00000000
00000001
00000000
,
00000010
00000000
00001000
00000000
00000000
00000000
,
00010000
00000000
01010000
00000000
,
01000000
00000000
00000000
00000000
,
00100000
00000000
00101000
00000000
,
00001000
00000000
00000000
00000000
,
00001000
00000000
00001100
00000000
,
00000100
00000000
00000000
00000000
,
00000010
00000000
00010010
00000000
,
00010000
00000000
00000000
00000000
,
00010000
00000000
00110000
00000000
,
00100000
00000000
00000000
00000000
,
01000000
00000000
01001000
00000000
,
00001000
00000000
00000000
00000000
,
00001000
00000000
00001010
00000000
,
00000010
00000000
00000000
00000000
,
00000100
00000000
00010100
00000000
,
00010000
00000000
00001000
00000000
,
00010000
00000000
01000000
00000000
,
00010000
00001000
00010000
00000000
,
00001000
00000000
00000010
00000000
,
00001000
00010000
00001000
00000000
,
00010000
00000000
00100000
00000000
,
00010000
00001000
00010000
00000000
,
00001000
00000000
00000100
00000000
,
00001000
00010000
00001000
00000000
,
01000000
00000000
00100000
00000000
00010000
00000000
,
00001000
00000000
00000100
00000000
00000000
00000000
,
00000100
00000000
00001000
00000000
00010000
00000000
,
00100000
00000000
01000000
00000000
00000000
00000000
,
01000000
00000000
00100000
00000000
00010000
00000000
,
00001000
00000000
00000100
00000000
00000000
00000000
,
00000100
00000000
00001000
00000000
00010000
00000000
,
00100000
00000000
00000000
00000000
02000000
00000000
,
00200000
00000000
00000000
00000000
,
00000000
00000000
00000000
00000000
,
03300000
00000000
00000000
00000000
,
00000000
00000000
00000000
00000000
;

//---------------dance-double - ----------------
#NOTES:
     dance-double:
     :
     Medium:
     13:
     0.529485,0.643538,0.367736,0.019355,0.580636,383.000000,345.000000,38.000000,2.000000,0.000000,0.000000,0.529485,0.643538,0.367736,0.019355,0.580636,383.000000,345.000000,38.000000,2.000000,0.000000,0.000000:
00000000
00000000
00000000
00000000
,
00000000
00000000
00000000
00000000
,
00000000
00000000
00000000
00000000
,
00000000
00000000
00000000
00000000
,
00000000
00000000
00000000
00000000
,
00100000
00000000
00000000
01000000
00000000
00000000
00100000
00000000
00001000
00010000
00000000
00000000
,
00001000
00000000
00000000
00000100
00000000
00000000
00000001
00000000
00000010
00000001
00000000
00000000
,
00000010
00000000
00000000
00000100
00000000
00000000
00000010
00000000
00001000
00010000
00000000
00000000
,
00001000
00100000
01000000
00010000
,
00100000
00000000
00000000
01000000
00000000
00000000
00100000
00000000
00001000
00010000
00000000
00000000
,
00001000
00000000
00000000
00000100
00000000
00000000
00000001
00000000
00000010
00000001
00000000
00000000
,
00000010
00000000
00000000
00000100
00000000
00000000
00000010
00000000
00001000
00010000
00000000
00000000
,
00001000
00100000
01000000
00010000
,
00100000
00000000
00000000
00001000
00000000
00000000
01000000
00000000
00001000
00010000
00000000
00000000
,
00000100
00000000
00000000
00000010
00000000
00000000
00000001
00000000
00001000
00000000
00000000
00000100
,
00000010
00000000
00000000
00001000
00000000
00000000
00010000
00000000
00001000
00010000
00000000
00000000
,
01000000
00000000
00000000
00100000
00000000
00000000
00001000
00000000
00010000
00000000
00000000
00001000
,
00000010
00000000
00000000
00000100
00000000
00000000
00010000
00000000
00001000
00010000
00000000
00000000
,
01000000
00000000
00000000
00100000
00000000
00000000
00001000
00000000
00010000
00000000
00000000
00001000
,
00100000
00000000
00000000
00001000
00000000
00000000
00010000
00000000
00001000
00000100
00000000
00000000
,
00000001
00000000
00000000
00001000
00000000
00000000
00000010
00000000
00000100
00000000
00000000
00000001
,
00000010
00000000
00000001
00000100
00000000
00000000
00000100
00000000
00001000
00000000
00010000
00000000
,
00100000
00000000
10000000
01000000
00000000
00000000
01000000
00000000
00010000
00000000
00001000
00000000
,
00000100
00000000
00000001
00000010
00000000
00000000
00000010
00000000
00001000
00000000
00010000
00000000
,
01000000
00000000
10000000
00100000
00000000
00000000
00100000
00000000
00010000
00000000
00001000
00000000
,
00000010
00000000
00000001
00000100
00000000
00000000
00000100
00000000
00001000
00000000
00010000
00000000
,
00100000
00000000
10000000
01000000
00000000
00000000
01000000
00000000
00010000
00000000
00001000
00000000
,
00000100
00000000
00000001
00000010
00000000
00000000
00000010
00000000
00001000
00000000
00010000
00000000
,
01000000
00000000
10000000
00100000
00000000
00000000
00100000
00000000
00010000
00000000
00001000
00000000
,
00010000
01010000
00001000
00001100
,
00010000
01010000
00001000
00001100
,
00010000
01010000
00001000
00001100
,
00010000
01010000
00001000
00001100
,
00010000
00110000
00001000
00001010
,
00010000
00110000
00001000
00001010
,
00010000
00110000
00001000
00001010
,
00010000
00110000
00001000
00001010
,
00000010
00000000
00000001
00000100
00000000
00000000
00001000
00000000
00010000
00001000
00000000
00000000
,
00001000
00000000
01000000
00100000
00000000
00000000
10000000
00000000
00010000
00000000
00000000
01000000
,
00100000
00000000
10000000
01000000
00000000
00000000
00010000
00000000
00001000
00010000
00000000
00000000
,
00010000
00000000
00000100
00000010
00000000
00000000
00000001
00000000
00001000
00000000
00000000
00000100
,
00000010
00000010
00000001
00000001
00000101
00000000
,
00001000
00001000
00010000
00010000
01010000
00000000
,
10000000
10000000
00100000
00100000
00110000
00000000
,
00001000
00000000
00000000
00010000
,
00001000
00000100
00001000
00010000
01010000
00000000
,
00010000
01000000
00010000
00001000
00001100
00000000
,
00001000
00000100
00001000
00010000
01010000
00000000
,
00010000
01000000
00010000
00001000
00001100
00000000
,
00001000
00000100
00001000
00010000
00110000
00000000
,
00010000
00100000
00010000
00001000
00001010
00000000
,
00001000
00000010
00001000
00010000
00110000
00000000
,
00010000
00100000
00010000
00001000
00000100
00000000
,
00000010
00000000
00000001
00000000
00000100
00000000
,
00001000
00000000
00001100
00000000
00000000
00000000
,
00001000
00000000
00010000
00000000
00100000
00000000
,
10000000
00000000
10100000
00000000
00000000
00000000
,
10000000
00000000
01000000
00000000
00010000
00000000
,
00001000
00000000
00011000
00000000
00000000
00000000
,
00001000
00000000
00000010
00000000
00000001
00000000
,
00000010
00000000
00000100
00000000
00001000
00000000
,
00000001
00000000
00000100
00001000
00000000
00000000
,
00010000
00000000
00100000
00000000
,
10000000
00000000
01000000
00010000
00000000
00000000
,
00001000
00000000
00000010
00000000
,
00000001
00000000
00000010
00001000
00000000
00000000
,
00010000
00000000
01000000
00000000
,
10000000
00000000
00100000
00010000
00000000
00000000
,
00001000
00000000
00000000
00000100
00000000
00000100
,
00000001
00000000
00000010
00001000
00000000
00000000
,
00010000
00000000
01000000
00000000
,
10000000
00000000
00100000
00010000
00000000
00000000
,
00001000
00000000
00000100
00000000
,
00000001
00000000
00000100
00001000
00000000
00000000
,
00010000
00000000
00100000
00000000
,
10000000
00000000
01000000
00010000
00000000
00000000
,
00001000
00000000
00000000
00000010
00000000
00000010
,
00000100
00010000
00001000
00000000
,
01000000
00001000
00010000
00000000
,
00000100
00010000
00001000
00000000
,
01000000
00000000
00011000
00000000
,
00000010
00010000
00001000
00000000
,
00100000
00001000
00010000
00000000
,
00000010
00010000
00001000
00000000
,
00100000
00000000
00011000
00000000
,
00000100
00000000
00000110
00000000
00000001
00000000
,
00001001
00000000
00000100
00000000
00000000
00000000
,
00001000
00000000
00011000
00000000
00100000
00000000
,
01100000
00000000
01000000
00000000
00000000
00000000
,
01000000
00000000
01100000
00000000
10000000
00000000
,
10010000
00000000
01000000
00000000
00000000
00000000
,
00010000
00000000
00011000
00000000
00000010
00000000
,
00000100
00000000
00000000
00000000
00002000
00000000
,
00000002
00000000
00000000
00000000
,
00000000
00000000
00000000
00000000
,
00003003
00000000
00000000
00000000
,
00000000
00000000
00000000
00000000
;

//---------------dance-double - ----------------
#NOTES:
     dance-double:
     :
     Hard:
     15:
     0.728560,0.919340,0.812890,0.019355,0.909663,527.000000,443.000000,84.000000,2.000000,0.000000,0.000000,0.728560,0.919340,0.812890,0.019355,0.909663,527.000000,443.000000,84.000000,2.000000,0.000000,0.000000:
00000000
00000000
00000000
00000000
,
00000000
00000000
00000000
00000000
,
00000000
00000000
00000000
00000000
,
00000000
00000000
00000000
00000000
,
00000000
00000000
00000000
00000000
,
10000000
00000000
10000000
01000000
00000000
01000000
00010000
00000000
00000000
00011000
00000000
00000000
,
00000010
00000000
00000010
00001000
00000000
00001000
00010000
00000000
00000000
01010000
00000000
00000000
,
10000000
00000000
10000000
00100000
00000000
00100000
00010000
00000000
00000000
00011000
00000000
00000000
,
00000100
00001000
00010000
00100000
,
10000000
00000000
10000000
01000000
00000000
01000000
00010000
00000000
00000000
00011000
00000000
00000000
,
00000010
00000000
00000010
00000001
00000000
00000000
00000100
00000000
00000000
00001100
00000000
00000000
,
00010000
00000000
00010000
00001000
00000000
00001000
01000000
00000000
00000000
01100000
00000000
00000000
,
10000000
00000000
00000000
00010000
00000000
00000000
01000000
00000000
00100000
10000000
00000000
00010000
,
10000000
00000000
01000000
00100000
00000000
00000000
00001000
00000000
00010000
00000000
00001000
00000000
,
00010000
00000000
00000100
00000010
00000000
00000001
00001000
00000000
00000001
00000000
00000000
00000100
,
00000010
00000000
00010000
00001000
00000000
00000000
00010000
00000000
00001000
00000000
00010000
00000000
,
00001000
00000000
01000000
00100000
00000000
10000000
00010000
00000000
01000000
00100000
00000000
10000000
,
00010000
00000000
00100000
00001000
00000000
00000000
00010000
00000000
00001000
00000000
00010000
00000000
,
00000100
00000000
00000010
00000001
00000000
00001000
00000100
00000000
00000000
00010000
00000000
00001000
,
00010000
00000000
00001000
01000000
00000000
00000000
00001000
00000000
00010000
00000000
00001000
00000000
,
00100000
00000000
01000000
10000000
00000000
00010000
10000000
00000000
00000000
00100000
00000000
10000000
,
01000000
00000000
00000000
00010000
00000000
01000000
00100000
00000000
00000000
00001000
00010000
00000000
,
00001000
00000000
00000000
00010000
00000000
00000100
00000010
00000000
00000001
00000000
00000001
00000000
,
00000100
00000000
00000000
00001000
00000000
00000100
00000010
00000000
00000000
00010000
00001000
00000000
,
00010000
00000000
00000000
00001000
00000000
01000000
00100000
00000000
10000000
00000000
10000000
00000000
,
01000000
00000000
00000000
00010000
00000000
01000000
00100000
00000000
00000000
00001000
00010000
00000000
,
00001000
00000000
00000000
00010000
00000000
00000100
00000010
00000000
00000001
00000000
00000001
00000000
,
00000100
00000000
00000000
00001000
00000000
00000100
00000010
00000000
00000000
00010000
00001000
00000000
,
00010000
00000000
00000000
00001000
00000000
01000000
00100000
00000000
10000000
00000000
00010000
00000000
,
10000000
00000000
10000000
01000000
00000000
00000000
00010000
00000000
00000000
01010000
00000000
00000000
,
00010000
00000000
00010000
00001000
00000000
00000000
00000010
00000000
00000000
00001010
00000000
00000000
,
00000010
00000000
00000010
00000001
00000000
00000000
00000100
00000000
00000000
00001100
00000000
00000000
,
00000100
00000000
00000100
00001000
00000000
00000000
00010000
00000000
00000000
00011000
00000000
00000000
,
00010000
00000000
00010000
00100000
00000000
00000000
10000000
00000000
00000000
11000000
00000000
00000000
,
01000000
00000000
01000000
00010000
00000000
00000000
00001000
00000000
00000000
00011000
00000000
00000000
,
00001000
00000000
00001000
00000010
00000000
00000000
00000001
00000000
00000000
00000011
00000000
00000000
,
00000001
00000000
00000001
00000100
00000000
00000000
00001000
00000000
00000000
00011000
00000000
00000000
,
01000000
00100000
01000000
10000000
00000000
01000000
00010000
00000000
00000000
00001000
00010000
00001000
,
00000010
00000100
00000010
00000001
00000000
00000010
00001000
00000000
00000000
00010000
00001000
00010000
,
01000000
00100000
01000000
10000000
00000000
01000000
00010000
00000000
00000000
00001000
00010000
00001000
,
00000010
00000100
00000010
00000001
00000000
00000010
00001000
00000000
00000000
00011000
00000000
00000000
,
00010000
00110000
01100000
11000000
10000000
00000000
,
10000000
11000000
01100000
00110000
00010000
00000000
,
00001000
00001010
00000110
00000101
00000001
00000000
,
00000110
00000000
00000000
00000000
,
00001000
00001010
00000110
00000011
00001001
00000000
,
00000001
00000101
00000110
00001100
00011000
00000000
,
00010000
01010000
01100000
11000000
10010000
00000000
,
10000000
11000000
01100000
01010000
00011000
00000000
,
00001000
00001010
00000110
00000011
00001001
00000000
,
00000001
00000101
00000110
00001100
00011000
00000000
,
00010000
01010000
01100000
11000000
10010000
00000000
,
01100000
00000000
00000000
00000000
,
10100000
00000000
10010000
00000000
11000000
00000000
,
01100000
00000000
00101000
00000000
00000000
00000000
,
00011000
00000000
00010100
00000000
00001100
00000000
,
00000110
00000000
00000011
00000000
00000000
00000000
,
00000101
00000000
00001001
00000000
00000011
00000000
,
00000110
00000000
00010100
00000000
00000000
00000000
,
00010000
00000000
00001000
00000000
00100000
00000000
,
01000000
00000000
10000000
00000000
00010000
00000000
,
10000000
01000000
10000000
00010000
00000000
00100000
,
00001000
00000000
00010000
00000100
00001000
00000001
,
00000010
00000001
00000010
00000100
00000000
00010000
,
00001000
00000000
00100000
01000000
10000000
00010000
,
10000000
00100000
10000000
00010000
00000000
01000000
,
00001000
00000000
00010000
00000010
00001000
00000001
,
00000100
00000001
00000100
00000010
00000000
00010000
,
00001000
00000000
01000000
00100000
10000000
00010000
,
10000000
01000000
10000000
00010000
00000000
00100000
,
00001000
00000000
00010000
00000100
00001000
00000001
,
00000010
00000001
00000010
00000100
00000000
00010000
,
00001000
00000000
00100000
01000000
10000000
00010000
,
10000000
00100000
10000000
00010000
00000000
01000000
,
00001000
00000000
00010000
00000010
00001000
00000001
,
00000100
00000001
00000100
00000010
00000000
00010000
,
00001000
00000000
01000000
00100000
10000000
00010000
,
10000000
01000000
00100000
00000000
01000000
00100000
00001000
00000000
,
00100000
00001000
00010000
00000000
00001000
00010000
00000100
00000000
,
00010000
00000100
00000010
00000000
00000100
00000010
00000001
00000000
,
00000010
00000001
00000100
00000000
00000001
00000100
00000010
00001000
,
00000001
00000010
00000100
00000000
00000010
00000100
00010000
00000000
,
00000100
00010000
00001000
00000000
00010000
00001000
00100000
00000000
,
00001000
00100000
01000000
00000000
00100000
01000000
10000000
00000000
,
01000000
10000000
00100000
00000000
10000000
00100000
01000000
00000000
,
01100000
00000000
01010000
00000000
01001000
00000000
,
00011000
00000000
00010010
00000000
00000000
00000000
,
00011000
00000000
00101000
00000000
00110000
00000000
,
01100000
00000000
11000000
00000000
00000000
00000000
,
01100000
00000000
00110000
00000000
00101000
00000000
,
00011000
00000000
00010100
00000000
00000000
00000000
,
00000010
00000000
00000001
00000000
00000010
00000000
,
00000100
00000000
00000000
00000000
00020000
00000000
,
00002000
00000000
00000000
00000000
,
00000000
00000000
00000000
00000000
,
00033000
00000000
00000000
00000000
,
00000000
00000000
00000000
00000000
;

//---------------dance-double - ----------------
#NOTES:
     dance-double:
     :
     Challenge:
     18:
     0.826715,1.057241,0.783858,0.019355,0.890308,598.000000,517.000000,81.000000,2.000000,0.000000,0.000000,0.826715,1.057241,0.783858,0.019355,0.890308,598.000000,517.000000,81.000000,2.000000,0.000000,0.000000:
00000000
00000000
00000000
00000000
,
00000000
00000000
00000000
00000000
,
00000000
00000000
00000000
00000000
,
00000000
00000000
00000000
00000000
,
00000000
00000000
00000000
00000000
,
10000000
00000000
10000000
01000000
00000000
01000000
00010000
00000000
00010000
00001000
00000000
00000000
,
00000010
00000000
00000010
00001000
00000000
00001000
00010000
00000000
00010000
01000000
00000000
00000000
,
10000000
00000000
10000000
00100000
00000000
00100000
00010000
00000000
00010000
00001000
00000000
00000000
,
00000100
00001000
00010000
00100000
,
10000000
00000000
10000000
01000000
00000000
01000000
00010000
00000000
00010000
00001000
00000000
00000000
,
00000010
00000000
00000010
00000001
00000000
00000000
00000100
00000000
00000100
00001000
00000000
00000000
,
00010000
00000000
00010000
00001000
00000000
00001000
01000000
00000000
01000000
00100000
00000000
00000000
,
10000000
00000000
00000000
00010000
00000000
00000000
01000000
00000000
00100000
10000000
00000000
00010000
,
10000000
00000000
01000000
00100000
00000000
00000000
00001000
00000000
00010000
00000000
00001000
00000000
,
00010000
00000000
00000100
00000010
00000000
00000001
00001000
00000000
00000001
00000000
00000000
00000100
,
00000010
00000000
00010000
00001000
00000000
00000000
00010000
00000000
00001000
00000000
00010000
00000000
,
00001000
00000000
01000000
00100000
00000000
10000000
00010000
00000000
01000000
00100000
00000000
10000000
,
00010000
00000000
00100000
00001000
00000000
00000000
00010000
00000000
00001000
00000000
00010000
00000000
,
00000100
00000000
00000010
00000001
00000000
00001000
00000100
00000000
00000000
00010000
00000000
00001000
,
00010000
00000000
00001000
01000000
00000000
00000000
00001000
00000000
00010000
00000000
00001000
00000000
,
00100000
00000000
01000000
10000000
00000000
00010000
10000000
00000000
00000000
00100000
00000000
10000000
,
01000000
00000000
01000000
00010000
00000000
01000000
00100000
00000000
00100000
00001000
00010000
00000000
,
00001000
00000000
00010000
00000100
00000000
00000100
00000010
00000000
00000001
00000000
00000001
00000000
,
00000100
00000000
00000100
00001000
00000000
00000100
00000010
00000000
00000010
00010000
00001000
00000000
,
00010000
00000000
00001000
01000000
00000000
01000000
00100000
00000000
10000000
00000000
10000000
00000000
,
00100000
00000000
00100000
00010000
00000000
00100000
01000000
00000000
01000000
00001000
00010000
00000000
,
00001000
00000000
00010000
00000010
00000000
00000010
00000100
00000000
00000001
00000000
00000001
00000000
,
00000010
00000000
00000010
00001000
00000000
00000010
00000100
00000000
00000100
00010000
00001000
00000000
,
00010000
00000000
00001000
00100000
00000000
00100000
01000000
00000000
10000000
00000000
10000000
00000000
,
00100000
00000000
00010000
01000000
00000000
00001000
00010000
00000000
00010000
00001000
00000000
00000010
,
00000100
00000000
00001000
00000010
00000000
00000001
00001000
00000000
00001000
00000100
00000000
00010000
,
00001000
00000000
00001000
00010000
00000000
00100000
01000000
00000000
00010000
00100000
00000000
01000000
,
10000000
00000000
10000000
01000000
00000000
00100000
00001000
00000000
00000000
00011000
00000000
00000000
,
00000010
00000000
00001000
00000100
00000000
00010000
00001000
00000000
00001000
00010000
00000000
00100000
,
01000000
00000000
00010000
00100000
00000000
10000000
00010000
00000000
00010000
01000000
00000000
00001000
,
00010000
00000000
00010000
00001000
00000000
00000010
00000100
00000000
00001000
00000010
00000000
00000100
,
00000001
00000000
00000001
00000100
00000000
00000010
00010000
00000000
00000000
00011000
00000000
00000000
,
00010000
00001000
00010000
01000000
00000000
01000000
00010000
00000000
00001000
00000100
00000010
00000100
,
00001000
00010000
00001000
00000100
00000000
00000100
00001000
00000000
00010000
00100000
01000000
00100000
,
00001000
00010000
00001000
00000100
00000000
00000100
00001000
00000000
00010000
01000000
00100000
01000000
,
00010000
00001000
00010000
01000000
00000000
01000000
00010000
00000000
00001000
00000010
00000100
00000010
,
00001000
00001001
00000101
00000110
00001100
00000000
,
00001000
00011000
01010000
01100000
11000000
00000000
,
10000000
10100000
00110000
00011000
00001100
00000000
,
00001001
00000000
00000000
00000000
,
00000011
00000110
00001010
00011000
01010000
00000000
,
01100000
11000000
10010000
10100000
01100000
00000000
,
01010000
00011000
00001100
00000101
00001001
00000000
,
00000101
00000110
00001100
00011000
00110000
00000000
,
01100000
10100000
10010000
11000000
01100000
00000000
,
00110000
00011000
00001010
00000011
00001001
00000000
,
00000011
00000110
00001010
00011000
01010000
00000000
,
01100000
00000000
00000000
00000000
,
11000000
00000000
01100000
00000000
00101000
00000000
,
00011000
00000000
00010100
00000000
00000000
00000000
,
00010010
00000000
00011000
00000000
01001000
00000000
,
01100000
00000000
10100000
00000000
00000000
00000000
,
11000000
00000000
01100000
00000000
00101000
00000000
,
00011000
00000000
00010100
00000000
00000000
00000000
,
00000010
00000000
00000100
00000000
00010000
00000000
,
00001000
00000000
01000000
00000000
00100000
00000000
,
10000000
01000000
10000000
01000000
00010000
00000000
00010000
00001000
,
00000010
00000000
00000100
00000010
00000001
00000000
00000100
00000000
,
00000001
00000100
00000001
00000100
00001000
00000000
00001000
00010000
,
00100000
00000000
01000000
00100000
10000000
00000000
01000000
00000000
,
10000000
00100000
10000000
00100000
00010000
00000000
00010000
00001000
,
00000100
00000000
00000010
00000100
00000001
00000000
00000010
00000000
,
00000001
00000010
00000001
00000010
00001000
00000000
00001000
00010000
,
01000000
00000000
00100000
01000000
10000000
00000000
00100000
00000000
,
10000000
01000000
00100000
01000000
00010000
00000000
00010000
00001000
,
00000010
00000000
00000100
00000010
00000001
00000000
00000100
00000000
,
00000001
00000100
00000010
00000100
00001000
00000000
00001000
00010000
,
00100000
00000000
01000000
00100000
10000000
00000000
01000000
00000000
,
10000000
00100000
01000000
00100000
00010000
00000000
00010000
00001000
,
00000100
00000000
00000010
00000100
00000001
00000000
00000010
00000000
,
00000001
00000010
00000100
00000010
00001000
00000000
00001000
00010000
,
01000000
00000000
00100000
01000000
10000000
00000000
00100000
00000000
,
10000000
01000000
00010000
01000000
10000000
01000000
00010000
01000000
,
00010000
00001000
00000010
00001000
00010000
00001000
00000010
00001000
,
00000010
00000001
00000100
00000001
00000010
00000001
00000100
00000001
,
00000100
00001000
00010000
00001000
00000100
00001000
00010000
00001000
,
00010000
00100000
10000000
00100000
00010000
00100000
10000000
00100000
,
10000000
01000000
00010000
01000000
10000000
01000000
00010000
01000000
,
00010000
00001000
00000100
00001000
00010000
00001000
00000100
00001000
,
00000100
00000001
00000100
00001000
00000100
00000001
00000100
00000000
,
00000110
00000000
00001100
00000000
00010100
00000000
,
00011000
00000000
00101000
00000000
00000000
00000000
,
00011000
00000000
00010010
00000000
00001010
00000000
,
00000110
00000000
00000101
00000000
00000000
00000000
,
00000110
00000000
00001010
00000000
00010010
00000000
,
00011000
00000000
01001000
00000000
00000000
00000000
,
00100000
00000000
10000000
00000000
00100000
00000000
,
01000000
00000000
00000000
00000000
00002000
00000000
,
00020000
00000000
00000000
00000000
,
00000000
00000000
00000000
00000000
,
00033000
00000000
00000000
00000000
,
00000000
00000000
00000000
00000000
;

//---------------dance-single - ----------------
#NOTES:
     dance-single:
     :
     Edit:
     19:
     1.081089,1.838680,1.006435,0.029032,1.364494,782.000000,678.000000,104.000000,3.000000,0.000000,0.000000,1.081089,1.838680,1.006435,0.029032,1.364494,782.000000,678.000000,104.000000,3.000000,0.000000,0.000000:
// measure 0
0000
0000
0000
0000
,  // measure 1
0000
0000
0000
0000
,  // measure 2
0000
0000
0000
0000
,  // measure 3
0000
0000
0000
0000
,  // measure 4
0000
0000
0000
0000
,  // measure 5
0101
0000
0001
0100
1000
0100
0010
1000
0010
0001
0000
0000
,  // measure 6
1010
0000
1000
0100
0000
0100
0010
0001
0010
0100
1000
0000
,  // measure 7
0100
0000
0001
0100
0000
1000
0100
1000
0001
1000
0000
0000
,  // measure 8
0001
0100
0000
0010
1000
0000
1000
0100
0000
0010
0001
0000
,  // measure 9
0011
0000
0000
0000
0001
0000
0010
0000
0000
0000
0010
0000
0100
1000
0100
0000
1000
0000
0001
0000
1000
0000
0000
0000
,  // measure 10
0010
0000
1000
0010
0000
0001
0100
1000
0100
0001
0010
0000
,  // measure 11
0100
0000
0001
0100
1000
0010
0100
0000
0001
1000
0000
0000
,  // measure 12
1100
0000
0010
0001
0000
0001
0100
0000
1000
0100
0000
0001
,  // measure 13
0100
0000
0001
1000
0000
0000
1100
0000
0101
0000
0011
0000
,  // measure 14
0110
0000
0000
0000
1000
0000
0001
0000
0000
0000
0010
0000
0100
1000
0100
0000
1000
0000
0001
0000
0000
0000
1000
0000
,  // measure 15
0100
0000
1000
0001
0000
1000
1100
0000
0001
0010
0011
0000
,  // measure 16
1000
0100
0000
0001
0010
0000
1000
0010
0000
0001
0100
0000
,  // measure 17
0110
0000
1000
1001
0000
0000
0011
0000
1000
0000
1100
0000
,  // measure 18
0010
0000
0001
1000
0000
0100
0010
0000
0001
1000
0000
0001
,  // measure 19
0010
0000
0001
1000
0000
0010
0011
0000
1000
0000
1100
0000
,  // measure 20
0001
0010
0000
1000
0100
0000
0001
0100
0000
1000
0010
0000
,  // measure 21
0100
0000
0001
0000
0100
0000
0010
0000
1000
0000
0001
0000
1000
0001
1000
0000
0010
0000
0100
0001
0100
0000
0010
0000
,  // measure 22
1000
0000
0100
0000
0010
0000
0001
0010
0001
0010
0100
0000
1000
0010
1000
0010
0100
0000
0010
0100
0010
0100
0001
0000
,  // measure 23
1000
0100
0010
0001
1000
0000
0100
0010
0100
0000
0010
0000
0001
1000
0001
1000
0001
1000
0010
0000
0100
0000
0010
0000
,  // measure 24
0100
0001
0100
0001
0100
0010
1000
0000
0010
0000
0100
0000
0001
0000
0010
0000
0100
0000
2100
0000
0000
0000
0001
0000
,  // measure 25
3010
0000
0001
0000
0010
0000
0100
0000
1000
0000
0100
0000
1000
0000
0001
0000
0100
0000
0010
0000
0100
0001
0100
0000
,  // measure 26
0010
1000
0001
0100
0010
0100
0010
1000
0100
0001
0100
1000
,  // measure 27
0010
0000
0100
0000
0001
0000
0010
0000
0001
0000
0100
0000
1001
0000
0001
0000
1000
0000
0100
0000
0010
0001
0010
0000
,  // measure 28
0100
0000
1000
0000
0010
0000
0100
0000
0001
0000
0100
0000
0010
1000
0010
0000
0100
0000
0001
0000
1000
0000
0010
0000
,  // measure 29
0100
0000
0001
0011
0000
0000
0010
0000
1000
1100
0000
0000
,  // measure 30
0010
0000
1000
1001
0000
0000
0010
0100
1000
1100
0000
0000
,  // measure 31
0010
0000
0001
1001
0000
0000
0010
0000
0001
0100
0010
0100
,  // measure 32
0010
0000
1000
0001
0000
0000
0010
0000
0001
0100
0010
1000
,  // measure 33
0100
0000
0000
0000
1000
0000
1001
0000
0000
0000
0000
0000
0100
0000
0000
0000
1000
0001
1000
0000
0000
0000
0000
0000
,  // measure 34
0100
0000
0000
0000
0010
0000
1001
0000
0000
0000
0000
0000
0100
0001
0100
0000
0010
0000
1000
0000
0000
0000
0100
0000
,  // measure 35
0110
0000
0001
1001
0000
0000
0100
0001
0010
0001
0000
0100
,  // measure 36
0100
0000
0001
1000
0000
0010
0100
0000
1001
0000
0000
0000
,  // measure 37
0010
1000
0010
0000
0100
0000
0001
0000
0010
0000
0100
0000
1000
0100
1000
0000
0001
0000
0010
0100
0010
0000
0100
0000
,  // measure 38
1000
0001
1000
0000
0100
0000
0010
0001
0010
0000
0001
0000
0100
0010
0100
0000
0010
0000
1000
0100
1000
0000
0010
0000
,  // measure 39
0001
0010
0001
0000
0010
0000
1000
0010
1000
0000
0001
0000
0100
0010
0100
0000
0001
0000
0010
1000
0010
0000
0001
0000
,  // measure 40
0010
0100
0010
0000
0100
0000
1000
0100
1000
0000
0100
0000
0010
0001
0010
0000
0100
0000
0001
0000
0010
0000
0100
0000
,  // measure 41
0101
0000
0110
0000
0011
0000
0110
0000
1001
0000
0000
0000
,  // measure 42
1100
0000
0101
0000
1100
0000
0101
0000
1010
0000
0000
0000
,  // measure 43
1001
0000
0110
0000
1010
0000
0101
0000
1001
0000
0000
0100
,  // measure 44
0001
0010
0001
0000
0010
0000
0100
1000
0100
0000
1000
0000
0010
0100
0001
0000
1000
0000
0010
1000
0100
0010
0001
0000
,  // measure 45
1001
0000
0011
0000
1100
0000
1010
0000
0011
0000
0000
0000
,  // measure 46
1010
0000
1100
0000
0101
0000
0011
0000
1010
0000
0000
0000
,  // measure 47
1001
0000
1010
0000
0110
0000
0011
0000
1001
0000
0000
0000
,  // measure 48
1001
0000
0101
0000
0110
0000
1100
0000
1001
0000
0000
0000
,  // measure 49
1001
0000
0101
0000
0110
0000
1100
0000
1001
0000
0000
0000
,  // measure 50
1100
0000
0110
0000
0011
0000
1100
0000
0110
0000
0000
0000
,  // measure 51
0011
0000
0110
0000
1100
0000
0011
0000
0110
0000
0000
0110
,  // measure 52
1001
0000
0000
0000
,  // measure 53
0011
0000
0000
0000
0101
0000
0000
0000
1100
0000
0000
0000
,  // measure 54
1010
0000
0000
0000
0110
0000
0000
0000
0000
0000
0000
0000
,  // measure 55
1010
0000
0000
0000
1100
0000
0000
0000
0101
0000
0000
0000
,  // measure 56
0011
0000
0000
0000
0110
0000
0000
0000
0000
0000
0000
0000
,  // measure 57
0101
0000
0000
0000
0011
0000
0000
0000
1010
0000
0000
0000
,  // measure 58
1100
0000
0000
0000
0110
0000
0000
0000
0000
0000
0001
0000
,  // measure 59
0101
0000
0000
0000
1100
0000
0000
0000
0110
0000
0000
0000
,  // measure 60
0011
0000
0000
0000
1001
0000
0000
0000
0110
0000
0000
0000
,  // measure 61
1000
0100
0001
0010
0001
0100
1000
0000
,  // measure 62
0010
1000
0100
0010
0001
0100
0010
0000
,  // measure 63
0100
0001
0100
0010
1000
0001
0010
0000
,  // measure 64
0100
1000
0100
0010
1000
0100
0010
0000
,  // measure 65
0100
0001
0010
0100
1000
0001
1000
0100
,  // measure 66
1000
0010
0001
0010
1000
0100
0001
0000
,  // measure 67
0100
1000
0010
0100
0001
0000
0001
0100
,  // measure 68
0001
0010
0100
1000
0010
0100
0010
0000
,  // measure 69
0010
1000
0010
0100
0001
1000
0100
1000
,  // measure 70
0010
0100
0010
0100
0001
0010
0100
0000
,  // measure 71
0010
0001
0010
0100
1000
0001
0010
0100
,  // measure 72
0010
0001
0010
0100
1000
0010
0100
0000
,  // measure 73
0010
1000
0100
0010
0001
1000
0001
0100
,  // measure 74
0010
1000
0100
0001
0100
1000
0100
0000
,  // measure 75
0010
0000
0000
0000
0001
0000
1001
0000
0000
0000
0100
0000
,  // measure 76
0110
0000
0000
0000
0001
0000
1001
0000
0000
0000
0000
0000
,  // measure 77
1000
0010
1000
0010
0001
0010
0001
0010
,  // measure 78
1000
0100
1000
0100
0001
0100
0001
0100
,  // measure 79
1000
0010
1000
0010
0001
0010
0001
0010
,  // measure 80
1000
0100
1000
0100
0001
0100
0001
0100
,  // measure 81
1000
0010
0001
0010
1000
0100
0001
0100
,  // measure 82
1000
0010
0001
0010
1000
0100
0001
0100
,  // measure 83
1000
0010
0001
0010
1000
0100
0001
0100
,  // measure 84
1000
0010
0001
0010
1000
0100
0001
0000
,  // measure 85
1000
0010
0100
0010
0001
0010
0100
0010
,  // measure 86
0001
0010
0100
0010
0001
0000
0000
0000
,  // measure 87
0100
0010
1000
0010
0100
0001
0010
0001
,  // measure 88
1000
0010
1000
0100
0010
0000
0000
0000
,  // measure 89
0001
0010
1000
0010
0001
0100
1000
0100
,  // measure 90
0001
0010
0001
0010
1000
0010
1000
0010
,  // measure 91
0001
0000
0000
0000
1000
0000
0000
0000
0010
0000
0000
0000
,  // measure 92
0100
0000
0000
0000
0000
0000
0000
0000
0002
0000
0000
0000
,  // measure 93
2000
0000
0000
0000
,  // measure 94
0000
0000
0000
0000
,  // measure 95
3003
0000
0000
0000
;
