#TITLE:HYENA;
#SUBTITLE:;
#ARTIST:Hommarju;
#TITLETRANSLIT:;
#SUBTITLETRANSLIT:;
#ARTISTTRANSLIT:;
#GENRE:;
#CREDIT:;
#BANNER:HYENA.png;
#BACKGROUND:HYENA-bg.png;
#LYRICSPATH:;
#CDTITLE:./CDTitles/DanceDanceRevolution 2013.png;
#MUSIC:HYENA.ogg;
#OFFSET:0.000000;
#SAMPLESTART:95.699997;
#SAMPLELENGTH:15.000000;
#SELECTABLE:YES;
#DISPLAYBPM:89.000000:178.000000;
#BPMS:0.000000=178.218002
,4.000000=177.998001
,68.000000=88.889000
,72.000000=177.998001
,136.000000=89.109001
,140.000000=177.998001
,268.000000=88.889000
,272.000000=178.100006
,302.000000=178.065002
;
#STOPS:302.000000=0.340000
;
#BGCHANGES:;
#KEYSOUNDS:;
#ATTACKS:;

//---------------dance-single - ----------------
#NOTES:
     dance-single:
     :
     Beginner:
     3:
     0.191660,0.279157,0.033332,0.000000,0.000000,157.000000,4.000000,0.000000,0.000000,0.000000,0.000000,0.191660,0.279157,0.033332,0.000000,0.000000,157.000000,4.000000,0.000000,0.000000,0.000000,0.000000:
0000
0000
0000
0000
,
0000
0000
0000
0000
,
0000
0000
0000
0000
,
0000
0000
0000
0000
,
0000
0000
0000
0000
,
0100
0000
0000
0000
,
0000
0000
0000
0000
,
0100
0000
0000
0000
,
0000
0000
0000
0000
,
0100
0000
0100
0000
,
0001
0001
0001
0000
,
0100
0000
0100
0000
,
0010
0010
0010
0000
,
0100
0000
0100
0000
,
1000
1000
1000
0000
,
0100
0000
0100
0000
,
1000
1000
1000
0000
,
1001
0000
0000
0000
,
0010
0000
0010
0000
,
1000
1000
1000
0000
,
0010
0000
0100
0000
,
0001
0001
0001
0000
,
0010
0000
0010
0000
,
0001
0001
0001
0000
,
0010
0000
0100
0000
,
1000
1000
1000
0000
,
0100
0000
0000
0000
,
0000
0000
0000
0000
,
0100
0000
0000
0000
,
0000
0000
0000
0000
,
0100
0000
0100
0000
,
0100
0100
0100
0000
,
0100
0100
0100
0100
,
0100
0100
0100
0000
,
1001
0000
0000
0000
,
0010
0000
1000
0000
,
0001
0001
0001
0000
,
1000
0000
0010
0000
,
0100
0100
0100
0000
,
0001
0000
1000
0000
,
0010
0010
0010
0000
,
0010
0010
0010
0010
,
0010
0010
0010
0000
,
1000
0000
0000
0000
,
0100
0000
0010
0000
,
0100
0000
0000
0000
,
0001
0000
1000
0000
,
0001
0000
0000
0000
,
0010
0000
0100
0000
,
0010
0000
0100
0000
,
0010
0000
0100
0000
,
0010
0000
0000
0000
,
0000
0000
0000
0000
,
1000
0000
0000
0000
,
0000
0000
0000
0000
,
0001
0000
0000
0000
,
0000
0000
0000
0000
,
0100
0000
0000
0000
,
0000
0000
0000
0000
,
1000
0000
1000
0000
,
1000
1000
1000
0000
,
0001
0000
0001
0000
,
0100
0100
0100
0000
,
1000
0000
1000
0000
,
0010
0010
0010
0000
,
0100
0000
0100
0000
,
0001
0001
0001
0000
,
1001
0000
0000
0000
,
0100
0000
0010
0000
,
0100
0000
1000
0000
,
0001
0000
0100
0000
,
1000
1000
1000
0000
,
0001
0000
1000
0000
,
0010
0000
0100
0000
,
0001
0000
1000
0000
,
0100
0100
0100
0000
,
0000
0010
0000
1000
,
0000
0001
0000
0010
,
0000
0100
0000
0001
,
0001
0001
0000
1000
,
0000
0100
0000
0010
,
0010
0010
0000
0100
,
0100
0100
0100
0100
,
0100
0100
0000
1001
,
0000
0000
0000
0000
;

//---------------dance-single - ----------------
#NOTES:
     dance-single:
     :
     Easy:
     6:
     0.320227,0.383841,0.066664,0.258325,0.000000,230.000000,8.000000,31.000000,0.000000,0.000000,0.000000,0.320227,0.383841,0.066664,0.258325,0.000000,230.000000,8.000000,31.000000,0.000000,0.000000,0.000000:
0000
0000
0000
0000
,
0000
0000
0000
0000
,
0000
0000
0000
0000
,
0000
0000
0000
0000
,
0000
0000
0000
0000
,
0100
0000
0000
0000
,
0000
0000
0000
0000
,
0100
0000
0000
0000
,
0000
0000
0000
0000
,
0001
0100
0100
0001
,
0001
0001
0002
0003
,
1000
0100
0100
1000
,
0010
0010
0020
0030
,
1000
0100
0100
0010
,
0010
0010
0020
0030
,
0001
0100
0100
0001
,
0010
0010
0020
0030
,
0200
0000
0000
0300
,
1000
0100
0100
1000
,
1000
1000
0002
0003
,
0010
0100
0100
0001
,
0010
0010
0020
0030
,
0001
1000
1000
0010
,
0010
0010
0020
0030
,
0100
0001
0001
1000
,
0100
0100
0100
0000
,
0020
0000
0000
0000
,
0000
0000
0000
0030
,
0020
0000
0000
0000
,
0000
0000
0000
0030
,
0010
0001
0010
0100
,
0010
0010
0010
0010
,
0010
0010
0010
0010
,
0010
0010
0020
0030
,
0200
0000
0000
0300
,
1000
0001
0100
0001
,
0100
0001
1000
0001
,
0100
0001
0100
0010
,
0100
0010
0100
0001
,
1000
0010
0100
0001
,
0100
0001
0100
0001
,
0001
0001
0001
0001
,
0001
0001
0002
0003
,
0100
0100
0001
0000
,
1000
0100
0010
0000
,
0001
0001
1000
0000
,
0010
0100
0001
0000
,
0010
0010
0100
0000
,
1000
0010
0200
0300
,
0200
0300
0200
0300
,
0200
0300
0200
0300
,
0002
0000
0000
0003
,
0020
0000
0000
0030
,
0002
0000
0000
0003
,
0200
0000
0000
0300
,
2000
0000
0000
3000
,
0020
0000
0000
0030
,
2000
0000
0000
3000
,
0200
0000
0000
0300
,
0010
0001
0010
0100
,
0010
0010
0001
0100
,
0010
1000
0010
0100
,
0010
0010
1000
0100
,
0010
0001
0010
1000
,
0010
0010
0010
0000
,
0001
0100
1000
0100
,
0001
0001
0002
0003
,
0200
0000
0000
0300
,
1001
0100
0100
0001
,
0010
0010
0010
0001
,
1000
0100
0100
0010
,
0001
0001
0002
0003
,
1001
0100
0100
0010
,
1000
1000
1000
0001
,
0100
0010
0010
1000
,
1000
0000
0000
0000
0000
0000
0000
0000
0000
0000
0000
0000
0000
0000
0000
0000
1000
0000
0000
0000
0000
0000
0000
0000
0000
0000
0000
0000
0000
0000
0000
0000
2000
3000
0000
0000
0000
0000
0000
0000
0000
0000
0000
0000
0000
0000
0000
0000
1001
0000
0000
0000
0000
0000
0000
0000
0000
0000
0000
0000
0000
0000
0000
0000
,
0100
0010
1000
0001
,
0010
0001
0100
0010
,
1000
1000
0100
0001
,
0001
0002
0003
1001
,
0100
0001
0001
0010
,
0010
0100
0010
0001
,
0001
0001
0001
1001
,
1001
1001
0000
1001
,
0000
0000
0000
0000
;

//---------------dance-single - ----------------
#NOTES:
     dance-single:
     :
     Medium:
     10:
     0.466651,0.558315,0.241659,0.208326,0.000000,338.000000,29.000000,25.000000,0.000000,0.000000,0.000000,0.466651,0.558315,0.241659,0.208326,0.000000,338.000000,29.000000,25.000000,0.000000,0.000000,0.000000:
0000
0000
0000
0000
,
0000
0000
0000
0000
,
0000
0000
0000
0000
,
0000
0000
0000
0000
,
0000
0000
0000
0000
,
1001
0000
0000
0000
,
0000
0000
0000
0000
,
1001
0000
0000
0000
,
0000
0000
0000
0000
,
1001
0000
0010
0000
0100
0000
0001
0100
,
0001
0100
0001
0100
0001
0000
1000
0000
,
1001
0000
0010
0000
0001
0000
1000
0100
,
0010
0100
0010
0100
0010
0000
0100
0000
,
1001
0000
0001
0000
0100
0000
0010
1000
,
0010
1000
0010
1000
0010
0000
0100
0000
,
1001
0000
0100
0000
0010
0000
0100
0001
,
1000
0001
1000
0001
1000
0000
0001
0000
,
0022
0000
0000
0033
,
1001
1000
0010
0100
,
0001
0100
0000
0001
0100
0001
0100
0000
,
0010
0001
1000
0100
,
0010
0001
0000
0010
0001
0010
0001
0000
,
1000
0001
0100
0010
,
1000
0010
0000
1000
0010
1000
0010
0000
,
0100
0001
0010
0100
,
1000
0001
0000
1000
0001
2000
0000
0000
,
3020
1000
0100
0100
,
0100
0100
1000
0130
,
0012
1000
0010
0010
,
0010
0010
0010
0013
,
1100
0001
1000
1000
,
1000
0001
1000
0001
1000
0001
1000
0001
,
1000
0001
1000
0001
1000
0001
1000
0001
,
1000
0001
1000
0001
0100
0000
0010
0000
,
0202
0000
0000
0303
,
1001
0000
0010
0000
1000
1000
0100
0000
,
1000
0000
0100
0000
1000
0100
1000
0000
,
0010
0000
0001
0000
0100
0001
0001
0000
,
0100
0001
0100
0000
0100
0000
0001
0000
,
1000
0001
0100
0010
,
1000
1000
0010
0000
0100
0000
0010
0000
,
0100
0010
0100
0000
0001
0100
0100
0000
,
0100
0000
0010
0000
0100
0100
0010
0000
,
1000
0000
0100
0000
1000
0100
1000
0000
,
0010
1000
0100
1100
,
0010
0000
0001
0000
1000
0100
1000
0000
,
0010
0001
0100
1100
,
0010
0000
1000
0000
0001
0100
0001
0000
,
1000
0010
0200
0010
,
0302
0010
2003
0010
,
3200
0010
2300
0010
,
3002
0000
0000
0000
,
0020
0000
0000
0033
,
0200
0000
0000
0000
,
2000
0000
0000
3300
,
1020
0000
0000
0000
,
0200
0000
0000
0330
,
0021
0000
0000
0000
,
0200
0000
0000
0330
,
1000
0000
0100
0000
0001
0001
1000
0000
,
0010
0100
0001
1001
,
0100
0000
0010
0000
0001
1000
1000
0000
,
0010
0100
0001
1001
,
0010
0000
1000
0000
0001
0100
0100
0000
,
0010
1000
0010
0110
,
0001
1001
1001
1001
,
1000
0001
1000
0001
1000
0000
0010
0000
,
2200
0000
0000
3300
,
1001
1000
0100
0010
,
0001
0010
0001
0010
0001
0000
0100
0000
,
0010
1000
1000
0010
,
1000
0010
1000
0010
1000
0000
0100
0000
,
0001
0010
1000
0001
,
0100
0001
0100
0001
0100
0001
0100
0000
,
0101
0101
0110
0110
,
0010
0000
0000
0000
0000
0000
0000
0000
0100
0000
0000
0000
0000
0000
0000
0000
0010
0000
0000
0000
0000
0000
0000
0000
0100
0000
0000
0000
0000
0000
0000
0000
0020
0030
0000
0000
0000
0000
0000
0000
0000
0000
0000
0000
0000
0000
0000
0000
1001
0000
0000
0000
0000
0000
0000
0000
0000
0000
0000
0000
0000
0000
0000
0000
,
0001
0000
1000
0000
0010
0000
0100
0001
,
0100
0001
0100
0000
0010
0000
1000
1000
,
0001
0000
0001
0000
0001
0000
1000
0010
,
1000
0010
1000
0002
0000
0000
1003
0000
,
0010
0000
0100
0000
0001
0000
0001
1000
,
0001
1000
0001
1000
0001
1000
0001
1000
,
0001
1000
0001
1000
0001
1000
0001
1000
,
0001
1000
0001
0020
0000
0000
0130
0000
;

//---------------dance-single - ----------------
#NOTES:
     dance-single:
     :
     Hard:
     14:
     0.640455,0.767683,0.216659,0.249992,0.179161,482.000000,26.000000,30.000000,0.000000,0.000000,0.000000,0.640455,0.767683,0.216659,0.249992,0.179161,482.000000,26.000000,30.000000,0.000000,0.000000,0.000000:
0000
0000
0000
0000
,
0000
0000
0000
0000
,
0000
0000
0000
0000
,
0000
0000
0000
0000
,
0000
0000
0000
0000
,
0110
0000
0000
0000
,
0000
0000
0000
0000
,
0110
0000
0000
0000
,
0000
0000
0000
0000
,
0100
0001
2000
0000
3100
0000
1000
1000
,
0001
0001
1000
1000
0001
0100
0010
0000
,
0010
1000
0002
0000
1003
0000
0100
0100
,
1000
1000
0001
0001
1000
0100
0010
0000
,
0010
0001
2000
0000
3010
0000
0100
0100
,
0010
0010
0100
0100
0010
0100
0010
0000
,
0001
1000
0020
0000
0130
0000
0001
0001
,
1000
1000
0001
0001
0100
0001
0010
0000
,
2020
0000
0000
0000
0000
0000
0000
3030
,
1000
0001
0010
0001
0100
0001
1000
1000
,
0001
1000
1000
0001
1000
0100
0010
0000
,
0001
0100
0010
0100
0001
1000
0100
0100
,
1000
1000
0001
1000
1000
0010
0100
0000
,
0010
1000
0100
1000
0001
0100
0001
0001
,
1000
0001
0001
0010
0001
0100
0010
0000
,
0100
0010
1000
0001
0100
0001
1000
1000
,
0010
0100
0100
0010
0100
2002
0000
3003
,
0110
0000
0000
0000
,
0000
0000
0000
0000
,
0110
0000
0000
0000
,
0000
0000
0000
0000
,
1000
0100
0010
0001
1000
1000
0001
0001
,
1000
1000
0001
0001
1000
0110
0001
0001
,
1000
1000
1000
1000
0001
0001
0001
0001
,
1000
0001
1000
0001
1000
0001
1000
0001
0010
0000
0001
0000
1000
0000
0010
0000
,
2002
0000
0000
0000
0000
0000
0000
3003
,
0010
0100
0100
0010
1000
0100
0100
0010
,
0010
0001
0010
0001
0100
0010
1000
0001
,
0010
0100
0100
0010
0001
0100
0100
0010
,
0010
1000
0010
1000
0100
0010
0001
1000
,
0001
0100
0100
0010
1000
0001
0001
1000
,
1000
0000
0001
0000
1000
0000
0001
0000
1000
0001
0000
0001
1000
0000
0001
0000
,
0100
0100
0100
0100
0010
0010
0010
0010
,
0100
0010
0100
0010
0100
0010
0100
0010
1000
0000
0100
0000
0010
0000
0001
0000
,
1000
0000
0000
0001
1000
0000
0000
0001
0100
0000
0001
0000
0001
0000
0000
0000
,
0100
0000
0000
1000
0001
0000
0000
1000
0100
0000
1000
0000
1000
0000
0000
0000
,
0001
0000
0000
0010
0100
0000
0000
0010
1000
0000
0010
0000
0010
0000
0000
0000
,
0001
0000
0000
0100
0010
0000
0000
0100
0001
0000
0100
0000
0100
0000
0000
0000
,
0001
0000
0000
1000
0100
0000
0000
1000
0100
0000
0010
0000
0001
0000
0100
0000
,
0010
0000
0000
1000
0001
0000
0000
1000
0002
0000
0000
0000
1003
0000
0000
0000
,
1100
0100
0010
0000
1100
0100
0010
0000
,
1100
0100
0010
0100
1100
0100
0010
0000
,
0022
0000
0000
0030
,
0200
0000
0000
0303
,
2020
0000
0000
0030
,
0200
0000
0000
3300
,
0220
0000
0000
0330
,
0022
0000
0000
0033
,
0202
0000
0000
0303
,
0220
0000
0000
0330
,
1000
0000
1000
0000
0001
0100
0000
1000
0100
0000
1000
0000
0001
0000
1000
0000
,
0010
0010
0100
0100
0001
1000
0001
0010
,
0001
0000
0001
0000
1000
0100
0000
0001
0100
0000
0001
0000
1000
0000
0010
0000
,
0100
0100
0010
0010
1000
0100
0010
0001
,
0100
0000
0100
0000
0010
1000
0000
0001
0010
0000
0100
0000
1000
0000
0001
0000
,
0100
0100
0100
0100
0010
1001
0000
0100
,
0010
1000
0100
0100
0010
0100
0010
0100
,
1000
1000
1000
1000
0100
0011
0000
0000
,
0220
0000
0000
0000
0000
0000
0000
0330
,
1001
0000
0000
0000
0001
0100
0001
0000
0100
0000
0010
0000
0010
0000
0100
0000
,
0001
0010
1000
0010
0001
0010
1000
0010
,
0110
0000
0000
0000
1000
0100
1000
0000
0100
0000
1000
0000
0001
0000
0100
0000
,
0010
0100
0010
0100
0001
0010
0001
0000
,
1010
0000
0000
0000
0100
0001
0100
0000
0001
0000
0010
0000
0100
0000
0010
0000
,
0001
0100
1000
0100
0001
0100
1000
0100
,
0110
0000
0010
0000
1000
0010
1000
0000
0010
0000
0100
0000
0001
0000
1000
0000
,
0001
1000
0001
1000
0001
1000
0001
1000
0002
0000
0003
0000
1001
0000
0000
0000
,
0100
0010
0100
0000
1000
0000
0001
0000
0100
0000
0010
0000
0100
0000
0010
0000
,
0100
0010
1000
1000
0001
1000
0100
0100
,
1000
0100
1000
0000
0001
0000
0100
0000
0010
0000
1000
0000
0100
0000
0001
0000
,
0100
1000
0010
0200
0000
0000
0310
0010
,
0100
0001
0100
0000
0010
0000
1000
0000
0001
0000
0100
0000
0010
0000
0010
0000
,
0100
0100
0010
0010
0100
0100
0001
0001
,
0001
0000
0001
0000
0001
0000
0001
0000
0001
0000
0001
0000
0001
1000
0001
1000
,
0001
1000
0001
1000
0001
0000
0020
0000
0000
0000
0000
0000
0130
0000
0000
0000
;

//---------------dance-double - ----------------
#NOTES:
     dance-double:
     :
     Easy:
     6:
     0.291657,0.348947,0.066664,0.091664,0.000000,226.000000,8.000000,11.000000,0.000000,0.000000,0.000000,0.291657,0.348947,0.066664,0.091664,0.000000,226.000000,8.000000,11.000000,0.000000,0.000000,0.000000:
00000000
00000000
00000000
00000000
,
00000000
00000000
00000000
00000000
,
00000000
00000000
00000000
00000000
,
00000000
00000000
00000000
00000000
,
00000000
00000000
00000000
00000000
,
00000100
00000000
00000000
00000000
,
00000000
00000000
00000000
00000000
,
01000000
00000000
00000000
00000000
,
00000000
00000000
00000000
00000000
,
00001000
00000100
00000100
00000001
,
00000001
00000001
00000001
00000000
,
00000100
00000010
00000100
00001000
,
00010000
00010000
00010000
00000000
,
01000000
00100000
01000000
10000000
,
10000000
10000000
10000000
00000000
,
01000000
00010000
00001000
00000100
,
00000010
00000010
00000010
00000000
,
00001001
00000000
00000000
00000000
,
00100000
01000000
00100000
10000000
,
10000000
10000000
00100000
00000000
,
01000000
00010000
01000000
00100000
,
00010000
00010000
00010000
00000000
,
00001000
00010000
00001000
00000100
,
00000100
00000100
00000100
00000000
,
00000010
00000100
00000010
00001000
,
00000001
00000001
00000001
00000000
,
00002000
00000000
00000000
00000000
,
00000000
00000000
00000000
00003000
,
00020000
00000000
00000000
00000000
,
00000000
00000000
00000000
00030000
,
00001000
00010000
00100000
01000000
,
10000000
10000000
10000000
10000000
,
10000000
10000000
10000000
10000000
,
10000000
10000000
10000000
10000000
,
10010000
00000000
00000000
00000000
,
00000100
00000001
00001000
00001000
,
00000010
00000010
00000100
00000100
,
00000001
00000010
00000100
00000100
,
00001000
00001000
00000100
00000100
,
00010000
00001000
01000000
01000000
,
00010000
00010000
10000000
10000000
,
00100000
00100000
00100000
00100000
,
00100000
00100000
00100000
00000000
,
10000000
00000000
00010000
00000000
,
10000000
00010000
00100000
00000000
,
00001000
00000000
00010000
00000000
,
00001000
00010000
00000010
00000000
,
00001000
00000000
00000001
00000000
,
00001000
00000001
00000010
00000000
,
00000010
00000000
00000010
00000000
,
00000010
00000000
00000010
00000000
,
00000200
00000000
00000000
00000300
,
00020000
00000000
00000000
00030000
,
00002000
00000000
00000000
00003000
,
02000000
00000000
00000000
03000000
,
00200000
00000000
00000000
00300000
,
00020000
00000000
00000000
00030000
,
00000200
00000000
00000000
00000300
,
00002000
00000000
00000000
00003000
,
00000010
00000100
00000010
00001000
,
00000100
00010000
00001000
00000000
,
00010000
01000000
10000000
01000000
,
00100000
01000000
00010000
00000000
,
00001000
00100000
00001000
00010000
,
00001000
00000100
00000010
00000000
,
00000001
00000100
00001000
00000100
,
00000001
00001000
00000001
00000000
,
00001001
00000000
00000000
00000000
,
10010000
01000000
01000000
00100000
,
00010000
00010000
00010000
00001000
,
00010000
00000100
00000100
00000010
,
00000001
00000001
00000001
00000000
,
00001001
00000100
00000100
00000010
,
00001000
00001000
00001000
00010000
,
01000000
00100000
00100000
00010000
,
00010000
00000000
00000000
00000000
00000000
00000000
00000000
00000000
00000000
00000000
00000000
00000000
00000000
00000000
00000000
00000000
00010000
00000000
00000000
00000000
00000000
00000000
00000000
00000000
00000000
00000000
00000000
00000000
00000000
00000000
00000000
00000000
20000000
30000000
00000000
00000000
00000000
00000000
00000000
00000000
00000000
00000000
00000000
00000000
00000000
00000000
00000000
00000000
10010000
00000000
00000000
00000000
00000000
00000000
00000000
00000000
00000000
00000000
00000000
00000000
00000000
00000000
00000000
00000000
,
01000000
00100000
10000000
01000000
,
00100000
00010000
01000000
00001000
,
00010000
00001000
00000100
00000010
,
00000010
00000010
00000000
00001001
,
00000100
00000010
00001000
00000001
,
00000100
00001000
00010000
00001000
,
00001000
00001000
00001000
00001000
,
00001000
00001000
00000000
00011000
,
00000000
00000000
00000000
00000000
;

//---------------dance-double - ----------------
#NOTES:
     dance-double:
     :
     Medium:
     10:
     0.433319,0.488525,0.166661,0.199993,0.000000,320.000000,20.000000,24.000000,0.000000,0.000000,0.000000,0.433319,0.488525,0.166661,0.199993,0.000000,320.000000,20.000000,24.000000,0.000000,0.000000,0.000000:
00000000
00000000
00000000
00000000
,
00000000
00000000
00000000
00000000
,
00000000
00000000
00000000
00000000
,
00000000
00000000
00000000
00000000
,
00000000
00000000
00000000
00000000
,
01100000
00000000
00000000
00000000
,
00000000
00000000
00000000
00000000
,
00000110
00000000
00000000
00000000
,
00000000
00000000
00000000
00000000
,
01100000
00000000
10000000
00000000
01000000
00000000
00100000
01000000
,
00100000
01000000
00100000
01000000
00100000
00000000
00000000
00000000
,
01000000
00000000
00010000
00000000
00001000
00000000
00100000
00001000
,
00010000
00001000
00010000
00001000
00010000
00000000
00001000
00000000
,
00000100
00000000
00000001
00000000
00001000
00000000
00000010
00000100
,
00000010
00000100
00000010
00000100
00000010
00000000
00000000
00000000
,
00000100
00000000
00001000
00000000
00010000
00000000
00000100
00010000
,
00001000
00010000
00001000
00010000
00001000
00000000
00010000
00000000
,
00022000
00000000
00000000
00033000
,
00100000
10000000
00100000
01000000
,
00010000
01000000
00000000
00010000
01000000
00010000
01000000
00000000
,
00100000
00010000
01000000
00001000
,
00100000
00010000
00000000
00100000
00001000
00100000
00001000
00000000
,
00010000
00000100
00001000
00000010
,
00000100
00000001
00000000
00001000
00000001
00001000
00000001
00000000
,
00000100
00000010
00001000
00000010
,
00010000
00000010
00000000
00010000
00001000
00200000
00000000
00000000
,
01300000
00000000
00000000
00000000
,
00000000
00000000
00000000
00000000
,
00000100
00000000
00000000
00000000
,
00000000
00000000
00000000
00000000
,
01000000
00100000
10000000
00010000
,
10000000
00010000
10000000
00010000
10000000
00010000
00000000
00100000
,
00001000
00010000
00001000
00010000
00001000
00010000
00000000
00000010
,
00001000
00000001
00001000
00000001
00001000
00000001
00000100
00000000
,
00000202
00000000
00000000
00000303
,
00000010
00000000
00001000
00000000
00010000
00010000
00100000
00000000
,
01000000
00100000
11000000
00100000
,
01000000
00000000
00010000
00000000
00001000
00001000
00000100
00000000
,
00000010
00000100
00000101
00000011
,
00000100
00000000
00001000
00000000
00010000
00010000
00100000
00000000
,
01000000
00010000
00100000
00000000
01000000
00000000
00110000
00000000
,
00001000
00010000
00000100
00000000
00001000
00000010
00010000
00000000
,
00001000
00100000
00010000
00000000
01000000
00010000
00100000
00000000
,
01000000
00000000
10000000
00000000
10000000
01000000
10000000
00000000
,
00100000
00010000
00001000
00000100
,
00000010
00000000
00000001
00000000
00000001
00000100
00000001
00000000
,
00000010
00001000
00010000
01000000
,
10000000
00000000
00010000
00000000
10000000
01000000
10000000
00000000
,
00100000
00010000
00002000
00003010
,
00020000
00130000
00002000
00003100
,
00020000
01030000
00020000
00031000
,
00022000
00000000
00000000
00030000
,
00000020
00000000
00000000
00003000
,
00000002
00000000
00000000
00000030
,
00000200
00000000
00000000
00000003
,
00002000
00000000
00000000
00000300
,
00020000
00000000
00000000
00003000
,
02000000
00000000
00000000
00030000
,
20000000
00000000
00000000
33000000
,
10000000
00000000
00100000
00000000
00010000
00001000
00010000
00000000
,
00001000
00000010
00000001
00001001
,
00000010
00000000
00000100
00000000
00000001
00000010
00001000
00000000
,
00010000
00100000
01000000
10010000
,
01000000
00000000
10000000
00000000
01000000
00010000
00001000
00000000
,
00000100
00000001
00001000
00001001
,
00000110
00000110
00000110
00000110
,
00000010
00000100
00001000
00010000
00100000
00000000
01000000
00000000
,
22000000
00000000
00000000
33000000
,
10010000
00100000
01000000
10000000
,
00010000
01000000
00010000
01000000
00010000
00000000
00100000
00000000
,
00010000
00001000
00000010
00001000
,
00000010
00000100
00000010
00000100
00000010
00000000
00001000
00000000
,
00000001
00000010
00000100
00001000
,
00000010
00010000
00000010
00010000
00000010
00010000
00000010
00000000
,
00001000
00010000
00100000
10000000
,
00010000
00000000
00000000
00000000
00000000
00000000
00000000
00000000
01000000
00000000
00000000
00000000
00000000
00000000
00000000
00000000
00010000
00000000
00000000
00000000
00000000
00000000
00000000
00000000
00001000
00000000
00000000
00000000
00000000
00000000
00000000
00000000
00020000
00030000
00000000
00000000
00000000
00000000
00000000
00000000
00000000
00000000
00000000
00000000
00000000
00000000
00000000
00000000
00011000
00000000
00000000
00000000
00000000
00000000
00000000
00000000
00000000
00000000
00000000
00000000
00000000
00000000
00000000
00000000
,
00000100
00000000
00001000
00000000
00000010
00000000
00000100
00000001
,
00000100
00000001
00000100
00000000
00000010
00000000
00001000
00000100
,
00010000
00000000
00001000
00000000
00100000
00000000
00010000
01000000
,
00010000
01000000
00010000
20000000
00000000
00000000
31000000
00000000
,
00100000
00000000
00010000
00000000
10000000
00000000
00010000
10000000
,
00010000
10000000
00010000
10000000
00100000
00000000
00010000
00001000
,
00010000
00001000
00010000
00001000
00010000
00001000
00010000
00001000
,
00010000
00001000
00010000
00000020
00000000
00000000
00000130
00000000
,
00000000
00000000
00000000
00000000
;

//---------------dance-double - ----------------
#NOTES:
     dance-double:
     :
     Hard:
     14:
     0.613075,0.697893,0.208326,0.233326,0.145828,462.000000,25.000000,28.000000,0.000000,0.000000,0.000000,0.613075,0.697893,0.208326,0.233326,0.145828,462.000000,25.000000,28.000000,0.000000,0.000000,0.000000:
00000000
00000000
00000000
00000000
,
00000000
00000000
00000000
00000000
,
00000000
00000000
00000000
00000000
,
00000000
00000000
00000000
00000000
,
00000000
00000000
00000000
00000000
,
00000110
00000000
00000000
00000000
,
00000000
00000000
00000000
00000000
,
01100000
00000000
00000000
00000000
,
00000000
00000000
00000000
00000000
,
00000010
00000001
00002000
00000000
00003001
00000000
00000100
00000100
,
00001000
00001000
00010000
00010000
00100000
01000000
00100000
00000000
,
00100000
10000000
00020000
00000000
10030000
00000000
01000000
01000000
,
00010000
00010000
00001000
00001000
00010000
00000100
00000010
00000000
,
00000010
00000001
00002000
00000000
00003001
00000000
00000100
00000100
,
00001000
00001000
00010000
00010000
01000000
00100000
01000000
00000000
,
00100000
00010000
20000000
00000000
31000000
00000000
00010000
00010000
,
00001000
00001000
00000010
00000010
00000100
00000010
00000001
00000000
,
00000011
00000000
00000000
00000000
,
10000000
01000000
00100000
00010000
01000000
00100000
10000000
10000000
,
01000000
01000000
00010000
00010000
00001000
00010000
00001000
00000000
,
00010000
00001000
00000100
00000010
00000100
00000001
00001000
00001000
,
00000100
00000100
00000001
00000001
00000100
00000010
00000001
00000000
,
00000100
00000001
00001000
00000010
00000100
00000001
00000010
00000010
,
00001000
00001000
00010000
00010000
00001000
00010000
00100000
00000000
,
10000000
00010000
01000000
00100000
10000000
01000000
00100000
00100000
,
00010000
00010000
00001000
00001000
00000100
00000020
00000000
00000030
,
00000110
00000000
00000000
00000000
,
00000000
00000000
00000000
00000000
,
01100000
00000000
00000000
00000000
,
00000000
00000000
00000000
00000000
,
00000001
00000010
00000100
00001000
00000001
00000001
00000100
00000100
,
00001000
00001000
00010000
00010000
01000000
01000000
10000000
10000000
,
00100000
00100000
00100000
00100000
00010000
00010000
00010000
00010000
,
00001000
00010000
00001000
00010000
00001000
00010000
00001000
00010000
00000100
00000000
00001000
00000000
00000001
00000000
00000010
00000000
,
00000011
00000000
00000000
00000000
,
11000000
01000000
10000000
00010000
01000000
00100000
01000000
00100000
,
01000000
00010000
00100000
00010000
01000000
00100000
10000000
01000000
,
00100000
01000000
00100000
00001000
00010000
00001000
00010000
00001000
,
00010000
00000100
00001000
00000010
00000100
00000001
00000010
00000100
,
00001000
00000001
00000100
00001000
00010000
00001000
00010000
00001000
,
00010000
00000000
00001000
00000000
00010000
00000000
00001000
00000000
01000000
00010000
00000000
00010000
00100000
00000000
00010000
00000000
,
01000000
01000000
01000000
01000000
00100000
00100000
00100000
00100000
,
10000000
00010000
10000000
00010000
10000000
00010000
10000000
00010000
10000000
00000000
00100000
00000000
00010000
00000000
00001000
00000000
,
00010000
00000000
00000000
00000000
00001000
00000000
00000000
00001000
00000010
00000000
00000001
00000000
00000010
00000000
00000000
00000000
,
00000001
00000000
00000000
00000000
00001000
00000000
00000000
00000010
00000100
00000000
00000001
00000000
00000100
00000000
00001000
00000000
,
00010000
00000000
00000000
00000000
00001000
00000000
00000000
00100000
01000000
00000000
10000000
00000000
00010000
00000000
00000000
00000000
,
01000000
00000000
00000000
00000000
00010000
00000000
00000000
00100000
00001000
00000000
00010000
00000000
00001000
00000000
00000000
00000000
,
00000100
00000000
00000000
00000000
00000001
00000000
00000000
00001000
00000100
00000000
00000010
00000000
00001000
00000000
00000010
00000000
,
00000001
00000100
00000220
00000330
,
00022000
00033000
02200000
03300000
,
01100000
00010000
00001000
00000000
00000110
00001000
00010000
00000000
,
00220000
00000000
00000000
00030000
,
20000000
00000000
00000000
30300000
,
22000000
00000000
00000000
30000000
,
00020000
00000000
00000000
03030000
,
00202000
00000000
00000000
00303000
,
00020020
00000000
00000000
00030030
,
00002200
00000000
00000000
00003300
,
00000022
00000000
00000000
00000033
,
00000001
00000000
00000100
00000000
00000001
00000100
00000000
00000001
00000100
00000000
00000010
00000000
00000100
00000000
00001000
00000000
,
00010000
00010000
00001000
00001000
00010000
00001000
00100000
00000000
,
00010000
00000000
00100000
00000000
00010000
00100000
00000000
00010000
00100000
00000000
01000000
00000000
00100000
00000000
00010000
00000000
,
10000000
10000000
00010000
00010000
01000000
00100000
10000000
00000000
,
01000000
00000000
00100000
00000000
01000000
00100000
00000000
01000000
00100000
00000000
01000000
00000000
00010000
00000000
00001000
00000000
,
00010000
00010000
00001000
00001000
00010000
00011000
00000000
00000000
,
00000100
00001000
00000010
00000010
00000100
00000010
00000100
00000010
,
00001000
00001000
00000001
00000001
00001000
00001001
00000000
00000000
,
00000011
00000000
00000000
00000000
,
11000000
00000000
00000000
00000000
10000000
00010000
10000000
00000000
00100000
00000000
01000000
00000000
01000000
00000000
00100000
00000000
,
00010000
00100000
00001000
00100000
00010000
00100000
01000000
00000000
,
00010000
00000000
00000000
00000000
00100000
00010000
00100000
00000000
00001000
00000000
00010000
00000000
00100000
00000000
00010000
00000000
,
00001000
00010000
00001000
00010000
00000100
00001000
00000010
00000000
,
00001010
00000000
00000000
00000000
00000100
00000001
00000100
00000000
00000010
00000000
00000100
00000000
00001000
00000000
00000100
00000000
,
00000010
00001000
00000010
00010000
00000010
00001000
00000100
00000010
,
00000001
00000001
00000100
00000100
00001000
00001000
00010000
00010000
,
00001000
00010000
00001000
00010000
00001000
00010000
00001000
00010000
00002000
00000000
00003000
00000000
00011000
00000000
00000000
00000000
,
01000000
00010000
01000000
00000000
10000000
00000000
01000000
00000000
00100000
00000000
01000000
00000000
00010000
00000000
01000000
00000000
,
00001000
01000000
00010000
00100000
00010000
00000000
00101000
00000000
,
00010000
00001000
00010000
00000000
00100000
00000000
00010000
00000000
00001000
00000000
00000100
00000000
00000010
00000000
00000100
00000000
,
00000010
00000100
00000001
00002000
00000000
00000000
00003001
00000000
,
00001000
00000010
00001000
00000000
00000001
00000000
00000100
00000000
00000001
00000000
00000010
00000000
00000100
00000000
00001000
00000000
,
00000100
00010000
00000100
00001000
00000100
00010000
00001000
00001000
,
00001000
00000000
00001000
00000000
00010000
00000000
00010000
00000000
00010000
00000000
00010000
00000000
00001000
01000000
00001000
01000000
,
00001000
01000000
00001000
01000000
00001000
00000000
00200000
00000000
00000000
00000000
00000000
00000000
10300000
00000000
00000000
00000000
,
00000000
00000000
00000000
00000000
;

//---------------dance-single - ----------------
#NOTES:
     dance-single:
     :
     Challenge:
     17:
     0.907113,1.000000,0.508316,0.291657,0.749975,666.000000,61.000000,35.000000,0.000000,0.000000,0.000000,0.907113,1.000000,0.508316,0.291657,0.749975,666.000000,61.000000,35.000000,0.000000,0.000000,0.000000:
// measure 0
0000
0000
0000
0000
,  // measure 1
0000
0000
0000
0000
,  // measure 2
0000
0000
0000
0000
,  // measure 3
0000
0000
0000
0000
,  // measure 4
0000
0000
0000
0000
,  // measure 5
2001
0000
0000
0000
,  // measure 6
0000
0000
0000
0000
,  // measure 7
3002
0000
0000
0000
,  // measure 8
0000
0000
0000
0000
,  // measure 9
0103
0000
0010
0000
1000
0001
1000
0010
1000
0000
0000
0000
0001
1000
0001
1000
,  // measure 10
0010
0100
0010
0100
0001
0010
0100
0000
1000
0000
0010
0000
0200
0000
0000
0000
,  // measure 11
0310
0000
1000
0000
0010
0100
0001
0100
0010
0000
0000
0000
1000
0001
1000
0000
,  // measure 12
0001
0100
0001
1000
0001
0010
0100
1000
0010
0000
0010
0000
1010
0000
0000
0000
,  // measure 13
1001
0000
0001
0000
0100
0010
0100
0001
1000
0000
0100
0000
0010
1000
0001
1000
,  // measure 14
0010
0100
0001
1000
0001
1000
0001
1000
0001
0000
0100
0000
0110
0000
0000
0000
,  // measure 15
1001
0000
0001
0000
0100
0010
0100
0001
0100
0000
0000
0000
0001
1000
0010
1000
,  // measure 16
0001
0010
0100
1000
0001
0010
0100
1000
0002
0000
0203
0000
0320
0000
0000
0000
,  // measure 17
2030
0001
0001
0001
,  // measure 18
3001
0000
0100
0000
0010
1000
0010
0100
0010
0000
1000
0000
0100
0000
0100
0000
,  // measure 19
0010
0000
0010
0000
0001
0000
0001
0000
1000
0010
1000
0000
1010
0000
0000
0000
,  // measure 20
0101
0000
0001
0000
0100
0010
0100
0010
1000
0000
0001
0000
0001
0000
0100
0000
,  // measure 21
0100
0010
0010
1000
0100
0010
0011
0000
,  // measure 22
1000
0000
0010
0000
0100
0010
1000
0010
0100
0000
0000
0000
0001
1000
0001
1000
,  // measure 23
0001
0010
0100
1000
0001
0100
0010
0100
0001
0000
1000
0000
1010
0000
0000
0000
,  // measure 24
0110
0000
0100
0000
0001
1000
0010
1000
0001
0000
1000
0000
1000
0000
0010
0000
,  // measure 25
0010
1000
0100
1000
0001
0100
0001
1000
0001
0000
0220
0000
0000
0000
0330
0000
,  // measure 26
1001
0000
1000
0000
0010
0000
0100
0001
0000
0100
0001
0000
1000
0000
0100
0000
,  // measure 27
1000
0000
0001
0100
0001
0000
1000
0000
0010
0000
0100
0000
0010
0000
1000
0000
,  // measure 28
0001
0100
0001
0000
0010
0000
0100
0000
0010
0000
0001
0000
1000
0000
0100
0000
,  // measure 29
0001
0000
0100
1000
0010
0000
0100
0000
0001
0000
1000
0000
1000
0000
1010
0000
,  // measure 30
0000
0000
0100
0001
0100
0000
0001
0000
1000
0010
1000
0000
0001
0100
0001
0000
,  // measure 31
1000
0100
0010
0000
0100
1000
0001
0000
0100
0000
0101
0000
0001
0000
1000
0000
,  // measure 32
1001
0001
0100
0010
0100
0001
0010
0100
,  // measure 33
1000
0001
1000
0001
1000
0001
1000
0000
0010
0000
0100
0000
0010
0000
1000
0000
,  // measure 34
1002
1000
1000
1000
1000
1000
1000
1000
,  // measure 35
1003
0010
0100
0010
1000
0000
0000
0000
0001
0100
0001
1000
0001
0010
0001
0100
,  // measure 36
0001
1000
0100
0010
0001
1000
0001
0100
0001
1000
0001
0000
1000
0000
1010
0000
,  // measure 37
0001
0100
0010
0100
0001
0000
0010
0000
1000
0010
1000
0001
0100
0001
0010
0100
,  // measure 38
1000
0100
0001
0100
1000
0001
0010
0100
1000
0000
1001
0000
0001
0000
0101
0000
,  // measure 39
1000
0100
0010
0001
1000
0000
0001
0100
0001
0000
1000
0100
1000
0001
0010
0001
,  // measure 40
0010
0100
1000
0100
1000
0001
1000
0001
1000
0100
0010
0000
0001
1000
0100
0010
,  // measure 41
0001
1000
0001
1000
0001
0010
0001
0010
0001
0100
0010
0100
0010
1000
0010
1000
,  // measure 42
0010
0100
0001
1000
0100
0010
0001
0000
1000
0000
1001
0000
0001
0000
0101
0000
,  // measure 43
2001
0000
0000
0001
3000
0000
0000
0001
0100
0000
0001
0000
1001
0000
0000
0000
,  // measure 44
0100
0000
0000
1000
0001
0000
0000
1000
0100
0000
1000
0000
1001
0000
0000
0000
,  // measure 45
0001
0000
0000
0010
0100
0000
0000
0010
1000
0000
0010
0000
0110
0000
0000
0000
,  // measure 46
0001
0000
0000
0100
0010
0000
0000
0100
0001
0000
0100
0000
0101
0000
0000
0000
,  // measure 47
0001
0000
0000
1000
0100
0000
0000
1000
0100
0000
0010
0000
0001
0000
0100
0000
,  // measure 48
0110
0000
0000
1000
0001
0000
0000
1000
0002
0000
0000
0000
1003
0000
0000
0000
,  // measure 49
1100
0100
0110
0000
1100
0100
0110
0000
,  // measure 50
1100
0100
0010
0100
1100
0100
0010
0000
,  // measure 51
0022
0000
0000
0030
,  // measure 52
0200
0000
0000
0303
,  // measure 53
2020
0000
0000
0030
,  // measure 54
0200
0000
0000
3300
,  // measure 55
0220
0000
0000
0330
,  // measure 56
0022
0000
0000
0033
,  // measure 57
0202
0000
0000
0303
,  // measure 58
0220
0000
0000
0330
,  // measure 59
1001
0000
0001
0000
1000
0010
0000
1000
0010
0000
0100
0000
0001
0000
1000
0000
,  // measure 60
0001
0010
0100
1000
0001
1000
0010
0000
0100
0000
0010
0000
1000
0000
1001
0000
,  // measure 61
0001
0100
0001
0000
1000
0000
0010
0000
1000
0000
0100
0000
0010
0000
0001
0000
,  // measure 62
0100
0010
0100
0000
0001
1000
0001
0000
0100
0000
0010
0000
0100
0000
0001
0000
,  // measure 63
0011
0000
0100
0000
1000
0001
0000
1000
0001
0000
0100
0000
0010
0000
1000
0100
,  // measure 64
0010
0001
1000
0100
0010
0001
1000
0001
1000
0000
1001
0000
0000
0000
0001
0000
,  // measure 65
0101
0000
0100
0000
0010
0000
1000
0100
0010
0100
1000
0000
0001
0000
0010
0000
,  // measure 66
0100
1000
0001
1000
0001
1000
0001
1000
0001
1000
0001
1000
0001
1000
0001
0000
,  // measure 67
2001
0001
0001
0001
0001
0001
0001
0001
,  // measure 68
3001
0000
0000
0000
1000
0010
1000
0000
0010
0000
0100
0000
0001
1000
0001
0000
,  // measure 69
0100
0000
0010
0000
1000
0000
0001
0100
0001
0000
1000
0000
1001
0000
0000
0000
,  // measure 70
0001
0100
0001
0000
1000
0010
1000
0000
0001
0100
0001
0000
0100
0000
0100
0000
,  // measure 71
0001
0000
0001
0000
1000
0000
1000
0000
0010
0000
0100
0001
0200
0000
0000
0000
,  // measure 72
0310
0000
0000
0000
1000
0001
1000
0000
0010
0000
0100
0000
0010
0000
1010
0000
,  // measure 73
0000
0000
1001
0000
0000
0000
0100
0001
0100
0000
0110
0000
0001
0000
0001
0000
,  // measure 74
1000
0010
1000
0010
0100
0010
0100
0010
1000
0100
0010
0001
1000
0100
1000
0001
,  // measure 75
0010
0001
0010
0100
1000
0001
1000
0000
2002
0000
0000
3003
1001
0000
0000
0000
,  // measure 76
0100
0001
0100
0000
0010
0000
1000
0000
0100
0010
0001
0000
0001
0000
1000
0010
,  // measure 77
1000
0000
0010
0000
0100
0000
0001
1000
0002
0000
0000
0000
0103
0000
0010
1000
,  // measure 78
0100
0010
0001
0100
0001
1000
0001
0000
0100
0000
0100
0000
0010
0000
0010
0000
,  // measure 79
1000
1000
0001
0201
0000
0000
0310
1000
,  // measure 80
0100
0010
0001
0000
1000
0000
0010
0000
0010
1000
0010
0000
0100
0000
0001
0010
,  // measure 81
0100
1000
0001
0010
0001
0000
2002
0000
3003
0000
1000
0000
1001
0000
1001
0000
,  // measure 82
1001
0000
1001
0000
1001
0000
1001
0000
1001
0000
1001
0000
1000
0001
1000
0001
,  // measure 83
1000
0001
1000
0001
1000
0000
0002
0000
0000
0000
0000
0000
0103
0000
0000
0000
;
