#TITLE:HIGHER;
#SUBTITLE:;
#ARTIST:NM feat. SUNNY;
#TITLETRANSLIT:;
#SUBTITLETRANSLIT:;
#ARTISTTRANSLIT:;
#GENRE:;
#CREDIT:;
#BANNER:HIGHER.png;
#BACKGROUND:HIGHER-bg.png;
#LYRICSPATH:;
#CDTITLE:;
#MUSIC:HIGHER.ogg;
#OFFSET:0.000000;
#SAMPLESTART:38.841999;
#SAMPLELENGTH:15.000000;
#SELECTABLE:YES;
#DISPLAYBPM:132.000000;
#BPMS:0.000000=132.190994
,12.000000=132.074005
;
#STOPS:
;
#BGCHANGES:;
#KEYSOUNDS:;
#ATTACKS:;

//---------------dance-single - ----------------
#NOTES:
     dance-single:
     :
     Beginner:
     3:
     0.147560,0.185829,0.009653,0.000000,0.000000,107.000000,106.000000,1.000000,0.000000,0.000000,0.000000,0.147560,0.185829,0.009653,0.000000,0.000000,107.000000,106.000000,1.000000,0.000000,0.000000,0.000000:
0000
0000
0000
0000
,
0000
0000
0000
0000
,
0000
0000
0000
0000
,
0000
0000
0000
0000
,
0000
0000
0000
0000
,
0001
0000
0000
0000
,
0001
0000
0000
0000
,
0001
0000
1000
0000
,
1000
0000
0001
0000
,
1000
0000
0000
0000
,
1000
0000
0000
0000
,
0001
0000
0100
0000
,
1000
1000
0000
0000
,
0100
0100
0100
0000
,
0100
0000
0100
0000
,
1000
0000
0001
0000
,
1000
1000
1000
0000
,
1000
0000
0001
0000
,
0001
0000
0001
0000
,
0010
0000
0010
0000
,
0001
0001
0000
0000
,
0100
0100
0100
0000
,
0001
0000
0001
0000
,
0001
0000
0001
0000
,
1000
0000
1000
0000
,
1000
0000
1000
0000
,
0001
0000
0001
0000
,
1000
0000
1000
0000
,
0010
0010
0010
0000
,
0100
0100
0100
0000
,
0100
0000
0000
0000
,
0001
0000
0000
0000
,
0010
0000
0000
0000
,
0100
0000
0000
0000
,
0001
0001
0001
0000
,
1000
1000
1000
0000
,
1000
0000
0001
0000
,
0100
0000
0010
0000
,
0001
0001
0001
0000
,
1000
1000
1000
0000
,
1000
0000
0001
0000
,
0010
0000
0100
0000
,
0001
0000
0001
0000
,
1000
0000
1000
0000
,
0010
0010
0010
0000
,
0100
0100
0000
0000
,
0001
0000
1000
0000
,
0001
0000
1000
0000
,
0010
0010
0010
0000
,
0100
0100
0100
0000
,
1000
0000
0001
0000
,
1000
0000
0001
0000
,
1000
0000
0100
0000
,
0001
0001
0000
0000
,
0100
0100
0100
0000
,
1001
0000
0000
0000
,
0000
0000
0000
0000
;

//---------------dance-single - ----------------
#NOTES:
     dance-single:
     :
     Easy:
     4:
     0.194448,0.265470,0.009653,0.000000,0.000000,141.000000,140.000000,1.000000,0.000000,0.000000,0.000000,0.194448,0.265470,0.009653,0.000000,0.000000,141.000000,140.000000,1.000000,0.000000,0.000000,0.000000:
0000
0000
0000
0000
,
0000
0000
0000
0000
,
0000
0000
0000
0000
,
0000
0000
0000
0000
,
0000
0000
0000
0000
,
0001
0000
0000
0000
,
0001
0000
0000
0000
,
0001
0001
1000
0000
,
1000
1000
0001
0000
,
1000
0001
0000
0000
,
1000
0001
0000
0000
,
0001
0001
0000
0100
,
1000
1000
0000
0010
,
0100
0100
0100
0000
,
0100
0010
0100
0000
,
1000
0000
0001
0000
,
1000
1000
1000
0001
,
1000
0000
0001
0000
,
0001
1000
0001
0000
,
0010
0000
0010
0000
,
0001
0001
1000
0000
,
0100
0100
0100
0100
,
0001
0000
0001
0000
,
0001
1000
0001
0000
,
1000
0000
1000
0000
,
1000
0001
1000
0000
,
0001
0000
0001
0000
,
1000
0001
1000
0000
,
0010
0010
0010
0001
,
0100
0100
0100
0010
,
0100
0000
0000
0000
,
0001
0000
0000
0000
,
0010
0000
0000
0000
,
0100
0000
0000
0000
,
0001
0001
0001
0100
,
1000
1000
1000
0000
,
1000
0001
1000
0000
,
0100
0100
0010
0100
,
0001
0001
0001
0010
,
1000
1000
1000
0001
,
1000
0000
0001
0000
,
0010
0010
0100
0000
,
0001
0000
0001
0000
,
1000
0000
1000
0000
,
0010
0010
0010
1000
,
0100
0100
0010
0100
,
0001
0000
1000
0000
,
0001
1000
0001
0000
,
0010
0010
0010
0001
,
0100
0100
0010
0100
,
1000
0000
0001
0000
,
1000
0000
0001
0000
,
1000
1000
0100
0001
,
0001
0001
0010
1000
,
0100
0100
0100
0100
,
1001
0000
0000
0000
,
0000
0000
0000
0000
;

//---------------dance-single - ----------------
#NOTES:
     dance-single:
     :
     Medium:
     7:
     0.321322,0.345111,0.183415,0.000000,0.000000,233.000000,214.000000,19.000000,0.000000,0.000000,0.000000,0.321322,0.345111,0.183415,0.000000,0.000000,233.000000,214.000000,19.000000,0.000000,0.000000,0.000000:
0000
0000
0000
0000
,
0000
0000
0000
0000
,
0000
0000
0000
0000
,
0000
0000
0000
0000
,
0000
0000
0000
0000
,
0000
0010
0000
0010
,
0000
0100
0000
0100
,
0010
0000
0010
0000
0010
1000
0100
0000
,
0100
0000
0100
0000
0100
1000
0010
0000
,
0010
0000
0010
0000
0010
0100
0001
0000
,
0001
0001
0010
0010
,
0101
0101
1000
1000
,
1010
1010
0001
0001
,
1000
0000
1000
0000
0001
0100
1000
0000
,
1000
1000
0001
1000
,
0010
1000
0100
0000
0010
1000
0100
0000
,
0001
0001
1000
1100
,
0001
0001
1000
0001
,
0010
0100
0010
0100
,
0001
0001
1000
0001
,
0010
0010
0100
0100
,
0001
0011
0100
1100
,
0001
0000
1000
0000
0001
1000
0100
0000
,
0100
0000
0100
0000
0100
1000
0010
0000
,
0010
1000
0100
0000
0010
1000
0100
0000
,
0001
0001
1000
0001
,
0001
0010
0100
1000
0000
0000
0001
0000
,
0001
0010
0100
1000
0000
0000
0010
0000
,
0010
1000
0001
0100
,
1000
0100
0010
0001
,
1001
0001
0000
1001
,
0000
0010
0000
1001
,
0000
0010
0000
0110
,
0000
0100
0000
1001
,
0001
0001
0001
0001
,
1000
0000
1000
0000
1000
0010
1000
0000
,
0001
0001
0100
0100
,
1000
1000
0011
0011
,
0001
0000
0001
0000
0001
1000
0100
0000
,
0100
0000
0100
0000
0100
1000
0010
0000
,
0010
1000
0100
0000
0010
1000
0100
0000
,
0001
0001
1000
0001
,
0001
0010
0100
1000
0000
0000
0001
0000
,
0001
0010
0100
1000
0000
0000
0010
0000
,
0010
0010
0100
0100
,
0010
1010
0101
0001
,
0010
0000
0010
0000
0010
1000
0001
0000
,
0001
0000
0001
0000
0001
0100
1000
0000
,
1000
0100
0001
0000
1000
0100
0001
0000
,
0001
0001
0100
0010
,
1000
0100
0010
0001
0000
0000
0110
0000
,
0001
0010
0100
1000
0000
0000
0010
0000
,
0010
0100
0100
0010
,
0100
0010
1000
0001
,
0000
0110
0000
0000
0000
0010
1000
0000
,
1001
0000
0000
0000
;

//---------------dance-single - ----------------
#NOTES:
     dance-single:
     :
     Hard:
     9:
     0.382000,0.424751,0.299257,0.000000,0.000000,277.000000,246.000000,31.000000,0.000000,0.000000,0.000000,0.382000,0.424751,0.299257,0.000000,0.000000,277.000000,246.000000,31.000000,0.000000,0.000000,0.000000:
// measure 0
0000
0000
0000
0000
,  // measure 1
0000
0000
0000
0000
,  // measure 2
0000
0000
0000
0000
,  // measure 3
0000
0000
0000
0000
,  // measure 4
0000
0000
0000
0000
,  // measure 5
0101
0000
0000
0000
0000
0100
1000
0010
,  // measure 6
0000
1000
0000
1000
0000
0100
0001
0010
,  // measure 7
0000
0000
0011
0000
0000
0001
0001
1000
,  // measure 8
0000
0100
0000
0010
0000
1000
1000
0010
,  // measure 9
0000
0000
1100
0000
0010
0001
0010
0001
,  // measure 10
0000
0000
0110
0000
1000
0100
1000
0100
,  // measure 11
0000
0010
0010
0000
0010
0000
0010
1000
,  // measure 12
0000
1000
0100
0000
0000
0000
0110
0000
,  // measure 13
0010
0000
0001
0100
0000
0001
1000
0100
,  // measure 14
1000
0010
0000
0100
0000
0000
0000
0000
,  // measure 15
0010
1000
0100
0000
0010
0001
0100
0000
,  // measure 16
0001
1000
0010
0000
1000
0001
0100
0010
,  // measure 17
1000
0000
1000
0010
0100
0000
1000
0000
,  // measure 18
1000
0100
1000
0000
0001
0100
0001
0000
,  // measure 19
0010
1000
0100
0000
0010
0001
0100
0000
,  // measure 20
0110
0000
0001
0000
0110
0000
0010
1000
,  // measure 21
0010
1000
0100
1000
0001
1000
0001
0001
,  // measure 22
0100
0000
0100
0001
0000
0010
1000
0000
,  // measure 23
1000
0000
0100
0010
0000
0000
0110
0000
,  // measure 24
0010
0001
0100
0000
0010
1000
0100
0000
,  // measure 25
0001
1000
0100
0010
0001
0000
0001
0000
,  // measure 26
0001
0100
0001
0010
0000
0000
0100
0000
,  // measure 27
1000
0100
1000
0010
0000
0000
0001
0000
,  // measure 28
0101
1100
1010
0001
,  // measure 29
1000
0000
1000
0000
0100
0001
0010
0000
,  // measure 30
1001
0000
0001
0000
0000
0000
0001
0100
,  // measure 31
0000
0000
1010
0000
0000
0100
0001
0010
,  // measure 32
0000
0000
1100
0000
0000
0001
0010
0100
,  // measure 33
0000
0000
0101
0000
0000
1000
0001
1000
,  // measure 34
0000
0000
0001
0000
0001
0001
0001
0000
,  // measure 35
1000
1000
1000
0000
1000
0100
1000
0000
,  // measure 36
0010
0001
0100
0001
0010
0001
0100
1000
,  // measure 37
0000
0000
0101
0101
,  // measure 38
0100
0000
0100
0001
0000
0010
1000
0000
,  // measure 39
1000
0000
0100
0010
0000
0000
0110
0000
,  // measure 40
0010
1000
0100
0000
0010
0001
0100
0000
,  // measure 41
1000
0001
0010
0100
1000
0000
1000
0000
,  // measure 42
0001
0100
0001
0010
0000
0000
0100
0000
,  // measure 43
1000
0100
1000
0010
0000
0000
0001
0000
,  // measure 44
0011
1010
1100
0001
,  // measure 45
1000
0000
0001
0000
1000
0100
0001
0000
,  // measure 46
1000
0000
1000
0010
0000
0001
0010
0000
,  // measure 47
0100
0000
1000
1100
0000
0000
0000
0000
,  // measure 48
0001
1000
0100
0000
0001
1000
0100
0000
,  // measure 49
0010
1000
0100
1000
0010
0000
0011
0000
,  // measure 50
0001
0010
0100
1000
0000
0000
0110
0000
,  // measure 51
1000
0100
0010
0001
0000
0000
0101
0000
,  // measure 52
1001
1001
0010
0001
,  // measure 53
0001
1000
0100
0100
,  // measure 54
0000
0110
0000
0000
0000
1001
0110
0000
,  // measure 55
1001
0000
0000
0000
;

//---------------dance-double - ----------------
#NOTES:
     dance-double:
     :
     Easy:
     4:
     0.228924,0.265470,0.067574,0.000000,0.000000,166.000000,159.000000,7.000000,0.000000,0.000000,0.000000,0.228924,0.265470,0.067574,0.000000,0.000000,166.000000,159.000000,7.000000,0.000000,0.000000,0.000000:
00000000
00000000
00000000
00000000
,
00000000
00000000
00000000
00000000
,
00000000
00000000
00000000
00000000
,
00000000
00000000
00000000
00000000
,
00000000
00000000
00000000
00000000
,
00000000
00100000
00000000
00100000
,
00000000
00100000
00000000
00100000
,
10010000
01000000
00000000
01000000
,
00100000
00001000
00010000
00010000
,
00011000
00000100
00000000
00000100
,
00001001
00000010
00000000
00010000
,
00001000
00001000
01000000
00100000
,
10000000
10000000
00100000
01000000
,
00010000
00010000
01000000
00001000
,
00010000
00010000
00000100
00000000
,
00001000
00010000
00001000
00010000
,
00000010
00000100
00000010
00001001
,
00000100
00000000
00000100
00000000
,
00000010
00000001
00001000
00000100
,
00010000
00010000
00001000
00001000
,
00100000
00000000
01000000
00000000
,
10000000
01000000
00100000
00010000
,
10000000
00010000
01000000
00001000
,
00010000
00010000
00000010
00000100
,
00000001
00000000
00000001
00000000
,
00001000
00000010
00001000
00000100
,
00010000
00000000
00010000
00000000
,
00001000
00000000
00001000
00000000
,
00100000
01000000
10000000
00010000
,
00100000
00010000
10000000
01000000
,
10010000
00000000
00000000
00000000
,
00100000
00000000
00000000
00000000
,
00001000
00000000
00000000
00000000
,
00010000
00000000
00000000
00000000
,
00000100
00000010
00000001
00000001
,
00001000
00001000
00000100
00000100
,
00001000
00000000
00000010
00000000
,
00010000
00000000
00001000
00001000
,
00100000
00100000
01000000
01000000
,
00100000
00010000
10000000
01000000
,
10000000
00000000
10000000
00000000
,
00010000
00010000
00010000
00000000
,
01000000
01000000
00001000
00010000
,
00001000
00001000
00010000
00000010
,
00000100
00000100
00000100
00000100
,
00000001
00000001
00001000
00001001
,
00000010
00000010
00000100
00000100
,
00000010
00001000
00000001
00000100
,
00000001
00000000
00000001
00000000
,
00001000
00001000
00001000
00000000
,
00000100
00000100
00010000
00001000
,
00010000
00001000
00100000
01000000
,
10000000
10000000
01000000
01000000
,
00100000
00010000
10000000
01000000
,
00100000
00000000
00000000
00000000
,
10010000
00000000
00000000
00000000
,
00000000
00000000
00000000
00000000
;

//---------------dance-double - ----------------
#NOTES:
     dance-double:
     :
     Medium:
     7:
     0.343387,0.398204,0.183415,0.000000,0.000000,249.000000,230.000000,19.000000,0.000000,0.000000,0.000000,0.343387,0.398204,0.183415,0.000000,0.000000,249.000000,230.000000,19.000000,0.000000,0.000000,0.000000:
00000000
00000000
00000000
00000000
,
00000000
00000000
00000000
00000000
,
00000000
00000000
00000000
00000000
,
00000000
00000000
00000000
00000000
,
00000000
00000000
00000000
00000000
,
00000000
01000000
00000000
01000000
,
00000000
00001000
00000000
00010000
,
00011000
00000000
00000010
00000000
00001000
00000001
00000100
00000000
,
00000001
00000000
00000001
00000000
00000010
00001000
00000100
00000000
,
00010000
00000000
00010000
00000000
00000100
00010000
00001000
00000000
,
00010000
00000000
00010000
00000000
00001000
01000000
00100000
00000000
,
10000000
00000000
10000000
00000000
00100000
00010000
01000000
00000000
,
00001000
00010000
00001000
00000000
00000010
00000000
00000100
00000000
,
00000001
00000010
00000100
00000000
00001000
00000000
00000001
00000000
,
00001000
00000010
00000100
00000000
00000001
00000000
00001000
00000000
,
00000001
00001000
00000100
00000000
00010000
00001000
00010000
00000000
,
00001000
01000000
00100000
00000000
10000000
00000000
01010000
00000000
,
00100000
00010000
10000000
01000000
,
00100000
01000000
10000000
00000000
00010000
00000000
01000000
00000000
,
00001000
00010000
00001000
00000000
01000000
00001000
00010000
00000000
,
00011000
00001100
00001001
00000101
,
00000010
00001001
00000100
00001001
,
00000001
00000000
00000001
00000000
00000010
00001000
00000100
00000000
,
00010000
00000100
00010000
00000000
00001000
00000000
00010000
00000000
,
00100000
01000000
00100000
00000000
10000000
00010000
01000000
00000000
,
00100000
10000000
00010000
01000000
,
00001000
01000000
00001000
00010000
00000000
00000000
00011000
00000000
,
00010000
00000010
00000100
00000001
00000000
00000000
00001100
00000000
,
00001000
00001000
00000100
00000100
,
00000010
00000001
00001000
00000100
,
00011000
00000000
00000000
00000000
00000000
00000000
00100000
01000000
,
00000000
00000000
00000000
00000000
00000000
00001000
00010000
00001000
,
00000000
00000000
00000000
00000000
00000000
00000010
00000100
00000010
,
00000000
00000000
00000000
00000000
,
00001001
00000000
00000000
00000000
00000010
00001000
00000010
00000000
,
00010000
00001000
00010000
00000000
00000100
00001000
00000100
00000000
,
00010000
00001000
00010000
00000000
00001000
00100000
00010000
00000000
,
10000000
00100000
10000000
00000000
01010000
00000000
01010000
00000000
,
10000000
00000000
10000000
00000000
00100000
00010000
01000000
00000000
,
00001000
01000000
00001000
00000000
00010000
00000000
00001000
00000000
,
00000010
00000100
00000010
00000000
00000001
00001000
00000100
00000000
,
00000010
00000001
00001000
00000100
,
00010000
00000100
00010000
00001000
00000000
00000000
00011000
00000000
,
00001000
00100000
01000000
10000000
00000000
00000000
01010000
00000000
,
00010000
00010000
01000000
01000000
,
00100000
10000000
00010000
01000000
,
00001000
00000000
00001000
00000000
01000000
00001000
00010000
00000000
,
00000010
00000000
00000010
00000000
00001000
00000001
00000100
00000000
,
00000010
00001000
00000010
00000000
00010000
00001000
00010000
00000000
,
00000010
00000100
00000001
00001000
00000100
00000000
00000100
00000000
,
00000100
00010000
00001000
01000000
00000000
00000000
10010000
00000000
,
00100000
10000000
00010000
01000000
00000000
00000000
01100000
00000000
,
10000000
00000000
10000000
00000000
10000000
00010000
01000000
00000000
,
01000000
00000000
01000000
00000000
01000000
00001000
00010000
00000000
,
00000000
00001000
00000000
00000000
00000000
00010000
00001000
00000000
,
00001001
00000000
00000000
00000000
,
00000000
00000000
00000000
00000000
;

//---------------dance-double - ----------------
#NOTES:
     dance-double:
     :
     Hard:
     10:
     0.428889,0.451298,0.308910,0.000000,0.000000,311.000000,279.000000,32.000000,0.000000,0.000000,0.000000,0.428889,0.451298,0.308910,0.000000,0.000000,311.000000,279.000000,32.000000,0.000000,0.000000,0.000000:
00000000
00000000
00000000
00000000
,
00000000
00000000
00000000
00000000
,
00000000
00000000
00000000
00000000
,
00000000
00000000
00000000
00000000
,
00000000
00000000
00000000
00000000
,
00001001
00000000
00000100
00000100
00000000
00000100
00000100
00000000
,
00010000
00000000
00001000
00001000
00000000
00001000
00001000
00000000
,
00011000
00000000
00100000
10000000
00010000
01000000
00100000
10000000
,
00010000
00000000
01100000
00000000
00001000
00010000
00001000
01000000
,
00010000
00000000
00011000
00000000
00000010
00000100
00000001
00001000
,
00000100
00000000
00011000
00000000
00010000
00000100
00010000
00000000
,
00001000
00010000
00010000
00000000
00100000
01000000
00100000
00000000
,
10000000
01000000
01000000
00000000
00100000
00010000
00100000
00000000
,
00100000
10000000
01000000
00000000
10000000
00010000
01000000
00000000
,
00001000
00010000
00001000
01000000
00001000
00000010
00000100
00000000
,
00001000
00000010
00000100
00000001
00001000
00000100
00010000
00001000
,
00010000
00001000
00100000
00010000
00100000
00000000
11000000
00000000
,
00100000
00010000
10000000
01000000
00100000
00010000
10000000
00010000
,
01000000
00001000
00010000
00001000
00010000
00000000
00011000
00000000
,
00000010
00000100
00000010
00000000
00001000
00000001
00000100
00000000
,
00000110
00001001
00011000
01100000
,
00100000
10000000
00100000
10000000
01000000
00010000
01000000
00010000
,
00001000
00000000
00001000
00000000
00001000
01000000
00001000
00010000
,
00000010
00000000
00000100
00000101
00000000
00000000
00000000
00000000
,
00000010
00000001
00000010
00000100
00001000
00000100
00010000
00001000
,
00010000
00000100
00010000
00001000
01000000
00000000
01100000
00000000
,
10000000
01000000
00100000
00010000
00000000
00000000
00011000
00000000
,
00000010
00001000
00000001
00000100
00000000
00000000
00001100
00000000
,
00010000
00001000
00010000
00000000
00000010
00001000
00000010
00000000
,
00010000
00001000
00010000
00000000
00100000
00000000
00100000
00100000
,
10010000
00000000
00000000
00000000
00000000
00000000
00010000
01000000
,
00000000
00000000
00011000
00000000
00000000
00000010
00001000
00000100
,
00000000
00000000
00000011
00000000
00000000
00000100
00010000
00001000
,
00000000
00000000
10100000
00000000
00000000
01000000
01000000
01000000
,
00000000
00000000
10010000
00000000
00100000
00010000
00100000
00000000
,
00001000
00010000
00001000
00000000
00000010
00001000
00000010
00000000
,
00000010
00000001
00000010
00000100
00001000
00000100
00010000
00001000
,
00000000
00000000
00011000
00011000
,
00010000
00000000
00010000
00000000
00010000
00000100
00010000
00001000
,
00100000
00000000
01000000
11000000
00000000
00000000
00000000
00000000
,
00100000
10000000
00100000
01000000
00010000
01000000
00001000
00010000
,
00001000
01000000
00001000
00010000
00000100
00000000
00000110
00000000
,
00000001
00000100
00000010
00001000
00000000
00000000
00011000
00000000
,
00100000
00010000
10000000
01000000
00000000
00000000
01010000
00000000
,
00001000
00010000
00001000
00000000
00100000
00010000
00100000
00000000
,
00001000
00010000
00001000
00000000
00000010
00000010
00000010
00000000
,
00000001
00000100
00000001
00000000
00001000
00000010
00001000
00000000
,
00000010
00000000
00000100
00000101
00000000
00000000
00000000
00000000
,
00000010
00000001
00000010
00000100
00001000
00000100
00010000
00001000
,
00010000
00000100
00010000
00001000
01000000
00000000
01100000
00000000
,
10000000
01000000
00100000
00010000
00000000
00000000
00011000
00000000
,
00000010
00001000
00000001
00000100
00000000
00000000
00001100
00000000
,
00010000
00001000
00010000
00000000
00000010
00001000
00000010
00000000
,
00010000
00001000
00010000
00000000
00000100
00001000
00000100
00000000
,
00000000
00011000
00000000
00000000
00000000
00001000
00100000
00000000
,
10010000
00000000
00000000
00000000
,
00000000
00000000
00000000
00000000
;

//---------------dance-couple - ----------------
#NOTES:
     dance-couple:
     :
     Medium:
     6:
     0.275813,0.371657,0.183415,0.000000,0.000000,200.000000,181.000000,19.000000,0.000000,0.000000,0.000000,0.275813,0.371657,0.183415,0.000000,0.000000,200.000000,181.000000,19.000000,0.000000,0.000000,0.000000:
00000000
00000000
00000000
00000000
,
00000000
00000000
00000000
00000000
,
00000000
00000000
00000000
00000000
,
00000000
00000000
00000000
00000000
,
00000000
00000000
00000000
00000000
,
00000000
00100010
00000000
00100010
,
00000000
01000100
00000000
01000100
,
00100000
00000000
00100001
00000000
00100000
10000000
01000001
00000000
,
01000000
00000000
01000001
00000000
01000000
10000000
00100001
00000000
,
00000010
00000000
10000010
00000000
00000010
00000001
10000100
00000000
,
00000100
00000000
10000100
00000000
00000100
00000001
10000010
00000000
,
01010101
01010101
10001000
10001000
,
10101010
10101010
00010001
00010001
,
10000000
00010000
10000000
00000000
00010000
01000000
10000000
00000000
,
00001000
00000001
00001000
00000000
00000001
00000100
00001000
00000000
,
00000010
00001000
00000100
00000000
00100000
10000000
01000000
00000000
,
00100010
00010001
01000100
00000000
00100010
00000000
11001100
00000000
,
00010000
00010010
10000000
00010010
,
00100000
01000010
00100000
01000010
,
00000001
00100001
00001000
00100001
,
00000010
00100100
00000010
00100100
,
00100010
10001000
01000100
10001000
00010001
10001000
00010001
00010001
,
00010001
00000000
10001000
00000000
00010001
10001000
01000100
00000000
,
01000100
00000000
01000100
00000000
01000100
10001000
00100010
00000000
,
00100000
10000000
01000000
00000000
00100000
10000000
01000000
00000000
,
00000010
00001000
00000100
00000000
00000010
00001000
00000100
00000000
,
00010000
00100000
01000000
10000000
00000000
00000000
01100000
00000000
,
00000001
00000010
00000100
00001000
00000000
00000000
00000110
00000000
,
00100010
10001000
00010001
01000100
,
10001000
01000100
00100010
00010001
,
10011001
00010001
00000000
00100001
,
00000000
00000000
10010001
00000000
00000000
01000000
00010001
00100000
,
00000000
10000001
00000000
10000010
,
00000000
00000000
10001001
00000000
00000000
00000100
10000001
00000010
,
00000000
00000000
00010001
00000000
00010001
00010001
00010001
00000000
,
10001000
10001000
10001000
00000000
10001000
01000100
10001000
00000000
,
00100010
00010001
01000100
00010001
00100010
00010001
01000100
10001000
,
00000000
00000000
01010000
00000101
,
00100000
00000000
00100001
00000000
01000000
10000000
00100001
00000000
,
00010000
00000000
10000001
00000000
00100000
10000000
01000001
00000000
,
00000010
00000000
10000010
00000000
00000100
00001000
10000010
00000000
,
00000001
00000000
10001000
00000000
00000010
00001000
10000100
00000000
,
00010001
01000100
00010001
00100010
00000000
00000000
01000100
00000000
,
10001000
01000100
10001000
00100010
00000000
00000000
00010001
00000000
,
00001010
00000011
00000101
00001000
,
00110000
10100000
11000000
00010000
,
10001000
00000000
10001000
00100010
00000000
00010001
00100010
00000000
,
01000100
00000000
10001000
11001100
00000000
00000000
00000000
00000000
,
00100000
10000000
01000001
10000000
00100000
00000000
00110001
00000000
,
00000010
00001000
10000100
00001000
00000010
00000000
10000011
00000000
,
00000001
00000010
00000100
00001000
00000000
00000000
00000110
00000000
,
00010000
00100000
01000000
10000000
00000000
00000000
01100000
00000000
,
10010000
00000000
00001001
00000000
00100010
00010001
01000100
00000000
,
00100010
10001000
01000100
00000000
00010001
01000100
10001000
00000000
,
00000000
01100000
00000000
00000000
00000000
00001001
01100110
00000000
,
10011001
00000000
00000000
00000000
;

//---------------dance-solo - ----------------
#NOTES:
     dance-solo:
     :
     Easy:
     3:
     0.197206,0.265470,0.019307,0.000000,0.000000,143.000000,141.000000,2.000000,0.000000,0.000000,0.000000,0.197206,0.265470,0.019307,0.000000,0.000000,143.000000,141.000000,2.000000,0.000000,0.000000,0.000000:
000000
000000
000000
000000
,
000000
000000
000000
000000
,
000000
000000
000000
000000
,
000000
000000
000000
000000
,
000000
000000
000000
000000
,
000001
000000
000000
000000
,
000001
000000
000000
000000
,
000001
000001
100000
000000
,
100000
100000
000001
000000
,
000001
010000
000000
000000
,
000010
010000
000000
000000
,
000100
100001
000000
001000
,
010000
100000
000000
000100
,
001000
001000
001000
000000
,
001000
000100
010000
000000
,
100000
000000
000001
000000
,
100000
010000
100000
000010
,
100000
000000
000001
000000
,
000001
010000
000010
000000
,
000100
000000
000100
000000
,
000010
000010
100000
000000
,
001000
001000
001000
001000
,
000001
000000
000001
000000
,
000001
100000
000001
000000
,
100000
000000
100000
000000
,
010000
000010
010000
000000
,
000001
000000
000001
000000
,
100000
000001
100000
000000
,
000100
000010
000010
000001
,
000100
010000
010000
100000
,
001000
000000
000000
000000
,
000001
000000
000000
000000
,
000100
000000
000000
000000
,
001000
000000
000000
000000
,
000001
000001
000001
000010
,
010000
010000
010000
100000
,
100000
000001
100000
000000
,
001000
001000
000100
001000
,
000001
000001
000010
000100
,
010000
100000
100000
000001
,
100000
000000
000001
000000
,
000100
010000
000010
000000
,
000001
000000
000001
000000
,
100000
000000
100000
000000
,
000100
000100
000100
100000
,
001000
001000
000100
001000
,
000001
000000
100000
000000
,
000001
010000
000010
000000
,
000100
000100
000100
000010
,
001000
001000
000100
001000
,
100000
000000
000001
000000
,
010000
000000
000010
000000
,
010000
010000
100000
000001
,
000001
000001
000010
100000
,
001000
001000
001000
001000
,
010010
000000
000000
000000
;

//---------------dance-solo - ----------------
#NOTES:
     dance-solo:
     :
     Medium:
     5:
     0.321322,0.345111,0.183415,0.000000,0.000000,233.000000,214.000000,19.000000,0.000000,0.000000,0.000000,0.321322,0.345111,0.183415,0.000000,0.000000,233.000000,214.000000,19.000000,0.000000,0.000000,0.000000:
000000
000000
000000
000000
,
000000
000000
000000
000000
,
000000
000000
000000
000000
,
000000
000000
000000
000000
,
000000
000000
000000
000000
,
000000
000100
000000
000100
,
000000
001000
000000
001000
,
000100
000000
000100
000000
000100
100000
000010
000000
,
000010
000000
000010
000000
000010
010000
001000
000000
,
001000
000000
001000
000000
001000
010000
000001
000000
,
000001
000001
000100
000100
,
000110
000110
010000
010000
,
101000
101000
000001
000001
,
100000
000000
100000
000000
000001
001000
100000
000000
,
100000
100000
000001
100000
,
000100
100000
001000
000000
000100
100000
001000
000000
,
000001
000001
010000
010100
,
000001
000001
100000
000001
,
000010
010000
000010
010000
,
000010
000010
100000
000001
,
000100
000100
001000
001000
,
000001
000101
010000
101000
,
000001
000000
100000
000000
000001
100000
001000
000000
,
001000
000000
001000
000000
001000
010000
000100
000000
,
000010
100000
001000
000000
000010
100000
001000
000000
,
000001
000001
100000
000010
,
000001
000100
001000
100000
000000
000000
000010
000000
,
000001
000100
001000
100000
000000
000000
000100
000000
,
000100
100000
000001
001000
,
100000
001000
000100
000001
,
010010
000001
000000
100001
,
000000
000100
000000
100001
,
000000
001000
000000
001100
,
000000
000100
000000
010010
,
000001
000001
000001
000001
,
010000
000000
010000
000000
100000
000100
100000
000000
,
000001
000001
001000
001000
,
010000
010000
000110
000110
,
000001
000000
000001
000000
000001
010000
001000
000000
,
001000
000000
001000
000000
001000
000010
000100
000000
,
000010
100000
001000
000000
000010
100000
001000
000000
,
000001
000010
000010
100000
,
000001
000100
001000
100000
000000
000000
000010
000000
,
000001
000100
001000
100000
000000
000000
000100
000000
,
000100
000100
001000
001000
,
010000
010100
000110
000010
,
010000
000000
010000
000000
010000
100000
001000
000000
,
001000
000000
001000
000000
001000
000001
000100
000000
,
100000
001000
000001
000000
100000
001000
000001
000000
,
000010
000010
010000
001000
,
100000
001000
000100
000001
000000
000000
001100
000000
,
000001
000100
001000
100000
000000
000000
000010
000000
,
000010
010000
010000
000100
,
001000
000001
100000
000001
,
000000
001100
000000
000000
000000
000001
010000
000000
,
010010
000000
000000
000000
;

//---------------dance-solo - ----------------
#NOTES:
     dance-solo:
     :
     Hard:
     7:
     0.382000,0.424751,0.299257,0.000000,0.000000,277.000000,246.000000,31.000000,0.000000,0.000000,0.000000,0.382000,0.424751,0.299257,0.000000,0.000000,277.000000,246.000000,31.000000,0.000000,0.000000,0.000000:
000000
000000
000000
000000
,
000000
000000
000000
000000
,
000000
000000
000000
000000
,
000000
000000
000000
000000
,
000000
000000
000000
000000
,
001001
000000
000000
000000
000000
001000
010000
000100
,
000000
010000
000000
010000
000000
001000
000001
000100
,
000000
000000
000110
000000
000000
000010
000010
100000
,
000000
001000
000000
000100
000000
010000
010000
000100
,
000000
000000
010100
000000
000100
000001
000100
000001
,
000000
000000
001100
000000
100000
001000
100000
001000
,
000000
000100
000100
000000
000010
000000
000010
100000
,
000000
100000
001000
000000
000000
000000
001100
000000
,
000100
000000
000010
001000
000000
000001
100000
001000
,
100000
000010
000000
001000
000000
000000
000000
000000
,
000100
010000
001000
000000
000100
000010
001000
000000
,
000001
100000
000010
000000
010000
000001
001000
000100
,
100000
000000
100000
000100
001000
000000
100000
000000
,
010000
001000
010000
000000
000010
001000
000010
000000
,
000100
010000
001000
000000
000100
000010
001000
000000
,
001100
000000
000001
000000
010010
000000
000100
100000
,
000100
100000
001000
100000
000001
100000
000010
000010
,
001000
000000
001000
000001
000000
000100
010000
000000
,
010000
000000
001000
000010
000000
000000
001100
000000
,
100000
000010
001000
000000
000001
010000
001000
000000
,
000001
010000
001000
000100
000001
000000
000001
000000
,
000001
001000
000001
010000
000000
000000
001000
000000
,
100000
001000
100000
000010
000000
000000
000001
000000
,
001001
101000
010100
000010
,
100000
000000
100000
000000
001000
000001
000100
000000
,
010010
000000
000001
000000
000000
000000
000001
001000
,
000000
000000
010100
000000
000000
001000
000001
000010
,
000000
000000
101000
000000
000000
000001
000100
001000
,
000000
000000
001001
000000
000000
100000
000100
000010
,
000000
000000
000010
000000
000001
000001
000001
000000
,
100000
100000
100000
000000
010000
000100
010000
000000
,
000100
000001
001000
000010
000100
000010
001000
100000
,
000000
000000
001001
001001
,
001000
000000
001000
000001
000000
000100
010000
000000
,
010000
000000
001000
000100
000000
000000
001100
000000
,
000100
010000
001000
000000
000100
000010
001000
000000
,
010000
000001
000100
001000
100000
000000
010000
000000
,
000001
001000
000010
000100
000000
000000
001000
000000
,
100000
001000
100000
000010
000000
000000
000001
000000
,
000110
010100
101000
000001
,
100000
000000
000001
000000
010000
001000
000001
000000
,
100000
000000
100000
000100
000000
000001
010000
000000
,
001000
000000
100000
101000
000000
000000
000000
000000
,
000010
100000
001000
000000
000010
100000
001000
000000
,
000100
100000
001000
010000
000100
000000
000110
000000
,
000001
000100
001000
100000
000000
000000
001100
000000
,
100000
001000
000100
000001
000000
000000
001001
000000
,
100001
100001
000010
000100
,
010000
000001
001000
001000
,
000000
001100
000000
000000
000000
100001
001100
000000
,
010010
000000
000000
000000
;

//---------------dance-single - ----------------
#NOTES:
     dance-single:
     :
     Challenge:
     12:
     0.573690,0.669707,0.164109,0.212376,0.275123,416.000000,399.000000,17.000000,22.000000,0.000000,0.000000,0.573690,0.669707,0.164109,0.212376,0.275123,416.000000,399.000000,17.000000,22.000000,0.000000,0.000000:
// measure 0
0000
0000
0000
0000
,  // measure 1
0000
0000
0000
0000
,  // measure 2
0000
0000
0000
0000
,  // measure 3
0000
0000
0000
0000
,  // measure 4
0000
0000
0000
0000
,  // measure 5
1002
0000
0000
0000
0003
0100
0010
2000
,  // measure 6
0000
3001
0010
2000
0000
3010
0001
0100
,  // measure 7
0020
0000
1030
0100
1000
0001
0100
0002
,  // measure 8
0000
1003
0100
2000
0000
3020
0100
0031
,  // measure 9
0010
0000
0000
0000
0011
0000
0000
0000
1000
0001
1000
0000
0100
0000
0020
0000
,  // measure 10
0000
0000
0030
0000
0001
0000
0100
0000
0010
1000
0010
0000
1000
0000
0100
0000
,  // measure 11
0010
0000
0001
0010
0001
0000
1000
0000
0100
1000
0100
0000
0010
0000
0002
0000
,  // measure 12
0000
0000
0103
0000
0020
0000
0000
0000
1030
0001
1000
0000
0001
0100
0001
0000
,  // measure 13
0011
0000
0000
0110
0000
0000
1100
0000
0000
0000
1000
0000
0001
0000
0010
0000
,  // measure 14
0001
0000
0100
0000
0010
0000
1000
0100
2000
0000
0000
0000
3002
0000
0000
0000
,  // measure 15
0103
0001
0010
1000
0010
0001
0100
0010
,  // measure 16
1000
0000
0100
1000
0100
0000
0020
0000
0000
0000
0031
0000
0100
0000
1000
0000
,  // measure 17
0200
0000
0301
1000
0001
0010
0001
0100
,  // measure 18
0010
0000
1000
0000
0100
1000
0100
0000
0010
0000
0001
0000
0020
0000
0000
0000
,  // measure 19
0031
1000
0100
1000
0010
0001
0010
1000
,  // measure 20
0100
0000
0100
0000
0110
0000
0000
0000
0001
0000
1000
0001
1000
0000
0010
0000
,  // measure 21
0100
0001
0100
0000
0001
0000
1000
0000
0010
0000
1000
0000
0100
0000
0010
0000
,  // measure 22
0001
0000
0100
0000
0001
0000
1000
0001
0000
0000
0010
0000
0100
0000
0010
0000
,  // measure 23
0001
0000
0010
0000
0100
0000
0010
0000
0001
0010
0000
0001
0000
1000
0000
0001
,  // measure 24
1000
0000
0100
0000
1000
0000
0010
0100
0020
0000
0000
0000
0031
0010
0001
0000
,  // measure 25
0010
1000
0100
0010
0001
1000
0001
0000
,  // measure 26
0100
0000
0010
0000
1000
0000
0001
1000
0001
0000
0000
0000
0100
0000
0010
0000
,  // measure 27
1000
0010
0100
0001
0000
1000
0010
0100
,  // measure 28
0001
0000
0001
0000
1000
0000
0000
1000
0010
0000
0010
0000
0100
0000
0001
0000
,  // measure 29
1000
0000
0001
0000
0100
0001
0100
0000
0010
1000
0010
0000
1000
0001
1000
0000
,  // measure 30
0002
0000
0103
1000
0100
0001
0200
0010
,  // measure 31
0310
0000
1000
0001
0100
0001
0010
0100
,  // measure 32
2000
0000
0000
0000
3001
0000
0010
0000
0001
0100
0000
0001
0100
0000
0010
0000
,  // measure 33
1000
0000
0100
0000
0010
0000
0001
0000
1000
0001
0000
1000
0100
0000
0010
0000
,  // measure 34
0210
0000
0301
1000
0010
1000
0100
0010
,  // measure 35
0001
0000
1000
0000
0001
0000
0100
0000
0010
1000
0000
0010
1000
0000
0000
0000
,  // measure 36
0001
0100
0010
1000
0010
0100
0001
1000
,  // measure 37
0001
0000
0100
0010
0000
0100
0010
0000
1000
0000
0100
0000
0010
0000
0001
0000
,  // measure 38
0101
0000
0100
0000
0010
0000
1000
0001
1000
0000
0010
0000
0100
0000
0001
0000
,  // measure 39
0010
0000
1000
0000
0010
0000
0001
0000
0100
0001
0100
0000
0001
0000
1000
0000
,  // measure 40
0100
0000
1000
0000
0010
0000
0100
0010
0100
0000
0000
0000
0001
0010
0001
0000
,  // measure 41
1000
0100
1000
0010
0100
0000
1001
0000
,  // measure 42
0010
0100
0001
0010
1000
0010
0001
0100
,  // measure 43
0010
1000
0100
1000
0001
0000
0100
0000
,  // measure 44
0010
0000
0010
0000
1000
0000
0000
1000
0001
0000
0100
0000
0001
0000
0010
0000
,  // measure 45
0001
0000
1000
0000
0100
1000
0000
0010
1000
0000
0001
0010
0000
0001
0100
0000
,  // measure 46
0010
0000
1000
0000
0001
0000
1000
0010
1000
0000
0001
0000
0100
0000
0010
0000
,  // measure 47
1000
0000
1000
0000
0001
0000
0000
0001
0010
0000
0001
0000
0100
0010
0100
0000
,  // measure 48
0001
0000
1000
0000
0001
0000
0010
1000
0010
0000
0001
0000
0100
0010
0100
0000
,  // measure 49
0010
0000
1000
0000
0001
0000
0010
0001
0010
0000
0001
0000
0101
0000
0000
0000
,  // measure 50
1000
0000
0100
0000
0001
0000
0100
1000
0100
0000
0010
0000
0001
0000
0100
0000
,  // measure 51
0010
0000
0100
0000
0001
0000
0000
1000
0010
0000
1000
0000
0001
0000
0100
0000
,  // measure 52
0010
0000
0010
0000
0110
0000
0000
0100
0001
0000
0001
0000
1001
0000
0000
0000
,  // measure 53
1000
0000
0100
0000
0010
0001
0010
0001
0010
0100
0010
0100
1000
0100
1000
0100
,  // measure 54
0010
0000
1001
0000
0000
0000
0110
0000
0000
0000
1001
0000
0000
0110
0000
0000
,  // measure 55
0220
0000
0330
0000
;
