#TITLE:HERO (HAPPY GRANDALE MIX);
#SUBTITLE:;
#ARTIST:PAPAYA;
#TITLETRANSLIT:;
#SUBTITLETRANSLIT:;
#ARTISTTRANSLIT:;
#GENRE:;
#CREDIT:;
#BANNER:HERO (HAPPY GRANDALE MIX).png;
#BACKGROUND:HERO (HAPPY GRANDALE MIX)-bg.png;
#LYRICSPATH:;
#CDTITLE:./CDTITLES/DANCEMANIA SPEED 4.PNG;
#MUSIC:HERO (HAPPY GRANDALE MIX).ogg;
#OFFSET:0.000000;
#SAMPLESTART:46.025997;
#SAMPLELENGTH:15.000000;
#SELECTABLE:YES;
#DISPLAYBPM:170.000000;
#BPMS:0.000000=169.990005
;
#STOPS:
;
#BGCHANGES:;
#KEYSOUNDS:;
#ATTACKS:;

//---------------dance-single - ----------------
#NOTES:
     dance-single:
     :
     Easy:
     5:
     0.286404,0.273713,0.024010,0.000000,0.000000,165.000000,2.000000,0.000000,0.000000,0.000000,0.000000,0.286404,0.273713,0.024010,0.000000,0.000000,165.000000,2.000000,0.000000,0.000000,0.000000,0.000000:
// measure 0
0000
0000
0000
0000
,  // measure 1
0000
0000
0000
0000
,  // measure 2
0000
0000
0000
0000
,  // measure 3
0000
0000
0000
0000
,  // measure 4
0000
0000
0000
0000
,  // measure 5
1001
0000
0000
0000
,  // measure 6
1001
0000
0000
0000
,  // measure 7
1000
0000
0001
0000
,  // measure 8
1000
0001
1000
0000
,  // measure 9
0001
0100
0001
0100
,  // measure 10
1000
0010
1000
0010
,  // measure 11
0001
0100
0010
1000
,  // measure 12
0100
0100
0100
0100
,  // measure 13
1000
0010
1000
0010
,  // measure 14
0100
0001
0100
0001
,  // measure 15
1000
0100
0010
0001
,  // measure 16
1000
1000
1000
1000
,  // measure 17
0100
0000
0100
0000
,  // measure 18
0010
0000
0010
0000
,  // measure 19
0001
0000
1000
0000
,  // measure 20
0010
0010
0010
0000
,  // measure 21
0100
0000
0100
0000
,  // measure 22
0001
0000
0001
0000
,  // measure 23
1000
0000
0100
0000
,  // measure 24
0010
0001
0010
0001
,  // measure 25
1000
0000
0010
0000
,  // measure 26
0100
0001
0010
0000
,  // measure 27
0100
0000
1000
0000
,  // measure 28
0001
0100
0010
0000
,  // measure 29
1000
0000
0001
0000
,  // measure 30
0010
0100
1000
0000
,  // measure 31
0001
0100
0010
0000
,  // measure 32
1000
1000
1000
0000
,  // measure 33
0100
0010
0001
0000
,  // measure 34
0100
0010
1000
0000
,  // measure 35
0001
0100
1000
0100
,  // measure 36
0010
0010
0010
0000
,  // measure 37
0001
0100
0010
0000
,  // measure 38
1000
0100
0010
0000
,  // measure 39
0001
0100
1000
0100
,  // measure 40
0010
0010
0010
0000
,  // measure 41
0001
0100
0010
1000
,  // measure 42
0100
0100
0100
0100
,  // measure 43
0010
0001
0100
0010
,  // measure 44
1000
0100
1000
0000
,  // measure 45
0001
0100
0010
1000
,  // measure 46
0100
0100
0100
0100
,  // measure 47
0010
0001
0100
0010
,  // measure 48
1000
0001
0010
0100
,  // measure 49
1000
0001
0100
0000
,  // measure 50
1000
0100
0010
0000
,  // measure 51
0001
0100
1000
0100
,  // measure 52
0001
0100
1000
0100
,  // measure 53
0010
0001
0100
0000
,  // measure 54
0010
1000
0100
0000
,  // measure 55
0010
0001
1000
0010
,  // measure 56
0100
0001
1000
0100
,  // measure 57
0010
0000
0000
0000
;

//---------------dance-single - ----------------
#NOTES:
     dance-single:
     :
     Medium:
     10:
     0.524788,0.546225,0.876361,0.000000,0.000000,233.000000,73.000000,0.000000,0.000000,0.000000,0.000000,0.524788,0.546225,0.876361,0.000000,0.000000,233.000000,73.000000,0.000000,0.000000,0.000000,0.000000:
// measure 0
0000
0000
0000
0000
,  // measure 1
0000
0000
0000
0000
,  // measure 2
0000
0000
0000
0000
,  // measure 3
0000
0000
0000
0000
,  // measure 4
0000
0000
0000
0000
,  // measure 5
1000
0100
0001
0100
,  // measure 6
0010
1000
0100
0010
,  // measure 7
0001
0100
1000
0100
,  // measure 8
0010
0001
0100
0010
,  // measure 9
1001
1100
0011
0101
,  // measure 10
1001
1100
0101
1010
,  // measure 11
1001
0011
1100
0101
,  // measure 12
1001
0110
1001
0110
,  // measure 13
1001
1100
0011
0101
,  // measure 14
1010
1100
0011
0101
,  // measure 15
1001
0110
1100
0101
,  // measure 16
1001
0110
1001
0110
,  // measure 17
1000
0001
0100
0000
0010
1000
0100
0000
,  // measure 18
0010
0000
0001
0000
1000
0010
0100
0000
,  // measure 19
0001
1000
0100
0010
,  // measure 20
0001
0100
0010
1000
0100
0000
0000
0000
,  // measure 21
0010
0001
0100
0000
0110
0000
0000
0000
,  // measure 22
1000
0100
0010
0000
1001
0000
0000
0000
,  // measure 23
0010
0100
0001
1000
,  // measure 24
0100
0010
0100
0010
0001
0100
0010
0000
,  // measure 25
1000
0000
1000
0000
0001
0010
0001
0000
,  // measure 26
1001
1010
0101
0000
,  // measure 27
1000
0000
0100
0000
0010
0001
0100
0000
,  // measure 28
1001
1100
1010
0000
,  // measure 29
0100
0000
0001
0000
0010
0100
1000
0000
,  // measure 30
0101
1010
1100
0011
,  // measure 31
0100
0010
1000
0000
0100
0010
0001
0000
,  // measure 32
0100
0010
1000
0100
0010
0000
0000
0000
,  // measure 33
0001
0100
0010
0000
1001
0000
0000
0000
,  // measure 34
0100
0010
1000
0000
1100
0000
0000
0000
,  // measure 35
0010
0001
0010
0000
0100
1000
0100
0000
,  // measure 36
0101
1010
1100
0000
,  // measure 37
0010
0001
1000
0000
0110
0000
0000
0000
,  // measure 38
0001
0010
0100
0000
1001
0000
0000
0000
,  // measure 39
0100
0010
1000
0000
0100
0010
0001
0000
,  // measure 40
0101
1010
1100
0000
,  // measure 41
0001
0000
0100
0000
0010
1000
0100
0000
,  // measure 42
0010
0000
0001
0000
0100
0010
1000
0000
,  // measure 43
0100
0000
0010
0000
0001
0100
0010
0000
,  // measure 44
1001
1100
0101
0000
,  // measure 45
0010
0000
1000
0000
0100
0010
0001
0000
,  // measure 46
1000
0000
0010
0000
0100
0001
0010
0000
,  // measure 47
0100
0000
1000
0000
0001
0100
0010
0000
,  // measure 48
1001
1100
0101
1001
,  // measure 49
0100
0000
0100
0000
0010
0001
0100
0000
,  // measure 50
0010
0000
0010
0000
1000
0100
0010
0000
,  // measure 51
1001
1100
1010
0101
,  // measure 52
1001
1100
1010
0101
,  // measure 53
1000
0000
0100
0000
0010
0001
0100
0000
,  // measure 54
0010
0000
1000
0000
0100
0010
0001
0000
,  // measure 55
0101
0000
1100
0000
0010
0001
0100
0000
,  // measure 56
1010
0000
1100
0000
0010
0001
0100
0010
;

//---------------dance-single - ----------------
#NOTES:
     dance-single:
     :
     Hard:
     12:
     0.589957,0.546225,0.048020,0.000000,0.000000,340.000000,4.000000,0.000000,0.000000,0.000000,0.000000,0.589957,0.546225,0.048020,0.000000,0.000000,340.000000,4.000000,0.000000,0.000000,0.000000,0.000000:
// measure 0
0000
0000
0000
0000
,  // measure 1
0000
0000
0000
0000
,  // measure 2
0000
0000
0000
0000
,  // measure 3
0000
0000
0000
0000
,  // measure 4
0000
0000
0000
0000
,  // measure 5
1000
0000
0100
0000
0010
0001
0010
0000
,  // measure 6
0100
0000
1000
0000
0010
0100
0010
0000
,  // measure 7
1000
0100
0010
0001
,  // measure 8
1000
0100
0010
0001
1000
0100
0010
0000
,  // measure 9
0001
0100
0010
1000
0100
0010
0001
0001
,  // measure 10
1000
0010
0100
0001
0010
0100
1000
1000
,  // measure 11
0001
0100
0010
1000
0001
0010
0100
0100
,  // measure 12
1000
0010
0100
0001
1000
0100
0010
0001
,  // measure 13
0100
0010
1000
0100
0010
0001
0100
0100
,  // measure 14
0010
1000
0100
0010
0001
1000
0010
0010
,  // measure 15
0100
0001
1000
0100
0010
0001
1000
1000
,  // measure 16
0010
0100
0001
0010
0100
1000
0001
0001
,  // measure 17
0100
0010
1000
0001
0100
0010
0010
0000
,  // measure 18
1000
0100
0010
0001
1000
0100
0100
0000
,  // measure 19
0010
0001
0100
0010
1000
0100
0010
0001
,  // measure 20
0100
0010
1000
0001
0100
0010
0010
0000
,  // measure 21
1000
0100
0010
0001
1000
0100
0100
0000
,  // measure 22
0010
0001
0100
0010
1000
0100
0100
0000
,  // measure 23
0010
0001
0100
0010
1000
0100
0010
0001
,  // measure 24
0100
0010
1000
0001
0010
0100
0100
0000
,  // measure 25
0000
1000
0010
0100
0001
0010
0100
1000
,  // measure 26
0001
0000
0100
0010
0100
0000
0000
0000
,  // measure 27
0000
0001
0010
0100
1000
0001
0100
0010
,  // measure 28
1000
0000
0100
0010
0001
0000
0000
0000
,  // measure 29
0000
1000
0010
0100
0001
0010
0100
1000
,  // measure 30
0001
0000
0100
0010
0100
0000
0001
1000
,  // measure 31
0000
0100
0000
0010
0000
0001
0000
1000
,  // measure 32
0010
0100
0001
0010
0100
1000
0010
0100
,  // measure 33
0001
0010
0001
0000
1100
0000
0001
0010
,  // measure 34
0000
0010
0100
1000
0010
0100
0001
0010
,  // measure 35
0100
0000
1000
1000
0000
0001
0010
0100
,  // measure 36
1000
0000
1000
1000
0000
0010
0100
0001
,  // measure 37
0010
0100
0010
0000
1001
0000
0100
0010
,  // measure 38
0000
0010
0001
0100
0010
1000
0100
0010
,  // measure 39
0001
0100
0010
1000
0000
1000
0001
0010
,  // measure 40
0100
1100
0101
0000
,  // measure 41
0000
0010
1000
0100
0010
0000
0010
0000
,  // measure 42
0000
0001
0100
0010
1000
0000
1000
0000
,  // measure 43
0000
0100
0010
0001
0100
0000
0100
0000
,  // measure 44
0010
1000
0010
1000
0010
0000
0000
0000
,  // measure 45
0000
0100
0001
0010
0100
0000
0100
0000
,  // measure 46
0000
1000
0010
0100
0001
0000
0001
0000
,  // measure 47
0000
0010
0100
1000
0010
0000
0010
0000
,  // measure 48
0100
0001
1000
0010
0100
0001
1000
0000
,  // measure 49
0010
1000
0100
0010
0001
0100
0100
0000
,  // measure 50
0010
1000
0100
0010
0001
1000
1000
0000
,  // measure 51
0010
0100
0001
0010
0100
1000
0001
0001
,  // measure 52
0100
0010
1000
0100
0010
0001
0100
0100
,  // measure 53
0010
1000
0100
0010
0001
1000
1000
0000
,  // measure 54
0010
0100
0001
0010
0100
1000
1000
0000
,  // measure 55
0001
0100
0010
1000
0100
0010
0001
0001
,  // measure 56
0100
0010
1000
0100
0010
0001
1000
1000
;

//---------------dance-double - ----------------
#NOTES:
     dance-double:
     :
     Easy:
     4:
     0.312129,0.272512,0.120049,0.000000,0.000000,172.000000,10.000000,0.000000,0.000000,0.000000,0.000000,0.312129,0.272512,0.120049,0.000000,0.000000,172.000000,10.000000,0.000000,0.000000,0.000000,0.000000:
00000000
00000000
00000000
00000000
,
00000000
00000000
00000000
00000000
,
00000000
00000000
00000000
00000000
,
00000000
00000000
00000000
00000000
,
00000000
00000000
00000000
00000000
,
00011000
00000000
00000000
00000000
,
10010000
00000000
00000000
00000000
,
00100000
00000000
00001000
00000000
,
00010000
00000100
00001000
00000001
,
00000100
00000100
00000010
00010000
,
00001000
00001000
00100000
00010000
,
10000000
10000000
01000000
00100000
,
00001000
00001000
00010000
00010000
,
00000100
00001000
00000001
00000001
,
00000100
00000010
00010000
00010000
,
00001000
00100000
00010000
00010000
,
10000000
01000000
00100000
00010000
,
01000000
01000000
00001000
00000000
,
00010000
00010000
00000010
00000000
,
00001000
00000001
00000010
00000100
,
00010000
00010000
00001000
00000000
,
00100000
00100000
00010000
00000000
,
10000000
10000000
01000000
00000000
,
00100000
00001000
00010000
00000000
,
00000100
00000100
00000010
00000010
,
00000001
00001000
00000100
00010000
,
00001000
00001000
00100000
00000000
,
00010000
10000000
00100000
01000000
,
00001000
00001000
00010000
00000000
,
00000100
00001000
00000001
00000100
,
00000010
00000010
00010000
00000000
,
00001000
00100000
00010000
00000000
,
10000000
10000000
10000000
00000000
,
00100000
01000000
10010000
00000000
,
01000000
00001000
00011000
00000000
,
00000100
00000100
00001000
00000001
,
00000100
00000100
00000100
00000000
,
00000010
00001000
00001001
00000000
,
00000100
00010000
00011000
00000000
,
00100000
00100000
00010000
10000000
,
01000000
01000000
01000000
00000000
,
00100000
00001000
00010000
00000000
,
00000100
00001000
00000001
00000000
,
00000100
00000010
00010000
00000000
,
00001000
00001000
00001000
00000000
,
00100000
00010000
10000000
00000000
,
01000000
00100000
00001000
00000000
,
00010000
00000010
00000100
00000000
,
00000001
00000010
00001000
00000100
,
00010000
00001000
00011000
00000000
,
00100000
01000000
10010000
00000000
,
01000000
00001000
00010000
00000010
,
00001000
00000001
00000010
00000100
,
00010000
00001000
00011000
00000000
,
00100000
01000000
10010000
00000000
,
01000000
00001000
00010000
00000010
,
00001000
00000001
00000010
00000100
;

//---------------dance-double - ----------------
#NOTES:
     dance-double:
     :
     Medium:
     6:
     0.435608,0.374704,0.348143,0.000000,0.000000,225.000000,29.000000,0.000000,0.000000,0.000000,0.000000,0.435608,0.374704,0.348143,0.000000,0.000000,225.000000,29.000000,0.000000,0.000000,0.000000,0.000000:
00000000
00000000
00000000
00000000
,
00000000
00000000
00000000
00000000
,
00000000
00000000
00000000
00000000
,
00000000
00000000
00000000
00000000
,
00000000
00000000
00000000
00000000
,
10010000
00000000
00000000
00000000
01000000
00001000
00010000
00000000
,
00011000
00000000
00000000
00000000
00000100
00001000
00000001
00000000
,
00000010
00000100
00010000
00001000
,
00100000
00010000
10000000
00000000
00100000
01000000
00010000
00000000
,
00100000
00000000
00100000
00000000
00001000
00010000
00001000
00000000
,
00000100
00000000
00000100
00000000
00000001
00000010
00000100
00000000
,
00010000
00000000
00010000
00000000
00001000
00100000
00010000
00000000
,
10000000
01000000
00010000
01000000
,
00001000
00000000
00001000
00000000
00010000
00000100
00001000
00000000
,
00000001
00000000
00000001
00000000
00000100
00000010
00001000
00000000
,
00000100
00000000
00000100
00000000
00010000
00001000
00100000
00000000
,
00010000
10000000
01000000
00100000
,
00010000
00000000
00010000
00000000
01000000
00001000
00010000
00000000
,
00000010
00000000
00000010
00000000
00001000
00000001
00000010
00000000
,
00000100
00000000
00010000
00000000
00001000
00100000
00010000
00000000
,
10000000
00100000
01000000
00000000
,
00001000
00000000
00001000
00000000
00000100
00010000
00001000
00000000
,
00000001
00000000
00000001
00000000
00000100
00000010
00001000
00000000
,
00000100
00010000
00001000
00000000
,
00100000
00000000
00010000
10000000
01000000
00000000
00100000
00000000
,
00001000
00000000
00010000
00000000
00000100
00001000
00000001
00000000
,
00000100
00000100
00000100
00000000
,
00000010
00000000
00001000
00000000
00000100
00010000
00001000
00000000
,
00100000
00100000
00100000
00000000
,
00010000
00000000
10000000
00000000
00100000
01000000
00001000
00000000
,
00010000
00010000
00010000
00000000
,
00001001
00000110
00001100
00011000
,
00001000
00010000
00001000
00000000
00100000
00000000
00000000
00000000
,
00010000
10000000
01000000
00000000
00100000
00000000
00000000
00000000
,
00001000
00010000
00000100
00000000
00000010
00000000
00000000
00000000
,
00000001
00000100
00000010
00000000
00001000
00000000
00000100
00000000
,
00011000
00110000
11000000
00000000
,
00010000
01000000
00001000
00000000
00010000
00000000
00000000
00000000
,
00000100
00001000
00000001
00000000
00000100
00000000
00000000
00000000
,
00001000
00000100
00010000
00000000
00001000
00000000
00100000
00000000
,
10010000
01100000
10010000
00000000
,
01000000
00001000
00010000
00000000
00000010
00000000
00001000
00000000
,
00000001
00000010
00000100
00000000
00010000
00000000
00001000
00000000
,
00100000
00010000
10000000
00000000
00100000
00000000
01000000
00000000
,
10010000
01001000
00010010
00000000
,
00000001
00000010
00000100
00000000
00010000
00000000
00001000
00000000
,
00100000
00010000
10000000
00000000
00100000
00000000
01000000
00000000
,
00001000
00010000
00000010
00000000
00001000
00000000
00000001
00000000
,
00000110
00001000
00011000
00100000
,
01000000
10000000
00010000
00000000
01001000
00000000
00000000
00000000
,
00010000
00000100
00001000
00000000
00000101
00000000
00000000
00000000
,
00001010
00000100
00011000
00100000
,
10010000
01000000
00110000
00001000
,
00010000
00000010
00001000
00000000
00000101
00000000
00000000
00000000
,
00001000
00000100
00010000
00000000
00101000
00000000
00000000
00000000
,
10010000
01000000
00110000
00001000
,
00010100
00001000
00000001
00000110
;

//---------------dance-double - ----------------
#NOTES:
     dance-double:
     :
     Hard:
     7:
     0.553943,0.512086,0.048020,0.000000,0.000000,319.000000,4.000000,0.000000,0.000000,0.000000,0.000000,0.553943,0.512086,0.048020,0.000000,0.000000,319.000000,4.000000,0.000000,0.000000,0.000000,0.000000:
00000000
00000000
00000000
00000000
,
00000000
00000000
00000000
00000000
,
00000000
00000000
00000000
00000000
,
00000000
00000000
00000000
00000000
,
00000000
00000000
00000000
00000000
,
10000000
01000000
00100000
00010000
01000000
00001000
00010000
00000000
,
00000010
00001000
00000001
00000010
00000100
00010000
00001000
00000000
,
00100000
00010000
10000000
00000000
00100000
01000000
00010000
00000000
,
00100000
00001000
00010000
00000100
00001000
00000001
00000100
00000000
,
00000010
00001000
00000100
00010000
00001000
00000000
00100000
00100000
,
00010000
10000000
01000000
00100000
00001000
00000000
00010000
00010000
,
00000100
00001000
00000001
00000100
00000010
00000000
00010000
00010000
,
00001000
00100000
00010000
10000000
00100000
01000000
00010000
00100000
,
00001000
00010000
00000100
00001000
00000001
00000000
00000100
00000100
,
00000010
00001000
00000100
00010000
00001000
00000000
00100000
00100000
,
00010000
10000000
00100000
01000000
00001000
00000000
00010000
00010000
,
00000100
00001000
00000010
00000100
00000001
00000000
00001000
00000000
,
00000100
00010000
00001000
00000000
00100000
00010000
10000000
00000000
,
01000000
00100000
00010000
00000000
01000000
00001000
00010000
00000000
,
00000100
00001000
00000001
00000010
00000100
00010000
00001000
00000000
,
00100000
00010000
10000000
01000000
00100000
00000000
00000000
00000000
,
00001000
00010000
00000010
00000000
00001000
00000001
00000100
00000000
,
00000010
00001000
00000100
00000000
00010000
00001000
00100000
00000000
,
00010000
10000000
01000000
00100000
00010000
00000000
00000000
00000000
,
01000000
00001000
00010000
00000010
00001000
00000001
00000010
00000000
,
00000100
00010000
00001000
00100000
00010000
10000000
00100000
00000000
,
01000000
00001000
00010000
00000010
00001000
00000000
00000000
00000000
,
00000001
00000010
00000100
00001000
00000010
00010000
00001000
00000000
,
00100000
00010000
10000000
01000000
00100000
00000000
00000000
00000000
,
00001000
00010000
00000010
00001000
00000001
00000010
00000100
00000000
,
00010000
00001000
00100000
00010000
10000000
00000000
00000000
00000000
,
00100000
01000000
00010000
00100000
00001000
00010000
00000100
00000000
,
00001000
00000001
00000010
00000100
00001000
00000000
00000000
00000000
,
00000100
00010000
00001000
00100000
00010000
00000000
00000000
00000000
,
01000000
00001000
00010000
00000010
00000100
00000000
00000000
00000000
,
00000001
00000010
00000100
00000000
00001000
00000010
00000100
00000000
,
00000001
00001000
00000100
00010000
00001000
00000000
00000000
00000000
,
00100000
00010000
01000000
00001000
00010000
00000000
00000000
00000000
,
00000010
00001000
00000100
00010000
00001000
00000000
00000000
00000000
,
00100000
00010000
10000000
00000000
00100000
01000000
00010000
00000000
,
00100000
00001000
00010000
00000100
00001000
00000000
00000000
00000000
,
00000000
00000001
00000100
00000010
00001000
00000000
00001000
00000000
,
00000000
00000100
00010000
00001000
00100000
00000000
00100000
00000000
,
00000000
00010000
10000000
01000000
00100000
00000000
00100000
00000000
,
00001000
00010000
00000010
00001000
00000001
00000000
00000000
00000000
,
00000000
00001000
00000100
00010000
00001000
00000000
00001000
00000000
,
00000000
00100000
00010000
10000000
01000000
00000000
01000000
00000000
,
00000000
00100000
00001000
00010000
00000010
00000000
00000010
00000000
,
00001000
00000001
00000010
00000100
00001000
00000010
00010000
00000000
,
00001000
00100000
00010000
01000000
00100000
00000000
10010000
00000000
,
01000000
00100000
00001000
00010000
00000100
00000000
00001001
00000000
,
00000010
00000100
00001000
00000001
00000100
00000010
00001000
00000100
,
00010000
00001000
00100000
00010000
10000000
00100000
01000000
00010000
,
10000000
01000000
00100000
00010000
01000000
00000000
00011000
00000000
,
00000100
00001000
00000001
00000100
00000010
00000000
00001001
00000000
,
00000100
00010000
00001000
00100000
00010000
10000000
00100000
01000000
,
00001000
00010000
00000100
00001000
00000001
00000100
00000010
00000100
;

//---------------dance-couple - ----------------
#NOTES:
     dance-couple:
     :
     Medium:
     6:
     0.330993,0.512086,0.324134,0.000000,0.000000,166.000000,27.000000,0.000000,0.000000,0.000000,0.000000,0.330993,0.512086,0.324134,0.000000,0.000000,166.000000,27.000000,0.000000,0.000000,0.000000,0.000000:
00000000
00000000
00000000
00000000
,
00000000
00000000
00000000
00000000
,
00000000
00000000
00000000
00000000
,
00000000
00000000
00000000
00000000
,
00000000
00000000
00000000
00000000
,
10010000
00000000
00000000
00000000
,
00001001
00000000
00000000
00000000
,
10001000
01000100
00100010
00010001
,
10001000
01000100
00100010
00010001
10001000
01000100
00100010
00000000
,
10010000
11000000
00110000
01010000
,
10010000
11000000
01010000
10100000
,
00001001
00001100
00000011
00000101
,
00001001
00001100
00000101
00001010
,
10010000
11000000
00110000
01010000
,
10100000
11000000
00110000
01010000
,
00001001
00001100
00000011
00000101
,
00001010
00001100
00000011
00000101
,
01000000
00000000
01000000
00000000
,
00100000
00000000
00100000
00000000
,
00010000
00000000
10000000
00000000
,
00100010
00100010
00100010
00000000
,
00000100
00000000
00000100
00000000
,
00000001
00000000
00000001
00000000
,
00001000
00000000
00000100
00000000
,
00100010
00010001
00100010
00010001
,
10000000
00000000
10000000
00000000
00010000
00100000
00010000
00000000
,
10010000
10100000
01010000
00000000
,
00001000
00000000
00001000
00000000
00000001
00000010
00000001
00000000
,
00001001
00001010
00000101
00000000
,
10001000
00000000
01000100
00000000
00100010
00010001
01000100
00000000
,
11000000
00001100
10010000
00001001
,
01000100
00100010
10001000
00000000
01000100
00100010
00010001
00000000
,
01000100
00100010
10001000
01000100
00100010
00000000
00000000
00000000
,
00010001
01000000
00100000
00000000
10010000
00000000
00000000
00000000
,
01000001
00100000
10000000
00000000
11000000
00000000
00000000
00000000
,
00100001
00010000
00100000
00000000
01000000
10000000
01000000
00000000
,
01010001
10100000
11000000
00000000
,
00100001
00000100
00000010
00000000
00001001
00000000
00000000
00000000
,
00100100
00000010
00001000
00000000
00001100
00000000
00000000
00000000
,
00100010
00000001
00000010
00000000
00000100
00001000
00000100
00000000
,
00100101
00001010
00001100
00000000
,
00000010
01000000
00010000
00100000
01000000
00000000
01000000
00000000
,
00000010
10000000
00100000
01000000
00010000
00000000
00010000
00000000
,
00000010
00100000
01000000
10000000
00100000
00000000
00100000
00000000
,
01000001
00010100
01000001
00010100
01000001
00000000
00000000
00000000
,
00100000
00000010
00001000
00000100
00000010
00000000
00000010
00000000
,
00100000
00000001
00000100
00000010
00001000
00000000
00001000
00000000
,
00100000
00000100
00000010
00000001
00000100
00000000
00000100
00000000
,
01000010
10001000
00010001
00100100
01000010
10001000
00010001
00000000
,
00100000
00010000
01000100
00100000
10000000
01000000
01000000
00000000
,
00100000
00010000
01000100
00100000
10000000
00010000
00010000
00000000
,
00100010
01000100
10000001
00100010
01000100
00011000
10000001
10000001
,
01000100
00100010
00011000
01000100
00100010
10000001
01000100
01000100
,
00000010
00001000
00100100
00000010
00000001
00001000
00001000
00000000
,
00000010
00000100
00100001
00000010
00000100
00001000
00001000
00000000
,
00010001
01000100
00100010
10001000
01000100
00100010
00010001
00010001
,
01000100
00100010
10001000
01000100
00100010
00010001
10001000
10001000
;

//---------------dance-solo - ----------------
#NOTES:
     dance-solo:
     :
     Easy:
     4:
     0.312129,0.272512,0.024010,0.000000,0.000000,180.000000,2.000000,0.000000,0.000000,0.000000,0.000000,0.312129,0.272512,0.024010,0.000000,0.000000,180.000000,2.000000,0.000000,0.000000,0.000000,0.000000:
000000
000000
000000
000000
,
000000
000000
000000
000000
,
000000
000000
000000
000000
,
000000
000000
000000
000000
,
000000
000000
000000
000000
,
010010
000000
000000
000000
,
010010
000000
000000
000000
,
100000
001000
000001
001000
,
000100
000100
000100
000100
,
100000
000010
100000
000100
,
001000
000001
001000
000010
,
100000
001000
010000
001000
,
000100
000001
010000
000001
,
100000
000010
100000
000001
,
010000
001000
010000
000001
,
000100
000010
010000
000010
,
100000
000100
001000
000100
,
100000
001000
010000
000000
,
000001
001000
000010
000000
,
100000
000100
010000
000000
,
000001
000100
000010
000000
,
010000
000100
001000
000000
,
000010
000100
001000
000000
,
100000
000001
001000
000000
,
000010
000010
010000
010000
,
000100
001000
000001
100000
,
001000
001000
001000
000000
,
010000
000001
100000
000010
,
001000
001000
001000
000000
,
000100
100000
001000
010000
,
000001
000001
000001
000000
,
100000
000100
001000
000010
,
100000
100000
100000
000000
,
000001
010000
001000
000000
,
000100
000001
010000
000000
,
000010
000010
100000
100000
,
000100
001000
000010
000000
,
100000
000001
010000
000000
,
001000
000100
000001
000000
,
010000
010000
000010
000010
,
100000
000100
001000
000000
,
000010
000010
100000
100000
,
000001
000001
010000
010000
,
001000
001000
000100
000100
,
000001
100000
000100
000000
,
001000
001000
000010
000010
,
100000
100000
000001
000001
,
010000
010000
001000
001000
,
000001
001000
100000
001000
,
010000
010000
000001
000000
,
100000
100000
000010
000000
,
001000
000100
100000
001000
,
010000
000001
100000
000010
,
001000
001000
000100
000000
,
100000
100000
000010
000000
,
010000
001000
000010
001000
,
000100
100000
000010
010000
;

//---------------dance-solo - ----------------
#NOTES:
     dance-solo:
     :
     Medium:
     6:
     0.420173,0.409669,0.252104,0.000000,0.000000,224.000000,21.000000,0.000000,0.000000,0.000000,0.000000,0.420173,0.409669,0.252104,0.000000,0.000000,224.000000,21.000000,0.000000,0.000000,0.000000,0.000000:
000000
000000
000000
000000
,
000000
000000
000000
000000
,
000000
000000
000000
000000
,
000000
000000
000000
000000
,
000000
000000
000000
000000
,
100001
000000
000000
000000
000010
001000
000010
000000
,
100001
000000
000000
000000
010000
001000
010000
000000
,
000001
000000
100000
000000
,
000010
000000
001000
000000
000100
100000
001000
000000
,
010000
000000
000001
000000
001000
000010
100000
000000
,
000100
000000
010000
000000
000010
000100
000001
000000
,
010000
000000
001000
000000
000100
000001
001000
000000
,
000010
000000
100000
000000
000100
010000
000010
000000
,
000100
000000
001000
000000
010000
000001
001000
000000
,
000010
000000
100000
000000
000100
010000
000010
000000
,
000100
000000
000001
000000
100000
000010
010000
000000
,
000100
000000
001000
000000
000001
100000
001000
000000
,
000100
000000
000001
000000
010000
000010
000100
000000
,
000001
000000
100000
000000
001000
010000
000001
000000
,
000100
000010
100000
001000
,
010000
000000
000001
100000
000100
000000
000000
000000
,
001000
000000
000010
000000
100000
001000
010000
000000
,
000100
000000
001000
000000
000010
100000
000001
000000
,
010000
001000
000100
000000
,
000001
000000
010000
000100
100000
000000
000010
000000
,
010000
000000
010000
000000
000001
000100
000001
000000
,
001000
000010
100000
000000
,
001000
000000
001000
000000
010000
000001
010000
000000
,
000010
000100
001000
000000
,
100000
000000
100000
000000
000001
001000
000001
000000
,
000100
001000
010000
000000
,
000001
100000
000010
000000
010000
000001
100000
000000
,
000010
001000
000100
000000
,
100001
011000
000101
000000
,
000010
010000
000100
000000
100000
000000
000000
000000
,
000001
000100
001000
100000
,
010001
100010
001100
000000
,
100001
000110
010001
000000
,
000010
000100
000001
000000
010000
000000
000000
000000
,
000100
100000
000010
010000
,
100001
011000
001010
000000
,
000001
100000
001000
000000
010000
000000
000001
000000
,
100000
000010
001000
000000
000100
000000
100000
000000
,
001000
010000
000001
000000
000100
000000
000010
000000
,
100001
011000
100001
000000
,
000010
001000
000100
000000
100000
000000
001000
000000
,
010000
000001
000100
000000
000010
000000
010000
000000
,
000100
100000
001000
000000
000100
000001
001000
000000
,
000010
100000
000100
010000
,
000010
000100
100001
000000
,
001000
010000
000001
000000
100010
000000
000000
000000
,
000100
000000
010000
000000
001000
000000
000100
000001
,
010000
000000
000010
000000
100000
000000
000100
001000
,
000010
100000
010001
000000
,
000010
000100
000001
000000
011000
000000
000000
000000
,
000001
000000
001000
000000
000100
000000
100000
000010
,
010000
000000
000001
000000
000100
000000
001000
010000
;

//---------------dance-solo - ----------------
#NOTES:
     dance-solo:
     :
     Hard:
     8:
     0.589957,0.512086,0.120049,0.000000,0.048020,334.000000,10.000000,0.000000,0.000000,0.000000,0.000000,0.589957,0.512086,0.120049,0.000000,0.048020,334.000000,10.000000,0.000000,0.000000,0.000000,0.000000:
000000
000000
000000
000000
,
000000
000000
000000
000000
,
000000
000000
000000
000000
,
000000
000000
000000
000000
,
000000
000000
000000
000000
,
010000
000001
000100
001000
010000
000001
100000
000000
,
000010
001000
000100
100000
001000
010000
000001
000000
,
000100
001000
010000
000000
000001
100000
000010
000000
,
001000
000100
100000
001000
010000
000001
000100
000010
,
010000
000000
000000
000000
000100
000000
000000
001000
000000
000000
000010
000000
000100
000000
000001
000000
,
100000
000000
000000
000000
001000
000000
000000
010000
000000
000000
000001
000000
000100
000000
000010
000000
,
010000
000000
000000
000000
001000
000000
000000
000100
000000
000000
000001
000000
100000
000000
000010
000000
,
001000
000000
000000
000000
000100
000000
000000
100000
000000
000000
000010
000000
010000
000000
000001
000000
,
000100
000000
000000
000000
001000
000000
000000
010000
000000
000000
000001
000000
100000
000000
000010
000000
,
001000
000000
000000
000000
000100
000000
000000
100000
000000
000000
000010
000000
010000
000000
000001
000000
,
000100
000000
000000
000000
000010
000000
000000
010000
000000
000000
000100
000000
100000
000000
000001
000000
,
001000
000000
000000
000000
000100
000000
000000
100000
000000
000000
000010
000000
010000
000000
000001
000000
,
000100
001000
010000
000000
000001
100000
000010
000000
,
001000
000100
100000
000000
000010
010000
000001
000000
,
000100
001000
010000
000001
100000
000010
001000
000000
,
000100
100000
001000
000100
000001
000000
010010
000000
,
100000
000100
001000
000000
000010
100000
000001
000000
,
010000
001000
000100
000000
000001
100000
000010
000000
,
001000
000100
100000
001000
010000
000001
000100
000000
,
001000
100000
000001
001000
000010
000000
100001
000000
,
001000
010000
000001
000000
001000
000010
100000
000000
,
001000
010000
000001
100000
000010
000000
000000
000000
,
001000
000100
100000
000000
001000
010000
000001
000000
,
000100
001000
010000
000001
100000
000000
000000
000000
,
000010
010000
000100
000000
100000
001000
010000
000000
,
000001
001000
000100
100000
001000
000000
000000
000000
,
010000
000001
000100
000010
010000
000100
100000
000000
,
001000
000100
000001
010000
000010
000000
000000
000000
,
100000
000100
001000
000010
100000
000001
010000
000000
,
001000
000100
000001
001000
000010
100000
000100
000000
,
001000
000010
100000
001000
010000
000001
001000
000010
,
100000
000100
010000
001000
000100
000001
000001
000000
,
010000
000010
100000
000100
001000
000001
100000
000000
,
001000
010000
000001
000100
000010
010000
000100
000000
,
100000
001000
010000
000001
100000
000010
001000
000100
,
100000
001000
000100
000001
010000
000000
000000
000000
,
000010
100000
000100
001000
000010
000000
100001
000000
,
010000
001000
000100
000001
010000
000000
101000
000000
,
000001
001000
000100
100000
000010
000000
001001
000000
,
000100
100000
001000
010000
000001
000000
000000
000000
,
001000
000010
100000
000100
010000
000000
100001
000000
,
010000
001000
000100
000001
100000
000000
001100
000000
,
000001
010000
000010
100000
000100
000000
010010
000000
,
000001
100000
001000
000100
000001
010000
000010
100000
,
000100
001000
000001
000100
001000
010000
000001
000000
,
100000
000010
001000
000100
100000
001000
010000
000000
,
000001
000100
000010
010000
000100
100000
000010
001000
,
000001
000100
001000
010000
000001
100000
000010
001000
,
000100
100000
001000
000100
000001
000000
010010
000000
,
100000
000100
001000
000010
100000
000000
010001
000000
,
001000
000100
000001
010000
001000
000100
000001
001000
,
000100
100000
000010
010000
000001
000100
001000
010000
;

//---------------dance-single - ----------------
#NOTES:
     dance-single:
     :
     Challenge:
     13:
     0.728872,0.696287,0.204084,0.024010,0.342141,406.000000,17.000000,2.000000,92.000000,0.000000,0.000000,0.728872,0.696287,0.204084,0.024010,0.342141,406.000000,17.000000,2.000000,92.000000,0.000000,0.000000:
// measure 0
0000
0000
0000
0000
,  // measure 1
0000
0000
0000
0000
,  // measure 2
0000
0000
0000
0000
,  // measure 3
0000
0000
0000
0000
,  // measure 4
0000
0000
0000
0000
,  // measure 5
1000
0000
0100
0001
0100
0000
1000
0000
,  // measure 6
0001
0000
0010
1000
0010
0001
0100
0000
,  // measure 7
0001
0010
0100
1000
0001
0010
0100
1000
,  // measure 8
0001
0010
0001
0010
0100
1000
0100
1000
,  // measure 9
0001
0000
MMMM
0000
0001
1000
0000
0010
0000
0000
1000
0000
0100
0000
0010
0000
,  // measure 10
0001
0000
0100
0000
0010
0000
0100
0001
0000
0000
0010
0000
0100
0000
MMMM
0000
,  // measure 11
0001
0000
0010
0000
0001
1000
0000
0010
0000
0000
1000
0000
0100
0000
MMMM
0000
,  // measure 12
0010
0000
0001
0000
0100
0000
0010
0100
0000
0000
0001
0000
1000
0000
MMMM
0000
,  // measure 13
0010
0000
0100
0000
0001
0100
0000
0010
0000
0000
1000
0000
0100
0000
MMMM
0000
,  // measure 14
0001
0000
0010
0000
0001
0000
0100
0010
0000
0000
1000
0000
0100
0000
MMMM
0000
,  // measure 15
1000
0000
0010
0000
0100
0010
0000
0000
MMMM
0000
1000
0000
0001
0000
0010
0000
,  // measure 16
0001
0100
0001
0000
0010
0000
0100
0000
1000
0000
0001
0000
1000
0000
0010
0000
,  // measure 17
0100
0001
0010
0100
1000
0010
1000
0000
,  // measure 18
0001
0100
0010
0100
0001
0001
1000
0000
,  // measure 19
0010
0100
0001
0100
0010
1000
0100
0010
,  // measure 20
0001
0000
0100
0000
0010
0000
1000
0000
0001
0000
1000
0100
1000
0000
0010
0000
,  // measure 21
MMMM
0000
0100
0001
0010
0100
1000
0000
,  // measure 22
0001
0000
0100
0000
1000
0000
0100
0000
0001
0000
0010
0000
0100
1000
0100
0000
,  // measure 23
0010
0000
0100
0000
0001
0010
0001
0000
1000
0000
0010
0000
0100
0010
0100
0000
,  // measure 24
0001
0010
0100
1000
0001
0010
0100
1000
,  // measure 25
MMMM
0001
0100
1000
0100
0001
0010
0000
,  // measure 26
1100
MMMM
1001
MMMM
0101
MMMM
0000
MMMM
,  // measure 27
0000
1000
0100
0001
0100
1000
0010
0100
,  // measure 28
0101
0000
MMMM
0000
1001
0000
MMMM
0000
1010
0000
1000
0010
1000
0000
0001
0000
,  // measure 29
0100
0010
1000
0010
0100
0001
0010
0100
,  // measure 30
1100
MMMM
1010
MMMM
0110
MMMM
0101
MMMM
,  // measure 31
0000
0001
0000
1000
0000
0010
0000
1000
,  // measure 32
0100
0000
0010
0000
0001
0000
0100
0000
0010
0000
0100
0001
0100
0000
0010
0000
,  // measure 33
1000
0000
0100
0000
0010
0001
0000
0000
0100
0000
0010
0000
1000
0000
0001
0000
,  // measure 34
1000
0000
0010
0000
0100
0001
0000
0000
0010
0000
0100
0000
1000
0000
0010
0000
,  // measure 35
1000
0000
0100
0000
0010
0001
0000
0000
0100
0000
0010
0000
1000
0000
0010
0000
,  // measure 36
0101
0000
MMMM
0000
1001
0000
MMMM
0000
1010
0000
1000
0001
1000
0000
0010
0000
,  // measure 37
0100
0000
0001
0000
0010
0100
0000
0000
1000
0000
0010
0000
0100
0000
0010
0000
,  // measure 38
1000
0000
0100
0000
0010
0001
0000
0010
0001
0000
1000
0000
0010
0000
0100
0000
,  // measure 39
0001
0000
0010
0000
0001
0000
1000
0000
0010
0100
0000
0001
0100
0000
0010
0000
,  // measure 40
1000
0100
1000
0000
0100
0000
0001
0000
0100
0000
1000
0010
1000
0000
0001
0000
,  // measure 41
0100
0000
0010
0000
1000
0010
0000
1000
0001
0000
0100
0000
1000
0000
0100
0000
,  // measure 42
0001
0000
0010
0000
0100
0010
0000
0001
0010
0000
1000
0000
0010
0000
0001
0000
,  // measure 43
0100
0000
0010
0000
1000
0010
0000
1000
0100
0000
1000
0000
0010
0000
0100
0000
,  // measure 44
0101
0000
MMMM
0000
0011
0000
MMMM
0000
1010
0000
0010
0100
0010
0000
1000
0000
,  // measure 45
0100
0000
0010
0000
0001
0010
0000
0100
0010
0000
0001
0000
0100
0000
1000
0000
,  // measure 46
0100
0000
0001
0000
0010
0100
0000
1000
0100
0000
1000
0000
0001
0100
0001
0000
,  // measure 47
1000
0000
0010
0000
0100
0001
0100
0000
0010
0000
1000
0000
0100
0010
0100
0000
,  // measure 48
0010
0000
0001
0000
1000
0001
0000
1000
0010
0000
0100
0000
0001
0000
0100
0000
,  // measure 49
0010
1000
0010
1000
0001
0100
0001
0100
,  // measure 50
0010
0000
1000
0000
0100
0010
0000
0001
0010
0000
0001
0000
0100
0000
0010
0000
,  // measure 51
1000
0000
0001
0000
1000
0010
0000
1000
0010
0000
0100
0000
0001
0000
0010
0000
,  // measure 52
0100
0000
1000
0000
0001
0010
0000
0001
0010
0000
1000
0000
0010
0000
0001
0000
,  // measure 53
0100
0000
0010
0000
1000
0100
0000
1000
0100
0000
0010
0000
0001
0000
0100
0000
,  // measure 54
0010
0000
1000
0000
0010
0100
0000
0001
0100
0000
0010
0000
1000
0000
0100
0000
,  // measure 55
1000
0000
0001
0000
0010
0001
0000
0010
0100
0000
0001
0000
0100
0000
1000
0000
,  // measure 56
0010
0000
0100
0000
0001
0000
0010
0001
0000
0000
0010
0000
0010
0000
0100
0000
,  // measure 57
2002
0000
0000
0000
,  // measure 58
3003
0000
0000
0000
;

//---------------dance-single - ----------------
#NOTES:
     dance-single:
     :
     Beginner:
     3:
     0.168069,0.205285,0.012005,0.000000,0.000000,97.000000,1.000000,0.000000,0.000000,0.000000,0.000000,0.168069,0.205285,0.012005,0.000000,0.000000,97.000000,1.000000,0.000000,0.000000,0.000000,0.000000:
// measure 0
0000
0000
0000
0000
,  // measure 1
0000
0000
0000
0000
,  // measure 2
0000
0000
0000
0000
,  // measure 3
0000
0000
0000
0000
,  // measure 4
0000
0000
0000
0000
,  // measure 5
1000
0000
0000
0000
,  // measure 6
1000
0000
0000
0000
,  // measure 7
0001
0000
0000
0000
,  // measure 8
0001
0000
0000
0000
,  // measure 9
0100
0000
0100
0000
,  // measure 10
0010
0000
0010
0000
,  // measure 11
1000
0000
1000
0000
,  // measure 12
0001
0000
0001
0000
,  // measure 13
0100
0000
0100
0000
,  // measure 14
0010
0000
0010
0000
,  // measure 15
1000
0000
1000
0000
,  // measure 16
1000
0000
0001
0000
,  // measure 17
0001
0000
0001
0000
,  // measure 18
0100
0000
0000
0000
,  // measure 19
0000
0000
0010
0000
,  // measure 20
0000
0000
0000
0000
,  // measure 21
1000
0000
0001
0000
,  // measure 22
1000
0000
0000
0000
,  // measure 23
0001
0001
0001
0000
,  // measure 24
0100
0000
0100
0000
,  // measure 25
0010
0000
0010
0000
,  // measure 26
1000
1000
1000
0000
,  // measure 27
0000
0000
0001
0000
,  // measure 28
0100
0100
0100
0000
,  // measure 29
0010
0000
1000
0000
,  // measure 30
0001
0001
0001
0000
,  // measure 31
0100
0000
0010
0000
,  // measure 32
0100
0000
0000
0000
,  // measure 33
0100
0000
0001
0000
,  // measure 34
0100
0000
0010
0000
,  // measure 35
0100
0000
0010
0000
,  // measure 36
1000
0000
0100
0000
,  // measure 37
0010
0000
0001
0000
,  // measure 38
0100
0000
0000
0000
,  // measure 39
0010
0000
1000
0000
,  // measure 40
0010
0000
0100
0000
,  // measure 41
0001
0001
0001
0000
,  // measure 42
1000
1000
1000
0000
,  // measure 43
0010
0010
0010
0000
,  // measure 44
0100
0000
0100
0000
,  // measure 45
0001
0000
0000
0000
,  // measure 46
0001
0000
0001
0000
,  // measure 47
1000
0000
1000
0000
,  // measure 48
0010
0000
0010
0000
,  // measure 49
0100
0100
0100
0000
,  // measure 50
0001
0000
1000
0000
,  // measure 51
0001
0000
0000
0000
,  // measure 52
0010
0000
0000
0000
,  // measure 53
0100
0100
0100
0000
,  // measure 54
1000
0000
0001
0000
,  // measure 55
1000
0000
0000
0000
,  // measure 56
0010
0000
0000
0000
,  // measure 57
1001
0000
0000
0000
;
