#TITLE:Grand Chariot;
#SUBTITLE:;
#ARTIST:xi;
#TITLETRANSLIT:;
#SUBTITLETRANSLIT:;
#ARTISTTRANSLIT:;
#GENRE:;
#CREDIT:;
#BANNER:Grand Chariot.png;
#BACKGROUND:Grand Chariot-bg.png;
#LYRICSPATH:;
#CDTITLE:;
#MUSIC:Grand Chariot.ogg;
#OFFSET:0.000000;
#SAMPLESTART:9.997084;
#SAMPLELENGTH:15.000000;
#SELECTABLE:YES;
#BPMS:0.000000=191.000000
;
#STOPS:
;
#BGCHANGES:;
#KEYSOUNDS:;
#ATTACKS:;

//---------------dance-single - ----------------
#NOTES:
     dance-single:
     :
     Beginner:
     3:
     0.110237,0.233910,0.016076,0.144686,0.000000,96.000000,94.000000,2.000000,18.000000,0.000000,0.000000,0.110237,0.233910,0.016076,0.144686,0.000000,96.000000,94.000000,2.000000,18.000000,0.000000,0.000000:
0000
0000
0000
0000
,
0000
0000
0000
0000
,
0000
0000
0000
0000
,
0000
0000
0000
0000
,
0000
0000
0000
0000
,
0000
0000
0000
0000
,
1000
0000
0000
0000
,
0010
0000
0000
0000
,
0001
0000
0001
0000
,
1000
0000
0000
0000
,
0002
0000
0000
0000
,
0000
0000
0003
0000
,
0002
0000
0003
0000
,
0010
0000
0010
0000
,
2000
0000
3000
0000
,
0002
0000
0003
0000
,
0200
0000
0300
0000
,
0200
0300
0100
0000
,
0001
0000
0000
0000
,
1000
0000
0000
0000
,
0001
0000
0000
0000
,
0000
0000
0000
0000
,
0010
0000
0000
0000
,
0001
0000
0000
0000
,
1000
0000
1000
0000
,
1000
0000
0000
0000
,
0000
0020
0000
0000
,
0000
0030
0000
0000
,
0001
0000
0000
0000
,
1000
0000
0000
0000
,
0010
0000
0000
0000
,
0010
0000
0010
0000
,
0001
0000
1000
0000
,
0001
0000
0000
0000
,
0001
0000
0000
0000
,
0010
0000
0000
0000
,
1000
0000
0000
0000
,
0100
0000
0000
0000
,
0001
0000
0000
0000
,
0010
0000
0000
0000
,
0001
0000
0000
0000
,
1001
0000
0000
0000
,
0002
0000
0003
0000
,
2000
0000
3000
0000
,
0010
0000
0000
0000
,
0010
0000
0000
0000
,
0001
0000
0001
0000
,
1000
0000
1000
0000
,
0002
0000
0000
0000
,
0000
0000
0000
0000
,
0000
0000
0000
0000
,
0000
0003
0000
0000
,
2000
0000
0000
0000
,
3000
0000
0000
0000
,
0002
0000
0000
0000
,
0003
0000
0000
0000
,
0200
0000
0000
0000
,
0000
0000
0000
0000
,
0000
0000
0000
0000
,
0300
0000
0000
0000
,
0010
0000
0000
0000
,
0010
0000
0010
0000
,
0010
0000
0000
0000
,
0000
0000
0000
0000
,
0001
0000
0000
0000
,
1000
0000
0000
0000
,
0001
0000
0000
0000
,
0001
0000
0000
0000
,
0010
0000
0010
0000
,
0010
0000
0010
0000
,
1001
0000
0000
0000
,
0000
0000
0000
0000
,
0002
0000
0003
0000
,
2000
0000
3000
0000
,
0200
0000
0000
0300
,
0000
0000
0000
0000
,
0001
0000
0001
0000
,
1000
0000
1000
0000
,
0001
0000
0001
0000
,
1000
0000
1000
0000
,
0010
0000
0010
0000
,
0100
0000
0100
0000
,
0010
0000
0000
0000
,
0000
0000
0000
0000
,
0010
0020
0000
0000
,
0000
0030
0000
0000
,
0001
0000
0001
0000
,
1000
0000
1000
0000
,
0010
0000
0010
0000
,
0100
0000
0100
0000
,
0001
0000
0000
0000
,
1000
0000
0000
0000
,
0100
0000
0000
0000
,
0000
0000
0000
0000
,
0000
0020
0000
0000
,
0000
0000
0000
0000
,
0000
0000
0000
0000
,
0030
0000
0000
0000
;

//---------------dance-single - ----------------
#NOTES:
     dance-single:
     :
     Easy:
     7:
     0.259517,0.350864,0.080381,0.144686,0.000000,226.000000,216.000000,10.000000,18.000000,0.000000,0.000000,0.259517,0.350864,0.080381,0.144686,0.000000,226.000000,216.000000,10.000000,18.000000,0.000000,0.000000:
0000
0000
0000
0000
,
0000
0000
0000
0000
,
0000
0000
0000
0000
,
0000
0000
0000
0000
,
0000
0000
0000
0000
,
0000
0000
0000
0000
,
0001
0000
0000
1000
,
0001
0000
0000
0010
,
1000
0000
0001
0000
,
0100
0000
0000
0000
,
0010
0000
1000
0010
,
1000
0010
0100
0000
,
2000
3000
0001
0100
,
0002
0003
0020
0030
,
0001
1000
0010
0000
,
0100
0001
1000
0000
,
0010
0100
0001
0001
,
1000
1000
0100
0000
,
1000
0000
1000
0001
,
1000
0100
0010
0000
,
0001
0000
1000
0001
,
0001
0000
1000
0010
,
1000
0000
0010
0001
,
0010
0001
0100
0000
,
0001
0001
0100
0000
,
1000
1000
0010
0000
,
0000
1001
0000
0000
,
0001
0100
0010
0000
,
1000
1000
0001
0001
,
0100
0000
1000
0010
,
1000
0000
0001
0000
,
0100
0010
0010
0000
,
1001
0000
0110
0000
,
1001
0000
1001
0000
,
0001
0000
0010
0001
,
1000
1000
0100
0000
,
1000
0000
0010
1000
,
0001
0001
0010
0000
,
0001
0000
0010
0001
,
0100
0100
0010
0000
,
1000
0001
1000
0000
,
0110
0000
0000
1000
,
0001
0000
0100
0001
,
0010
0000
0001
0000
,
1000
0000
0100
1000
,
0010
0000
1000
0010
,
1000
0000
0100
0010
,
0001
0001
1000
1000
,
0002
0000
0000
1000
,
0000
0000
1003
0100
,
2000
0000
0000
0001
,
0000
0000
3001
0100
,
0020
0000
0000
0000
,
0000
0000
0030
0000
,
2000
0000
0000
0000
,
0000
3000
0000
0000
,
2000
0000
0000
3000
,
0002
0000
0000
0003
,
0020
0000
0000
0030
,
0200
0300
0010
0100
,
2000
0000
0000
3000
,
0002
0003
2000
3000
,
0010
0000
0000
0000
,
0000
0000
0000
0000
,
1000
1000
0010
1000
,
0001
0001
0100
0000
,
1001
0000
0010
0100
,
1001
0000
1000
0001
,
0010
0010
0001
1000
,
0001
0001
0010
0010
,
0100
0000
0000
0010
,
1001
0000
0000
0000
,
0020
0000
0000
0030
,
0002
0000
0000
1003
,
0200
0000
0000
0300
,
0000
0000
0000
0000
,
0001
0010
0001
0001
,
1000
0010
1000
1000
,
0001
0100
0010
0000
,
1000
0100
0010
0000
,
0001
0010
0001
0001
,
1000
0010
1000
1000
,
0001
0000
0000
1000
,
0000
0000
0010
0100
,
0000
1001
0000
0001
,
0100
0010
0100
0100
,
0001
0010
1000
0000
,
1000
0010
0001
0000
,
0001
0010
0001
0010
,
0100
1000
0100
1000
,
0001
0000
0000
1000
,
0010
0000
0000
0100
,
0001
0000
0000
0000
,
0000
0000
0000
0000
,
0000
2000
0000
0000
,
0000
0000
0000
0000
,
0000
0000
0000
0000
,
3000
0000
0000
0000
;

//---------------dance-single - ----------------
#NOTES:
     dance-single:
     :
     Medium:
     11:
     0.470805,0.584774,0.217030,0.144686,0.028133,410.000000,383.000000,27.000000,18.000000,0.000000,0.000000,0.470805,0.584774,0.217030,0.144686,0.028133,410.000000,383.000000,27.000000,18.000000,0.000000,0.000000:
0000
0000
0000
0000
,
0000
0000
0000
0000
,
0000
0000
0000
0000
,
0000
0000
0000
0000
,
0000
0000
0000
0000
,
0000
0000
0000
0000
,
0010
0000
0100
0000
0001
0000
1000
0100
,
1000
0000
0001
0000
0010
0000
0001
0100
,
0001
0000
0000
1000
0010
0000
0000
0100
,
0001
0000
0000
0000
0000
1000
0000
0001
,
0100
0000
0001
0000
0010
0000
0100
0010
,
0001
0000
0100
0000
0010
1000
0001
0000
,
0200
0000
0301
0000
0010
0000
0001
1000
,
0002
0000
0013
0000
0010
0100
1000
0000
,
0100
1000
0100
0000
0010
0001
0010
0000
,
0001
1000
0010
0000
0100
0001
1000
0000
,
0100
1000
0100
1000
0001
0100
0001
0100
,
0010
1000
0010
0000
0100
0001
0000
0000
,
0100
0010
1000
0001
,
0100
0000
0010
1000
0010
0000
0100
0000
,
0001
0000
1000
0000
0100
0000
0010
0001
,
0010
0100
1100
1001
,
0100
0010
1000
0000
0001
0100
0000
0001
,
1000
0000
0100
0000
0010
0100
0010
0000
,
0200
0000
1300
0001
0200
0000
0310
0100
,
0002
0000
0013
0001
2000
0000
3000
0000
,
0000
2001
3100
0010
,
0100
0000
1000
0100
0010
0000
0001
0000
,
1000
0000
0010
0000
0100
0000
0001
1000
,
0010
1000
1100
1001
,
0100
1000
0001
0000
0010
0001
0000
1000
,
0100
0000
1000
0000
0001
0100
0010
0000
,
1000
0100
0000
0000
0001
0100
0000
0000
,
0010
0000
0000
1000
0000
0000
0010
0000
0100
0000
0000
0001
0000
0000
0100
0000
,
0001
0000
0000
0000
0010
0000
0000
0000
0100
0000
0000
1000
0000
0000
0001
0000
,
0010
0100
1100
0001
,
1000
0000
0000
0000
0010
0000
0000
0000
0100
0000
0000
0001
0000
0000
0100
0000
,
0010
1010
0110
0101
,
0001
0000
0000
0000
0010
0000
0000
0000
0100
0000
0000
1000
0000
0000
0010
0000
,
1000
0000
0100
0000
0010
0000
0100
1000
,
0001
0000
0000
0000
1001
0000
0000
0000
1000
0000
0000
0010
0000
0000
0100
0000
,
0001
0000
0000
0010
0000
0000
0001
0000
1000
0000
0000
0000
0001
0000
0100
0000
,
0020
1000
0130
0001
,
0001
0000
1000
0000
0010
0000
1000
0001
,
0020
0001
0130
1000
,
0001
0000
0010
0000
0100
1000
0100
1000
,
0001
0000
0010
0001
0100
0000
0001
0010
,
0100
0000
1000
0000
0010
0100
0010
0100
,
0010
0000
0000
1010
0000
0000
1001
0000
,
0000
0011
0000
0000
0101
0000
1100
0000
,
0101
0000
0000
0011
0000
0000
1001
0000
,
0000
1010
0000
0000
0110
0000
1001
0000
,
0220
0000
0000
0000
,
0000
0000
0000
0330
,
0200
0000
0000
0000
,
0000
0300
0000
0010
,
0002
0000
0000
0003
,
0020
0000
0000
0030
,
0100
0000
0000
1000
0000
0000
0001
0000
,
0100
0000
0000
0001
0000
0000
1000
0000
,
0100
0000
0000
0010
0000
0000
0001
0000
,
2000
3000
0002
0003
,
1000
0000
0000
0100
0000
0000
1000
0000
,
0000
0001
0000
0000
0100
0000
0010
0100
,
0010
0000
1000
0000
0001
0000
0100
0001
,
0100
0000
0001
0000
0010
0000
0100
1000
,
0100
0000
0010
0000
0001
0000
0010
0100
,
1000
0000
0001
0000
0010
0000
0001
1000
,
0001
0000
0100
0000
0001
0000
1000
0010
,
1000
0000
0010
0000
0100
0001
0100
0001
,
1000
0000
0000
0001
0000
0000
0010
0001
,
0010
0000
0000
0100
0000
0000
1000
0000
,
0010
0000
0000
0100
0000
0000
0001
0010
,
0100
0000
0000
0010
0000
0000
0001
1000
,
0020
0100
0100
0130
,
0001
1000
0001
1000
0100
0000
1000
0000
,
0001
0000
0010
0000
0100
0000
1000
0010
,
1000
0000
0010
0000
0100
0000
0001
0100
,
0001
0000
1000
0000
0001
0000
1000
0100
,
1000
0000
0010
0000
0100
0000
0001
0100
,
0010
0000
0100
0000
0010
0000
1000
0010
,
0100
0000
0010
0000
1000
0000
0010
0100
,
0001
0000
0000
1001
0000
0000
0011
0000
,
0000
1100
0000
0000
0010
0100
0010
0100
,
0000
0000
1001
0000
0100
0000
0001
0010
,
0100
0000
1000
0000
0001
0000
0100
0010
,
1000
0000
0010
0000
1000
0000
0010
0100
,
0001
0000
1000
0000
0001
0000
0010
0001
,
1000
0000
0001
0010
0001
0000
1000
0010
,
1000
0000
0100
0010
0001
0100
0001
0100
,
0010
0000
0000
1000
0000
0000
0100
0010
,
0100
0000
0000
1000
0000
0001
0100
0000
,
0010
0000
0000
1001
0000
0010
0000
0100
,
0000
0000
0000
0000
,
0000
0020
0000
0000
,
0000
0000
0000
0000
,
0000
0000
0000
0000
,
0030
0000
0000
0000
;

//---------------dance-single - ----------------
#NOTES:
     dance-single:
     :
     Hard:
     13:
     0.624678,0.662744,0.208991,0.128610,0.309468,544.000000,518.000000,26.000000,16.000000,0.000000,0.000000,0.624678,0.662744,0.208991,0.128610,0.309468,544.000000,518.000000,26.000000,16.000000,0.000000,0.000000:
// measure 0
0000
0000
0000
0000
,  // measure 1
0000
0000
0000
0000
,  // measure 2
0000
0000
0000
0000
,  // measure 3
0000
0000
0000
0000
,  // measure 4
0000
0000
0000
0000
,  // measure 5
0000
0000
0000
0000
,  // measure 6
0001
0000
1001
0000
0010
0001
1000
0010
,  // measure 7
0100
0000
0110
0000
0010
0100
0001
0010
,  // measure 8
0100
0000
0000
1100
0000
0000
0001
0000
0100
0000
0000
0101
0000
0000
1000
0000
,  // measure 9
0100
0000
1000
0000
0001
0000
0000
1001
0000
0000
0100
0000
0000
0000
0010
0000
,  // measure 10
0001
0000
0010
0001
1000
0010
1000
0100
,  // measure 11
1000
0001
0010
0001
0100
0001
0010
0000
,  // measure 12
1010
0000
0100
1000
0010
1000
0001
0100
,  // measure 13
0001
0010
0100
1000
0100
0010
0100
0000
,  // measure 14
0001
0100
1000
0000
1000
0100
0001
0000
,  // measure 15
1000
0100
0010
0000
0001
0100
0010
0100
,  // measure 16
0001
0010
1000
0010
0100
0001
0100
1000
,  // measure 17
0001
0100
1000
0100
0001
1000
0000
0000
,  // measure 18
0010
1000
0010
0000
1000
0001
0100
0000
,  // measure 19
0001
0000
0010
0000
0001
0000
1000
0000
0100
0000
0000
1000
0000
0000
0100
0000
,  // measure 20
0010
0001
1000
0000
0010
0100
0001
1000
,  // measure 21
0100
0000
1000
0000
0001
0000
1000
0000
0010
0000
0000
0100
0001
0000
0100
0000
,  // measure 22
0010
1000
0001
0000
0100
0010
0000
1000
,  // measure 23
0001
1000
0010
0100
0001
1000
0100
0010
,  // measure 24
0001
0000
0100
0010
1000
0000
0100
0010
,  // measure 25
0001
0000
1000
0000
0010
0000
0100
0000
0001
0000
0000
0011
0000
0000
0110
0000
,  // measure 26
0000
0000
1002
0000
0103
0001
1000
0000
,  // measure 27
0010
0000
0001
0000
1000
0000
0001
0000
0010
0000
0000
0001
0000
0000
0100
0000
,  // measure 28
0010
0100
0001
0000
0100
0001
0010
0100
,  // measure 29
1000
0000
0100
0000
0010
0000
0000
0000
0010
0001
0000
1000
0100
0000
0000
0000
,  // measure 30
1000
0100
1000
0001
0100
0010
0000
1000
,  // measure 31
0100
0010
0100
0010
0001
0100
0010
0000
,  // measure 32
0001
1000
0100
0010
0001
1000
0100
0010
,  // measure 33
0001
0000
0000
0100
0000
0000
0010
0000
1000
0000
0000
0100
0000
0000
0010
0000
,  // measure 34
0001
0000
0000
0000
0011
0000
0000
0000
1000
0000
0000
0010
0000
0000
0001
0000
,  // measure 35
0010
0000
0000
0010
1000
0000
0000
1000
0100
0000
0000
0100
0010
0000
0000
0010
,  // measure 36
0001
0000
0000
0000
0010
0000
0000
0001
0010
0000
0000
0100
0000
0000
0010
0000
,  // measure 37
0001
0000
0000
1000
0001
0000
0000
0000
1000
0000
0000
0010
1000
0000
0000
0000
,  // measure 38
0001
0000
0000
0000
0101
0000
0000
0000
0010
0000
0000
0100
0000
0000
0001
0000
,  // measure 39
0010
0000
0000
0010
0001
0000
0000
0001
0100
0000
0000
0100
0010
0000
0000
0010
,  // measure 40
1000
0000
0000
0000
0010
0000
0000
1000
0010
0000
0000
1001
0000
0000
0100
0000
,  // measure 41
1000
0000
0000
0100
0000
0000
0010
0000
0001
0000
0010
0000
0100
0000
1000
0000
,  // measure 42
0002
0000
0013
0001
0000
1000
0010
0100
,  // measure 43
0002
0000
0100
0003
0100
0010
1000
0100
,  // measure 44
0020
0000
0031
0010
0000
0001
1000
0100
,  // measure 45
0020
0000
0001
0030
0001
0100
0010
0100
,  // measure 46
2000
0000
3100
0010
0000
0100
0010
1000
,  // measure 47
0001
0100
0001
0010
0001
0010
0100
1000
,  // measure 48
0010
0000
0100
0001
0000
1000
0100
0000
,  // measure 49
1000
0010
0000
0100
0001
0100
1000
0100
,  // measure 50
0001
0000
0100
0010
0000
0100
0001
0000
,  // measure 51
0010
0001
0000
0010
0100
0010
0001
1000
,  // measure 52
0200
0000
0000
0000
,  // measure 53
0000
0000
0000
0300
,  // measure 54
2000
0000
0000
0000
,  // measure 55
0000
0000
3000
0000
0000
0000
0010
0001
,  // measure 56
2000
0000
0000
3000
,  // measure 57
0200
0000
0000
0300
,  // measure 58
0010
0000
0000
0001
0000
0000
1000
0000
0000
0000
0000
0000
0010
0000
0000
0000
,  // measure 59
0010
0000
0000
1000
0000
0000
0001
0000
0000
0000
0000
0000
0010
0000
0000
0000
,  // measure 60
0100
0000
0000
1000
0000
0000
0001
0000
0000
0100
0000
0000
0001
0000
0000
0000
,  // measure 61
0011
0000
0000
0000
1100
0000
0001
0010
,  // measure 62
0001
0000
0000
0010
0000
0000
0100
0000
0000
1000
0000
0000
0100
0000
0000
0010
,  // measure 63
0000
0000
0001
0000
0000
0100
0000
0000
0010
0000
0100
0000
0001
0000
0010
0000
,  // measure 64
0001
0000
0000
1000
0000
0000
0010
0000
0000
1000
0000
0000
0001
0000
0100
0000
,  // measure 65
0010
0000
0000
1000
0000
0000
0001
0000
0000
1000
0000
0000
0100
0000
0010
0000
,  // measure 66
0001
0000
0000
0100
0000
0000
2002
0000
3003
0000
0100
0000
0010
0000
0100
0000
,  // measure 67
1000
0000
0000
0010
0000
0000
2002
0000
3003
0000
0100
0000
0010
0000
0100
0000
,  // measure 68
0001
0000
1001
0000
1100
0000
0100
0001
,  // measure 69
1000
0000
1010
0000
0001
0010
0100
1000
,  // measure 70
0001
0000
0000
1000
0000
0000
0010
0000
0000
0100
0000
0000
0001
0000
0010
0000
,  // measure 71
0100
0000
0000
1000
0000
0000
0001
0000
0000
0000
1000
0000
0100
0000
1000
0000
,  // measure 72
0001
0000
0000
1000
0000
0000
0100
0000
0000
1000
0000
0000
0100
0000
0010
0000
,  // measure 73
0001
0000
0000
1000
0000
0000
0010
0000
0000
1000
0000
0000
0010
0000
0100
0000
,  // measure 74
0001
0000
1000
0010
1000
0001
0100
0010
,  // measure 75
1000
0001
0010
0100
0010
0001
0010
0000
,  // measure 76
0001
0000
0000
0010
0000
0000
0100
0000
0000
1000
0000
0000
0001
0000
0100
0000
,  // measure 77
0001
0000
0000
1000
0000
0000
0010
0000
0000
0100
0000
0000
0001
0000
0100
0000
,  // measure 78
0001
0000
0000
1000
0000
0000
0010
0000
0000
1000
0000
0000
0100
0000
0010
0000
,  // measure 79
0001
0000
0000
0010
0000
0000
0001
0000
0000
1000
0000
0000
0100
0000
0010
0000
,  // measure 80
0001
0000
0000
0010
0000
0000
0100
0000
0000
1000
0000
0000
0001
0000
0100
0000
,  // measure 81
0001
0000
0000
1000
0000
0000
0010
0000
0000
0100
0000
0000
0001
0000
0100
0000
,  // measure 82
1000
0000
0000
0100
0000
0000
0001
0000
0000
0010
0000
0000
1000
0000
0000
0010
,  // measure 83
0000
0000
0001
0000
0000
0100
0000
0000
0001
0000
0010
0000
0100
0000
1000
0000
,  // measure 84
0100
0000
0011
0000
1100
0000
0001
0100
,  // measure 85
0001
0000
0000
1000
0000
0000
0010
0000
0000
0100
0000
0000
0001
0000
0100
0000
,  // measure 86
0101
0000
0000
0010
0000
0000
1000
0000
0000
0001
0000
0000
1000
0000
0100
0000
,  // measure 87
1100
0000
0000
0010
0000
0000
0001
0000
0000
0100
0000
0000
1000
0000
0100
0000
,  // measure 88
0001
0000
0000
0010
0000
0000
0001
0000
0000
0100
0000
0000
0010
0000
1000
0000
,  // measure 89
0001
0100
0001
1000
0100
1000
0001
0100
,  // measure 90
0010
0000
0000
1000
0000
0000
0100
0000
0000
0010
0000
0000
0001
0000
0100
0000
,  // measure 91
0010
0000
0000
1000
0000
0000
0001
0000
0000
0000
0010
0000
0100
0000
1000
0000
,  // measure 92
0010
0000
0000
0100
0000
0000
0001
0000
0000
0000
1010
0000
0000
0000
0101
0000
,  // measure 93
0000
0010
0001
1000
0010
1000
0001
0010
,  // measure 94
0000
2002
0000
0000
,  // measure 95
0000
0000
0000
0000
,  // measure 96
0000
0000
0000
0000
,  // measure 97
3003
0000
0000
0000
;

//---------------dance-double - ----------------
#NOTES:
     dance-double:
     :
     Easy:
     7:
     0.254924,0.350864,0.072343,0.200953,0.000000,222.000000,213.000000,9.000000,25.000000,0.000000,0.000000,0.254924,0.350864,0.072343,0.200953,0.000000,222.000000,213.000000,9.000000,25.000000,0.000000,0.000000:
00000000
00000000
00000000
00000000
,
00000000
00000000
00000000
00000000
,
00000000
00000000
00000000
00000000
,
00000000
00000000
00000000
00000000
,
00000000
00000000
00000000
00000000
,
00000000
00000000
00000000
00000000
,
00001000
00000000
00000000
00100000
,
00010000
00000000
00000000
00001000
,
00000010
00000000
00000001
00000000
,
00000100
00000000
00000000
00000000
,
00001000
00000000
00010000
00000000
,
00100000
10000000
00100000
10000000
,
02000000
03000000
00010000
00001000
,
00000020
00000030
00002000
00003000
,
00010000
00001000
00010000
00000000
,
00100000
01000000
00001000
00000000
,
00010000
00001000
00000010
00000010
,
00000001
00000001
00000100
00000000
,
00002000
00003000
00001000
00010000
,
00001000
00010000
00100000
00000000
,
00010000
00000000
00001000
00000000
,
00000010
00000000
00000010
00000001
,
00000010
00000000
00001000
00000000
,
00010000
00001000
00010000
00000000
,
01000000
00000000
00100000
00000000
,
00001000
00001000
00010000
00000000
,
00000000
00011000
00000000
00000000
,
00010000
00100000
01000000
00000000
,
00100000
10000000
01000000
01000000
,
00010000
00000000
00010000
00001000
,
00010000
00000000
00000100
00000000
,
00000010
00001000
00010000
00000000
,
00011000
00000000
00101000
00000000
,
00110000
00000000
01100000
00000000
,
20000000
30000000
01000000
00010000
,
00001000
00001000
00010000
00000000
,
00000010
00000000
00000100
00000010
,
00001000
00001000
00000100
00000000
,
00000020
00000030
00000001
00000100
,
00001000
00001000
00010000
00000000
,
00001000
00010000
00100000
00000000
,
01100000
00000000
00000000
10000000
,
00100000
00000000
00010000
00001000
,
00010000
00000000
00000100
00000000
,
00000010
00000000
00000001
00000100
,
00001000
00000000
00010000
00001000
,
01000000
00000000
00100000
01000000
,
00100000
00100000
00010000
00010000
,
00002000
00000000
00003000
00000020
,
00000000
00000030
00000001
00000100
,
00000002
00000000
00000003
00000200
,
00000000
00000300
00001000
00010000
,
00002000
00000000
00000000
00000000
,
00000000
00000000
00003000
00000000
,
00020000
00000000
00000000
00000000
,
00000000
00030000
00000000
00000000
,
00200000
00000000
00000000
00300000
,
20000000
00000000
00000000
30000000
,
02000000
00000000
00000000
03000000
,
00020000
00030000
00001000
00010000
,
00002000
00000000
00000000
00003000
,
00000200
00000300
00000002
00000003
,
00001000
00000000
00000000
00000000
,
00000000
00000000
00000000
00000000
,
00000001
00000001
00000100
00000010
,
00000100
00000100
00001000
00000000
,
00011000
00000000
00010000
01000000
,
00100000
00000000
01000000
00010000
,
00001000
00001000
00010000
00001000
,
00000100
00000100
00000001
00000010
,
00001000
00000000
00000000
00010000
,
00011000
00000000
00000000
00000000
,
00020000
00000000
00000000
00030000
,
02000000
00000000
00000000
13000000
,
00200000
00000000
00000000
00300000
,
00000000
00000000
00000000
00000000
,
00010000
00001000
00010000
00010000
,
00001000
00000010
00000100
00000010
,
00000001
00000100
00000001
00000000
,
00000100
00001000
00010000
00000000
,
00001000
00100000
00010000
00010000
,
00100000
00001000
00010000
00010000
,
00002000
00000000
00003000
00020000
,
00000000
00030000
01000000
00100000
,
00000000
10010000
00000000
10000000
,
01000000
00010000
00001000
00001000
,
00000010
00001000
00010000
00000000
,
00010000
00001000
00000010
00000000
,
00000001
00000100
00001000
00000100
,
00001000
00010000
00100000
00010000
,
00001000
00000000
00000000
00001000
,
00010000
00000000
00000000
01000000
,
00100000
00000000
00000000
00000000
,
00000000
00000000
00000000
00000000
,
00000000
00020000
00000000
00000000
,
00000000
00000000
00000000
00000000
,
00000000
00000000
00000000
00000000
,
00030000
00000000
00000000
00000000
;

//---------------dance-double - ----------------
#NOTES:
     dance-double:
     :
     Medium:
     11:
     0.447839,0.545789,0.136648,0.176839,0.028133,390.000000,373.000000,17.000000,22.000000,0.000000,0.000000,0.447839,0.545789,0.136648,0.176839,0.028133,390.000000,373.000000,17.000000,22.000000,0.000000,0.000000:
00000000
00000000
00000000
00000000
,
00000000
00000000
00000000
00000000
,
00000000
00000000
00000000
00000000
,
00000000
00000000
00000000
00000000
,
00000000
00000000
00000000
00000000
,
00000000
00000000
00000000
00000000
,
00010000
00000000
00001000
00000000
00000010
00000000
00000001
00000010
,
00000001
00000000
00000100
00000000
00001000
00000000
00010000
00001000
,
00010000
00000000
00000000
00001000
00010000
00000000
00000000
00000100
,
00000010
00000000
00000000
00000000
00000000
00000001
00000000
00000010
,
00000100
00000000
00001000
00000000
00000001
00000000
00000100
00000010
,
00000100
00000000
00001000
00000000
00010000
00001000
00010000
00000000
,
00200000
00000000
01300000
00000000
00010000
00000000
00100000
00001000
,
00020000
00031000
00100000
01000000
,
00010000
00001000
00000010
00000001
,
00000100
00001000
00010000
00100000
,
10000000
00100000
10000000
00000000
01000000
00100000
01000000
00000000
,
00010000
00001000
00010000
00000000
00000010
00001000
00000000
00000000
,
00000010
00000100
00000001
00000100
,
00001000
00000000
00010000
00001000
00010000
00000000
00001000
00000000
,
00000010
00000000
00001000
00000000
00010000
00000000
00000100
00010000
,
00001000
00010000
00100000
10000000
,
01000000
00100000
01000000
00000000
00010000
00001000
00000000
00010000
,
00001000
00000000
00000100
00000000
00000010
00000100
00000010
00000000
,
00002000
00000000
00003100
00000010
00000200
00000000
00010300
00001000
,
00020000
00000000
00031000
00010000
00200000
00000000
00300000
00000000
,
00000000
10010000
10000000
01000000
,
00010000
00000000
00001000
00010000
00000010
00000000
00001000
00000000
,
00000010
00000100
00001000
00010000
,
01000000
10000000
00100000
00010000
,
00001000
00010000
00000010
00000000
00001000
00000010
00000000
00000100
,
00000001
00000010
00001000
00010000
,
00001000
00100000
00000000
00000000
00010000
00001000
00000000
00000000
,
00000010
00000000
00000000
00010000
00000000
00000000
00001000
00000000
01000000
00000000
00000000
00100000
00000000
00000000
00010000
00000000
,
00001000
00000000
00000000
00000000
00010000
00000000
00000000
00000000
00001000
00000000
00000000
00000100
00000000
00000000
00000010
00000000
,
00000001
00000010
00000100
00001000
,
00010000
00000000
00000000
00000000
00100000
00000000
00000000
00000000
10000000
00000000
00000000
01000000
00000000
00000000
00010000
00000000
,
00001000
00000100
00000101
00000011
,
00000001
00000000
00000000
00000000
00000100
00000000
00000000
00000000
00000001
00000000
00000000
00000010
00000000
00000000
00001000
00000000
,
00010000
00000000
01000000
00000000
10000000
00000000
01000000
00010000
,
00001000
00000000
00000000
00000000
00000010
00000000
00000000
00000000
00000100
00000000
00000000
00010000
00000000
00000000
00001000
00000000
,
00000100
00000000
00000000
00000001
00000000
00000000
00000010
00000000
00000001
00000000
00000000
00000000
00001000
00000000
00000001
00000000
,
00000200
00000010
00000302
00000103
,
00001000
00000000
00010000
00000000
01000000
00000000
10000000
00010000
,
02000000
00100000
03020000
10030000
,
01000000
00000000
00010000
00000000
00001000
00010000
00000100
00001000
,
00000010
00000000
00000100
00000001
00001000
00000000
00000001
00000100
,
00000010
00000000
00000100
00000000
00001000
00010000
00001000
00010000
,
00000100
00000000
00000000
00000010
00000000
00000000
00000001
00000000
,
00000000
00000010
00000000
00000000
00001000
00000000
00011000
00000000
,
00100000
00000000
00000000
10000000
00000000
00000000
01000000
00000000
,
00000000
00010000
00000000
00000000
00001000
00000000
00000110
00000000
,
00002002
00000000
00000000
00000000
,
00000000
00000000
00000000
00003003
,
00000020
00000000
00000000
00000000
,
00000000
00000030
00000000
00000001
,
00000200
00000000
00000000
00000300
,
00002000
00000000
00000000
00003000
,
00010000
00000000
00000000
00001000
00000000
00000000
00100000
00000000
,
01000000
00000000
00000000
10000000
00000000
00000000
00100000
00000000
,
00010000
00000000
00000000
00001000
00000000
00000000
00010000
00000000
,
00022000
00033000
00002200
00003300
,
00000001
00000000
00000000
00000100
00000000
00000000
00001000
00000000
,
00000000
00000100
00000000
00000000
00000001
00000000
00000010
00000001
,
00000010
00000000
00000001
00000000
00000100
00000000
00001000
00010000
,
00001000
00000000
00010000
00000000
00100000
00000000
01000000
00010000
,
01000000
00000000
00100000
00000000
10000000
00000000
00010000
00100000
,
00010000
00000000
00100000
00000000
01000000
00000000
00010000
00001000
,
00010000
00000000
00000100
00000000
00000010
00000000
00000001
00000010
,
00000001
00000000
00000100
00000000
00001000
00010000
00001000
00010000
,
00001000
00000000
00000000
00100000
00000000
00000000
01000000
00000000
,
10000000
00000000
00000000
00100000
00000000
00000000
00010000
00000000
,
00001000
00000000
00000000
00010000
00000000
00000000
00000010
00010000
,
00001000
00000000
00000000
00100000
00000000
00000000
00001000
00010000
,
00000020
00001000
00001000
00001030
,
00000001
00000010
00000001
00000010
00000100
00000000
00001100
00000000
,
00000001
00000000
00000100
00000000
00001000
00000000
00010000
00001000
,
00100000
00000000
01000000
00000000
10000000
00000000
00100000
01000000
,
00010000
00000000
00100000
00000000
00001000
00000000
00010000
00001000
,
01000000
00000000
00100000
00000000
00010000
00000000
00001000
00010000
,
00000100
00000000
00000010
00000000
00001000
00000000
00010000
00001000
,
00000010
00000000
00000100
00000000
00001000
00000000
00000001
00000100
,
00000010
00000000
00000000
00001010
00000000
00000000
00011000
00000000
,
00000000
00110000
00000000
00000000
00001000
00010000
00001000
00010000
,
00000000
00000000
00011000
00000000
00010000
00000000
01000000
00100000
,
00010000
00000000
10000000
00000000
01000000
00000000
00010000
00001000
,
01000000
00000000
00100000
00000000
00010000
00000000
00001000
00010000
,
00000010
00000000
00000100
00000000
00000001
00000000
00000100
00001000
,
00010000
00000000
00001000
00100000
00010000
00000000
01000000
00100000
,
00010000
00000000
00001000
00010000
00000100
00001000
00000100
00000010
,
00000100
00000000
00000000
00001000
00000000
00000000
00000001
00000010
,
00001000
00000000
00000000
00010000
00000000
00001000
00100000
00000000
,
00010000
00000000
00000000
00011000
00000000
00001100
00000000
00000101
,
00000000
00000000
00000000
00000000
,
00000000
00002002
00000000
00000000
,
00000000
00000000
00000000
00000000
,
00000000
00000000
00000000
00000000
,
00003003
00000000
00000000
00000000
;

//---------------dance-double - ----------------
#NOTES:
     dance-double:
     :
     Hard:
     13:
     0.616640,0.662744,0.152725,0.120572,0.309468,537.000000,518.000000,19.000000,15.000000,0.000000,0.000000,0.616640,0.662744,0.152725,0.120572,0.309468,537.000000,518.000000,19.000000,15.000000,0.000000,0.000000:
00000000
00000000
00000000
00000000
,
00000000
00000000
00000000
00000000
,
00000000
00000000
00000000
00000000
,
00000000
00000000
00000000
00000000
,
00000000
00000000
00000000
00000000
,
00000000
00000000
00000000
00000000
,
10000000
00000000
10010000
00000000
00010000
01000000
00100000
00010000
,
00001000
00000000
00000100
00000000
00000001
00000010
00000001
00000100
,
00001000
00000000
00000000
00010000
00000000
00000000
00100000
00000000
00010000
00000000
00000000
00001000
00000000
00000000
00000010
00000000
,
00001000
00000000
00100000
00000000
00010000
00000000
00000000
00110000
00000000
00000000
01000000
00000000
00000000
00000000
10000000
00000000
,
01000000
00000000
00010000
00001000
00010000
00000010
00001000
00000100
,
00000010
00000001
00000010
00001000
00010000
00000100
00000010
00000000
,
00001001
00000000
00000100
00001000
00010000
00100000
01000000
00010000
,
00100000
00001000
00010000
01000000
10000000
00100000
01000000
00000000
,
00010000
00100000
00010000
00000000
00100000
00001000
00010000
00000000
,
00000100
00010000
00001000
00000000
00010000
00001000
01000000
00100000
,
01000000
00010000
10000000
01000000
00100000
00001000
00010000
00001000
,
00010000
00000100
00000010
00000100
00001000
00000001
00000000
00000000
,
00001000
00000001
00001000
00000000
00000100
00000010
00001000
00000000
,
00010000
00000000
00001000
00000000
01000000
00000000
00100000
00000000
10000000
00000000
00000000
00100000
00000000
00000000
00010000
00000000
,
00001000
00010000
00100000
00000000
10000000
01000000
00010000
00001000
,
00010000
00000000
00000100
00000000
00001000
00000000
00000100
00000000
00000010
00000000
00000000
00000100
00001000
00000000
00000001
00000000
,
00000100
00000010
00001000
00000000
00000100
00010000
00000000
00001000
,
00000010
00000001
00000010
00001000
00010000
00001000
00010000
00100000
,
01000000
00000000
01000000
00100000
00010000
00000000
00001000
00010000
,
01000000
00000000
00100000
00000000
00010000
00000000
00100000
00000000
10000000
00000000
00000000
11000000
00000000
00000000
01010000
00000000
,
00000000
00000000
00011000
00000000
00001000
00010000
00000100
00000000
,
00000010
00000000
00000001
00000000
00000100
00000000
00000001
00000000
00000010
00000000
00000000
00001000
00000000
00000000
00010000
00000000
,
00001000
00000010
00000100
00000000
00001000
00000001
00000100
00001000
,
00010000
00000000
00001000
00000000
00100000
00000000
00000000
00000000
00010000
00001000
00000000
01000000
00010000
00000000
00000000
00000000
,
10000000
01000000
10000000
00010000
01000000
00100000
00000000
00010000
,
00001000
00010000
00000010
00001000
00000001
00000100
00000010
00000000
,
00001000
00000100
00000010
00001000
00010000
00000010
00000100
00001000
,
00010000
00000000
00000000
00001000
00000000
00000000
01000000
00000000
00100000
00000000
00000000
00010000
00000000
00000000
00001000
00000000
,
00010000
00000000
00000000
00000000
00001100
00000000
00000000
00000000
00001000
00000000
00000000
00000010
00000000
00000000
00000100
00000000
,
00001000
00000000
00000000
00001000
00010000
00000000
00000000
00010000
00100000
00000000
00000000
00100000
10000000
00000000
00000000
10000000
,
01000000
00000000
00000000
00000000
00010000
00000000
00000000
00001000
00010000
00000000
00000000
00001000
00000000
00000000
00000100
00000000
,
00000010
00000000
00000000
00001000
00000001
00000000
00000000
00000000
00000010
00000000
00000000
00000100
00001000
00000000
00000000
00000000
,
00000001
00000000
00000000
00000000
00000010
00000000
00000000
00000000
00001000
00000000
00000000
00010000
00000000
00000000
00100000
00000000
,
00010000
00000000
00000000
00010000
00001000
00000000
00000000
00001000
00000010
00000000
00000000
00000010
00000001
00000000
00000000
00000001
,
00000100
00000000
00000000
00000000
00001000
00000000
00000000
00010000
00001000
00000000
00000000
00100000
00000000
00000000
00001000
00000000
,
00010000
00000000
00000000
00100000
00000000
00000000
00010000
00000000
00001000
00000000
00010000
00000000
00000010
00000000
00000100
00000000
,
00002000
00000000
00013000
00001000
00000000
00010000
00001000
00100000
,
00020000
00000000
01030000
00000000
01000000
00100000
10000000
01000000
,
00020000
00000000
00031000
00010000
00000000
00001000
00010000
00000010
,
00002000
00000000
00003100
00000000
00000010
00000001
00000100
00001000
,
00020000
00000000
00030100
00001000
00000000
00000100
00000010
00001000
,
00010000
01000000
10000000
00100000
10000000
00100000
01000000
00100000
,
00010000
00000000
00001000
00010000
00000000
00000100
00000010
00000000
,
00000001
00000010
00000000
00001000
00010000
00001000
00000010
00001000
,
00010000
00000000
00100000
10000000
00000000
00100000
01000000
00000000
,
00100000
00010000
00000000
00001000
00010000
00001000
00000100
00000010
,
00000200
00000000
00000000
00000000
,
00000000
00000000
00000000
00000300
,
00000002
00000000
00000000
00000000
,
00000000
00000000
00000003
00000000
00000000
00000000
00001000
00000001
,
00000020
00000000
00000000
00000030
,
00002000
00000000
00000000
00003000
,
00010000
00000000
00000000
00100000
00000000
00000000
10000000
00000000
00000000
00000000
00000000
00000000
00100000
00000000
00000000
00000000
,
00010000
00000000
00000000
00001000
00000000
00000000
00000010
00000000
00000000
00000000
00000000
00000000
00000001
00000000
00000000
00000000
,
00000100
00000000
00000000
00001000
00000000
00000000
00010000
00000000
00000000
00000100
00000000
00000000
00000010
00000000
00000000
00000000
,
00001010
00000000
00000000
00000000
00011000
00000000
00010000
00001000
,
00000010
00000000
00000000
00001000
00000000
00000000
00010000
00000000
00000000
00100000
00000000
00000000
00010000
00000000
00000000
00001000
,
00000000
00000000
01000000
00000000
00000000
00100000
00000000
00000000
00010000
00000000
00001000
00000000
00100000
00000000
00001000
00000000
,
00010000
00000000
00000000
00000010
00000000
00000000
00000100
00000000
00000000
00001000
00000000
00000000
00000100
00000000
00000001
00000000
,
00000100
00000000
00000000
00001000
00000000
00000000
00010000
00000000
00000000
01000000
00000000
00000000
00100000
00000000
00010000
00000000
,
01000000
00000000
00000000
00100000
00000000
00000000
20200000
00000000
30000000
00000000
01300000
00000000
00100000
00000000
00010000
00000000
,
00001000
00000000
00000000
00010000
00000000
00000000
00022000
00000000
00003000
00000000
00030100
00000000
00000010
00000000
00000100
00000000
,
00001000
00000000
00001100
00000000
00011000
00000000
00001000
00010000
,
00001000
00000000
00101000
00000000
00010000
00100000
01000000
10000000
,
00100000
00000000
00000000
00010000
00000000
00000000
00001000
00000000
00000000
00010000
00000000
00000000
00100000
00000000
00010000
00000000
,
00001000
00000000
00000000
00000010
00000000
00000000
00000001
00000000
00000000
00000000
00000010
00000000
00000001
00000000
00001000
00000000
,
00000010
00000000
00000000
00000100
00000000
00000000
00001000
00000000
00000000
00100000
00000000
00000000
00001000
00000000
00010000
00000000
,
00001000
00000000
00000000
01000000
00000000
00000000
00100000
00000000
00000000
00010000
00000000
00000000
00001000
00000000
00010000
00000000
,
00001000
00000000
00010000
01000000
00100000
01000000
10000000
01000000
,
10000000
00100000
01000000
00100000
00010000
00001000
00010000
00000000
,
00001000
00000000
00000000
00000010
00000000
00000000
00000001
00000000
00000000
00000100
00000000
00000000
00001000
00000000
00010000
00000000
,
00001000
00000000
00000000
00010000
00000000
00000000
00100000
00000000
00000000
10000000
00000000
00000000
01000000
00000000
00010000
00000000
,
00001000
00000000
00000000
00010000
00000000
00000000
01000000
00000000
00000000
10000000
00000000
00000000
00100000
00000000
00010000
00000000
,
00001000
00000000
00000000
00000100
00000000
00000000
00000001
00000000
00000000
00000010
00000000
00000000
00001000
00000000
00010000
00000000
,
00001000
00000000
00000000
00000010
00000000
00000000
00000001
00000000
00000000
00000100
00000000
00000000
00001000
00000000
00010000
00000000
,
00001000
00000000
00000000
00010000
00000000
00000000
00100000
00000000
00000000
10000000
00000000
00000000
01000000
00000000
00010000
00000000
,
00001000
00000000
00000000
00100000
00000000
00000000
01000000
00000000
00000000
00010000
00000000
00000000
00001000
00000000
00000000
01000000
,
00000000
00000000
00100000
00000000
00000000
00010000
00000000
00000000
00001000
00000000
00010000
00000000
00001000
00000000
00010000
00000000
,
00000100
00000000
00000110
00000000
00000011
00000000
00000001
00000100
,
00000001
00000000
00000000
00000100
00000000
00000000
00001000
00000000
00000000
00010000
00000000
00000000
00100000
00000000
10000000
00000000
,
01000000
00000000
00000000
00010000
00000000
00000000
00001000
00000000
00000000
00000010
00000000
00000000
00001000
00000000
00010000
00000000
,
00100000
00000000
00000000
00010000
00000000
00000000
00001000
00000000
00000000
01000000
00000000
00000000
00100000
00000000
00010000
00000000
,
00001000
00000000
00000000
00000100
00000000
00000000
00000001
00000000
00000000
00000010
00000000
00000000
00001000
00000000
00010000
00000000
,
00100000
00010000
00001000
00010000
00100000
01000000
00001000
00010000
,
00001000
00000000
00000000
00000010
00000000
00000000
00000001
00000000
00000000
00000100
00000000
00000000
00001000
00000000
00010000
00000000
,
00001000
00000000
00000000
00000100
00000000
00000000
00000001
00000000
00000000
00000000
00000001
00000000
00000100
00000000
00001000
00000000
,
00010000
00000000
00000000
00001000
00000000
00000000
00100000
00000000
00000000
00000000
00110000
00000000
00000000
00000000
11000000
00000000
,
00000000
10000000
00100000
01000000
00100000
00010000
00001000
00010000
,
00000000
00022000
00000000
00000000
,
00000000
00000000
00000000
00000000
,
00000000
00000000
00000000
00000000
,
00033000
00000000
00000000
00000000
;

//---------------dance-single - ----------------
#NOTES:
     dance-single:
     :
     Challenge:
     17:
     1.021991,1.247518,0.707356,0.152725,1.040938,890.000000,802.000000,88.000000,19.000000,0.000000,0.000000,1.021991,1.247518,0.707356,0.152725,1.040938,890.000000,802.000000,88.000000,19.000000,0.000000,0.000000:
// measure 0
0000
0000
0000
0000
,  // measure 1
0000
0000
0000
0000
,  // measure 2
0000
0000
0000
0000
,  // measure 3
0000
0000
0000
0000
,  // measure 4
0000
0000
0000
0000
,  // measure 5
0000
0000
0000
0000
,  // measure 6
1000
0000
0001
0000
1001
0000
0000
0000
0010
0000
1000
0000
0100
0010
0100
0010
,  // measure 7
0001
0000
1000
0000
0001
0000
1000
0000
0100
0000
0010
0000
0001
1000
0001
1000
,  // measure 8
0010
0000
0000
0110
0000
0000
0100
0000
0101
0000
0000
1001
0000
0000
1000
0000
,  // measure 9
0010
0100
0001
0010
0100
1000
0010
0100
0000
0000
0110
0000
0000
0000
1001
0000
,  // measure 10
0001
0000
0100
0000
1000
0000
0100
0000
0001
0010
0001
0000
1000
0000
0010
0000
,  // measure 11
0100
0010
0100
0000
0001
0000
1000
0000
0001
0100
0001
0000
0100
0000
0010
0000
,  // measure 12
1000
0000
0100
0000
0001
0000
0100
0000
1000
0001
1000
0000
0001
0000
0100
0000
,  // measure 13
1000
0000
0100
0000
0001
0010
0001
0000
0100
0000
0010
0100
0010
0000
1000
0001
,  // measure 14
1000
0000
0100
0000
0010
0000
0001
0000
1000
0000
0100
0000
0010
0000
0001
0100
,  // measure 15
0001
0000
1000
0000
0010
0000
1000
0100
1000
0000
0001
0100
0001
0000
1000
0001
,  // measure 16
1000
0010
1000
0001
1000
0100
1000
0100
0010
0001
0010
0001
0010
0001
0010
0001
,  // measure 17
0100
0010
0100
0010
0100
0010
0100
0010
1000
0000
1001
0000
0101
0000
0000
0000
,  // measure 18
0010
0000
1000
0000
0001
0000
1000
0000
0100
0010
0001
0000
1000
0000
0001
0000
,  // measure 19
0100
0000
0001
0000
1000
0000
0100
0010
0100
0000
0000
0011
0000
0000
0001
0000
,  // measure 20
1000
0100
1000
0000
0001
1000
0001
0000
0100
0001
0100
0000
0001
0010
0001
0000
,  // measure 21
0010
0100
0010
0100
1000
0001
1000
0001
0100
0001
0100
0001
0010
0000
0100
0000
,  // measure 22
1000
0001
0100
0000
0001
0010
0001
1000
,  // measure 23
0100
1000
0010
0000
1002
0010
0013
0100
,  // measure 24
0002
0000
0000
0000
1003
0010
0100
0001
2000
0000
0000
0000
3001
0100
0010
1000
,  // measure 25
0001
0100
0001
0000
0010
0100
0010
0000
0110
0000
0000
1100
0000
0000
1001
0000
,  // measure 26
0000
0000
0102
0000
1003
0010
1000
0010
,  // measure 27
0001
0010
0001
0000
0010
0000
1000
0001
1000
0000
0001
0100
0000
0001
0010
0000
,  // measure 28
0100
1000
0010
0000
1000
0001
0100
0010
,  // measure 29
0200
0000
0000
0000
0301
0000
0010
0000
1000
0010
0000
0001
0010
0000
0100
0000
,  // measure 30
1000
0001
1000
0001
1000
0010
1000
0010
,  // measure 31
0100
0000
0001
0000
0100
0000
0001
0000
1000
0000
0001
0000
1000
0001
1000
0010
,  // measure 32
0100
0000
0110
0000
0001
0100
0001
0000
1001
0000
1010
0000
0010
0100
0001
0000
,  // measure 33
1001
0000
0000
1010
0000
0000
0110
0000
0100
0001
0010
0001
1000
0100
1000
0010
,  // measure 34
0200
0000
0001
0000
1300
0001
1000
0000
,  // measure 35
0020
0000
0000
0100
0031
0000
0100
0000
0010
0000
1000
0000
0001
0000
1000
0001
,  // measure 36
0200
0000
0000
0000
0300
0000
0010
1000
0001
0000
0000
0101
0000
0000
0100
0000
,  // measure 37
0120
0000
0000
1000
0031
0000
0000
0000
1000
0000
0010
1000
0001
0000
0100
0000
,  // measure 38
0001
0000
1000
0100
1000
0000
0010
0100
0001
0000
0000
0011
0000
0000
0010
0000
,  // measure 39
0110
0000
0000
1100
0000
0000
1000
0001
1000
0000
0010
0000
0100
0001
0100
0000
,  // measure 40
0010
0000
0000
0000
1000
0000
0001
1000
0001
0000
0000
0101
0000
0000
0010
0000
,  // measure 41
0110
0000
0000
1010
0000
0000
1000
0000
0100
0010
0100
0010
0001
1000
0001
1000
,  // measure 42
0200
0010
0301
2000
0000
3010
0100
0002
,  // measure 43
0000
0000
0000
0000
0013
0000
1000
0000
0010
0000
0001
0000
0100
0000
0010
1000
,  // measure 44
0010
1000
0100
0010
0001
0100
0010
0100
,  // measure 45
0001
0000
1000
0000
0010
0000
1000
0000
0100
0010
0100
0010
0001
1000
0001
1000
,  // measure 46
0100
0110
0010
0001
1000
0001
0100
0010
,  // measure 47
1000
0100
0010
0000
0001
0000
0100
0000
0001
0100
0001
0100
0010
0100
0001
1000
,  // measure 48
0200
0000
0000
0000
0310
0000
0001
0010
0100
1000
0001
0000
1000
0100
0010
0001
,  // measure 49
0100
0000
0010
1000
0100
0010
0100
0000
1000
0001
0010
0001
0100
0010
0100
0010
,  // measure 50
1000
0001
1000
0001
0100
0010
0100
0010
1000
0001
1000
0000
0001
0100
0001
0100
,  // measure 51
0010
1000
0010
1000
0100
0010
0100
0010
0001
1000
0001
1000
0100
0010
0100
0010
,  // measure 52
0002
0000
0000
0000
,  // measure 53
0000
0000
0000
0000
,  // measure 54
2003
0000
0000
0000
,  // measure 55
0000
0000
0000
0000
0000
0000
0000
0000
3000
0000
0000
0000
0010
0100
0010
0100
,  // measure 56
0002
0000
0000
0000
0000
0000
0000
0000
0000
0000
0000
0000
1003
0010
1000
0010
,  // measure 57
0100
0000
0001
1000
0001
0000
0100
0000
0010
1000
0000
0010
1000
0000
0100
0000
,  // measure 58
0010
0000
0000
0011
0000
0000
0101
0000
0000
0110
0000
0000
0010
0000
1000
0000
,  // measure 59
1100
0000
0000
0110
0000
0000
0011
0000
0001
0000
0100
0000
1000
0000
0100
0000
,  // measure 60
0001
0010
0001
0010
0001
0010
0001
0010
0001
0000
0010
0000
0100
0000
1000
0000
,  // measure 61
0001
0100
0001
0100
0001
0100
0001
0100
0010
0000
1000
0000
0100
0000
0010
0000
,  // measure 62
0011
0000
0000
0101
0000
0000
0110
0000
0000
1010
0000
0000
1100
0000
0000
0110
,  // measure 63
0000
0000
0011
0000
0000
1001
0000
0000
0110
0000
1000
0100
1000
0000
0001
0010
,  // measure 64
0001
0100
0000
0001
0100
0000
0010
1000
0000
0010
1000
0000
0100
0000
0010
0000
,  // measure 65
0001
1000
0000
0001
1000
0000
0001
0100
0000
0001
0100
0000
0010
0000
1000
0000
,  // measure 66
0100
0010
0000
0100
0010
0000
0001
0100
0000
0001
0100
0000
0010
1000
0010
0000
,  // measure 67
1000
0010
0000
0010
0100
0000
0100
0001
0000
0001
1000
0010
1000
0100
1000
0000
,  // measure 68
1001
0001
0011
0010
0110
0100
1100
1000
,  // measure 69
1000
0001
0000
0100
0001
0000
0010
0001
0000
0100
0001
1000
0001
1000
0001
0000
,  // measure 70
0101
0000
0000
0110
0000
0000
1010
0000
0000
1100
0000
0000
0110
0000
0110
0000
,  // measure 71
1001
0000
0000
0101
0000
0000
1100
0000
0000
0000
0100
0001
0010
0001
0010
0100
,  // measure 72
1000
0000
0000
1010
0000
0000
0110
0000
0100
0001
0000
0001
0010
0000
0100
0000
,  // measure 73
1000
0010
0000
0010
0100
0000
0001
0010
0000
0010
0100
0000
1100
0000
1001
0000
,  // measure 74
0101
0000
0000
0000
0001
0010
0001
0000
1000
0100
1000
0000
0010
0100
0010
0000
,  // measure 75
0100
0000
0001
0000
0010
0000
0100
0000
1000
0100
0010
0001
0200
0000
0000
0000
,  // measure 76
0301
1000
0000
0001
1000
0000
0010
0100
0000
0010
0100
0000
0001
0010
0001
0000
,  // measure 77
0100
0010
0000
1000
0010
0000
0100
0001
0000
0010
0001
0000
1000
0100
1000
0000
,  // measure 78
0001
0100
0000
0001
0010
0000
0100
1000
0000
0001
1000
0000
0010
0000
0100
0000
,  // measure 79
0001
0010
0000
0010
0100
0000
0100
1000
0000
1000
0001
0000
0100
0000
0001
0000
,  // measure 80
0010
1000
0000
0010
0001
0000
0100
1000
0000
0100
0001
0000
1000
0000
0010
0000
,  // measure 81
0110
0000
0100
0001
0010
0000
0100
1000
0010
0000
1000
0000
0001
0000
0010
0000
,  // measure 82
0011
0000
0000
0101
0000
0000
0110
0000
0000
1010
0000
0000
1100
0000
0000
0110
,  // measure 83
0000
0000
0011
0000
0000
0101
0000
0000
0100
0010
1000
0100
0010
0001
0100
0000
,  // measure 84
0001
1000
0000
0001
1000
0000
0010
0100
0000
0001
0100
0000
0001
0000
0010
0000
,  // measure 85
1000
0010
0000
0001
0100
0000
0010
1000
0000
0010
0100
0000
0001
0000
0010
0000
,  // measure 86
0011
0000
0000
1001
0000
0000
1100
0000
0000
0110
0000
0000
0010
0000
0001
0000
,  // measure 87
1000
0100
0000
0100
0010
0000
0010
0001
0000
0001
0100
0000
0010
0000
1000
0001
,  // measure 88
1000
0100
0000
0100
0001
0000
0001
0100
0000
0100
1000
0000
0010
0000
0100
0001
,  // measure 89
0010
0000
0001
0000
1000
0100
1000
0100
0010
0001
0010
0001
0100
0010
0100
0010
,  // measure 90
1000
0000
0000
1001
0000
0000
0101
0000
0000
0110
0000
0000
1001
0000
1001
0000
,  // measure 91
0110
0000
0000
0110
0000
0000
0101
0000
0000
0000
0001
0010
0100
1000
0001
0010
,  // measure 92
0100
0000
0000
1100
0000
0000
1010
0000
0000
0000
0101
0000
0000
0000
0011
0000
,  // measure 93
0000
0000
0100
0010
1000
0100
0010
0001
0100
0010
1000
0100
0010
0001
0100
0000
,  // measure 94
0000
2002
0000
0000
,  // measure 95
0000
0000
0000
0000
,  // measure 96
0000
0000
0000
0000
,  // measure 97
3003
0000
0000
0000
;
