#TITLE:GRADIUSIC CYBER ~AMD G5 MIX~;
#SUBTITLE:;
#ARTIST:BIG-O feat. TAKA;
#TITLETRANSLIT:;
#SUBTITLETRANSLIT:;
#ARTISTTRANSLIT:;
#GENRE:;
#CREDIT:;
#BANNER:GRADIUSIC CYBER ~AMD G5 MIX~.png;
#BACKGROUND:GRADIUSIC CYBER ~AMD G5 MIX~-bg.png;
#LYRICSPATH:;
#CDTITLE:;
#MUSIC:GRADIUSIC CYBER ~AMD G5 MIX~.ogg;
#OFFSET:0.000000;
#SAMPLESTART:51.000000;
#SAMPLELENGTH:15.000000;
#SELECTABLE:YES;
#DISPLAYBPM:160.000000;
#BPMS:0.000000=160.237000
,12.000000=160.000000
;
#STOPS:
;
#BGCHANGES:;
#KEYSOUNDS:;
#ATTACKS:;

//---------------dance-single - ----------------
#NOTES:
     dance-single:
     :
     Beginner:
     3:
     0.154062,0.252941,0.117647,0.000000,0.000000,110.000000,98.000000,12.000000,0.000000,0.000000,0.000000,0.154062,0.252941,0.117647,0.000000,0.000000,110.000000,98.000000,12.000000,0.000000,0.000000,0.000000:
0000
0000
0000
0000
,
0000
0000
0000
0000
,
0000
0000
0000
0000
,
0000
0000
0000
0000
,
0000
0000
0000
0000
,
1000
0000
0000
0000
,
0010
0000
0000
0000
,
0001
0000
0000
0000
,
0100
0000
0000
0000
,
0000
0000
0000
0000
,
1000
0000
1000
0000
,
0100
0000
0100
0000
,
0010
0000
0001
0000
,
0010
0000
0001
0000
,
0001
0000
0001
0000
,
0100
0000
0100
0000
,
0010
0000
1000
0000
,
0010
0000
1000
0000
,
0100
0000
0100
0000
,
1000
0000
0100
0000
,
0010
0000
0010
0000
,
0001
0000
0010
0000
,
0100
0000
0100
0000
,
1000
0000
0100
0000
,
0010
0000
0010
0000
,
0001
0000
0010
0000
,
1001
0000
0000
0000
,
1001
0000
0000
0000
,
1001
0000
0000
0000
,
1001
0000
0000
0000
,
0110
0000
0000
0000
,
0110
0000
0000
0000
,
0110
0000
0000
0000
,
0110
0000
0000
0000
,
1000
0000
0000
0000
,
0100
0000
0000
0000
,
1000
0000
0000
0000
,
0100
0000
0000
0000
,
0001
0000
0000
0000
,
0100
0000
0000
0000
,
0001
0000
0000
0000
,
0100
0100
0100
0000
,
0100
0000
0100
0000
,
1000
1000
1000
0000
,
0001
0001
0001
0000
,
0100
0100
0100
0000
,
0100
0000
0100
0000
,
1000
1000
1000
0000
,
0001
0001
0001
0000
,
1001
0000
0000
0000
,
1000
0000
0001
0000
,
1001
0000
0000
0000
,
1000
0000
0001
0000
,
1001
0000
0000
0000
,
1000
0000
0001
0000
,
1001
0000
0000
0000
,
1000
0000
0001
0000
,
1000
0000
0000
0000
,
1000
0000
1000
0000
,
0100
0000
0000
0000
,
0100
0000
0100
0000
,
1000
0000
0000
0000
,
1000
0000
1000
0000
,
0010
0000
0000
0000
,
0010
0010
0010
0000
,
0000
0000
0000
0000
;

//---------------dance-single - ----------------
#NOTES:
     dance-single:
     :
     Easy:
     8:
     0.393557,0.414216,0.156863,0.000000,0.000000,281.000000,265.000000,16.000000,0.000000,0.000000,0.000000,0.393557,0.414216,0.156863,0.000000,0.000000,281.000000,265.000000,16.000000,0.000000,0.000000,0.000000:
0000
0000
0000
0000
,
0000
0000
0000
0000
,
0000
0000
0000
0000
,
0000
0000
0000
0000
,
0000
0000
0000
0000
,
1000
0100
0001
0100
,
1000
0001
0100
1000
,
0001
0100
1000
0001
,
0100
0100
1000
0001
,
0000
1000
0000
0000
0000
0000
0000
0000
,
0001
0000
1000
0000
0001
0010
1000
0010
,
0001
0000
0100
0000
0010
1000
0100
0000
,
1000
0000
0001
0000
1000
0010
0001
0010
,
1000
0000
0100
0000
0010
0001
0100
0000
,
0010
0000
1000
0000
0001
1000
0001
1000
,
0010
0000
0001
0000
1000
0001
1000
0001
,
0010
0000
1000
0000
0001
1000
0001
1000
,
0010
0000
0001
0000
0010
0000
1000
0100
,
0000
1000
0000
0001
0000
0100
0000
0010
,
0000
1000
0000
0100
0010
0001
0000
0100
,
0000
0001
0000
1000
0010
0001
0000
0000
,
0001
1000
0001
0100
,
0001
1000
0100
0001
,
1001
0100
1000
0100
,
1001
0100
0001
0100
,
1001
0100
0010
0100
,
1001
0010
1000
0100
,
0001
0100
1000
0010
,
1001
0100
0001
1000
,
0100
0001
0100
0010
,
1001
0100
1000
0001
,
0100
1000
0001
0010
,
1001
0010
1000
0001
,
0100
0100
0100
0100
,
1001
0000
0100
0000
1000
0001
0100
0000
,
0001
0000
1000
0000
0010
1000
0100
0000
,
1001
0000
0100
0000
0001
1000
0100
0000
,
1000
0000
0001
0000
0010
0001
0100
0000
,
1001
0000
0100
0000
1000
0100
0001
0000
,
1000
0000
0100
0000
0001
0100
1000
0000
,
1001
0000
0100
0000
0001
0100
1000
0000
,
0001
0001
1000
1000
,
0010
1000
0100
0001
,
1000
1000
0001
0001
,
1000
1000
0001
0001
,
0010
0010
0100
0100
,
0010
0001
0100
1000
,
0001
0001
1000
1000
,
0010
0010
0010
0010
,
0001
0100
1000
0010
,
0001
0100
1000
0010
,
0001
0100
1000
0010
,
0001
0100
1000
0010
,
1000
0100
0001
0010
,
1000
0100
0001
0010
,
1000
0100
0001
0010
,
1000
0100
0001
0010
,
1001
0000
0100
0000
1000
0100
0001
0000
,
1000
0000
1000
0000
0001
1000
0100
0000
,
1001
0000
0100
0000
0001
0100
1000
0000
,
0001
0000
0001
0000
1000
0001
0100
0000
,
1001
0000
0100
0000
1000
0010
0001
0000
,
0010
0000
1000
0000
0001
0100
1000
0000
,
1001
0000
0100
0000
0001
0010
1000
0000
,
0000
0000
0000
0000
1000
0000
0001
0100
,
1001
0000
0000
0000
,
0000
0000
0000
0000
;

//---------------dance-single - ----------------
#NOTES:
     dance-single:
     :
     Medium:
     10:
     0.477591,0.541667,0.303922,0.000000,0.019608,341.000000,310.000000,31.000000,0.000000,0.000000,0.000000,0.477591,0.541667,0.303922,0.000000,0.019608,341.000000,310.000000,31.000000,0.000000,0.000000,0.000000:
0000
0000
0000
0000
,
0000
0000
0000
0000
,
0000
0000
0000
0000
,
0000
0000
0000
0000
,
0000
0000
0000
0000
,
1000
0001
0100
0000
0001
1000
0100
0000
,
0010
0001
0100
0000
0010
1000
0100
0000
,
1000
0100
0001
0000
0001
0100
1000
0000
,
0100
0100
0100
0000
1001
0000
0100
0000
,
0000
1001
0000
0000
0000
0000
0000
0000
,
0010
0000
1000
0000
0100
0000
0010
0010
,
0001
0000
0100
0000
1000
0100
1000
0000
,
0010
1000
0001
1000
0001
1000
0100
0100
,
0001
0001
1000
1000
0100
0100
1001
0000
,
0010
0000
1000
0000
0001
1000
0001
1000
,
0010
0000
0001
0000
1000
0001
1000
0001
,
0010
0000
1000
0000
0001
1000
0001
1000
,
0010
0000
0101
0000
1100
0000
1001
0100
,
0000
1000
0000
0101
0000
1100
0000
0010
,
0000
1100
0000
0001
1000
0001
0000
1100
,
0000
0101
0000
1000
0010
0001
0000
0000
,
0001
0000
1000
0000
0001
1000
0100
0000
,
1000
0000
0001
0000
1000
0001
0100
0000
,
0001
0000
0100
0000
1000
0100
0001
0000
,
1001
0000
0100
0000
0001
0100
1000
0000
,
1001
0000
0100
0000
1000
0100
0001
0000
,
0010
0010
0000
0100
0100
0000
0001
0001
,
0000
1000
1000
0000
0010
0000
0010
0000
,
1000
0100
0000
0001
0100
0000
1000
0100
,
0000
0001
0100
0000
1000
0000
1000
0000
,
0010
0001
0000
0010
1000
0000
0010
0001
,
0000
0010
1000
0000
0100
0000
0100
0000
,
0001
0100
0000
0010
1000
0000
0001
0100
,
0000
0010
1000
0000
0001
0000
0001
0000
,
0010
1001
0000
0010
1000
0000
0010
0001
,
0000
0010
1001
0000
0010
0000
0010
0000
,
1001
0100
0000
0001
0010
0000
0001
0100
,
0000
1000
1000
0000
0010
0000
0010
0000
,
1001
0100
0000
1000
0010
0000
1000
0100
,
0000
0001
0100
0000
0010
0000
0010
0000
,
1001
0100
0000
0001
0010
0000
0001
0100
,
1000
0100
1000
0001
0100
0001
0000
0000
,
0000
0000
0000
0100
0000
0000
0100
0000
0000
1000
0000
0000
0100
0000
0000
0000
,
1000
0100
1000
0001
0100
0001
0000
0000
,
0001
0100
0001
1000
0100
1000
0000
0000
,
1000
0100
1000
0001
0100
0001
0000
0000
,
0000
0000
0000
0100
0000
0000
0100
0000
0000
0001
0000
0000
0100
0000
0000
0000
,
0001
0100
0001
1000
0100
1000
0000
0000
,
1000
0100
1000
0100
1000
0001
0101
0100
,
0001
0100
1000
0100
,
0101
1100
0101
1100
,
0001
0100
1000
0100
,
0101
1100
0101
1100
,
1000
0000
0100
0000
0001
1000
0100
0000
,
1000
0000
0001
0000
1000
0001
0100
0000
,
0010
0000
0001
0000
1000
0100
0001
0000
,
0010
0000
1000
0000
0001
0100
1000
0000
,
1000
0100
0000
0001
0100
0000
1000
0100
,
0000
0001
0100
0000
1000
0000
1000
0000
,
0010
0001
0000
0010
1000
0000
0010
0001
,
0000
0010
1000
0000
0001
0000
0001
0000
,
0001
0100
0000
0010
1000
0000
0001
0100
,
0000
0010
1000
0000
0001
0000
1000
0000
,
0010
1001
0000
0010
1001
0000
0010
1001
,
0010
0000
0000
0000
1000
0100
0001
0100
,
1001
0000
0000
0000
;

//---------------dance-single - ----------------
#NOTES:
     dance-single:
     :
     Hard:
     13:
     0.540616,0.732843,0.156863,0.000000,0.387255,386.000000,370.000000,16.000000,0.000000,0.000000,0.000000,0.540616,0.732843,0.156863,0.000000,0.387255,386.000000,370.000000,16.000000,0.000000,0.000000,0.000000:
// measure 0
0000
0000
0000
0000
,  // measure 1
0000
0000
0000
0000
,  // measure 2
0000
0000
0000
0000
,  // measure 3
0000
0000
0000
0000
,  // measure 4
0000
0000
0000
0000
,  // measure 5
0010
0000
1000
0000
0100
0000
0000
1000
0000
0001
1000
0000
0100
0000
0000
0000
,  // measure 6
0010
0000
0010
0000
0001
0000
0000
1000
0000
0001
1000
0000
0100
0000
0000
0000
,  // measure 7
0010
0000
0001
0000
1000
0000
0000
0100
0000
1000
0100
0000
1000
0000
0000
0000
,  // measure 8
0010
0000
1000
0000
0001
0000
0000
1000
0000
0001
1000
0000
0100
0000
0100
0000
,  // measure 9
0000
1001
0000
0000
0000
0000
0000
0000
,  // measure 10
0010
0000
1000
0000
0100
0000
1000
0100
0000
0000
1000
0000
0001
0000
0000
0000
,  // measure 11
0010
0000
0001
0000
0000
0000
0100
0000
0001
0000
0000
1000
0000
0000
0001
0000
,  // measure 12
0010
0000
0001
0000
0000
0000
0100
0000
0001
0000
0000
1000
0000
0000
0001
0000
,  // measure 13
0010
0000
0001
0000
0000
0000
1000
0000
0001
0000
0000
1000
0000
0000
0100
0000
,  // measure 14
0010
0000
0001
0000
0000
0000
1000
0000
0001
0000
0000
1000
0000
0000
0100
0000
,  // measure 15
1000
0000
0010
0000
0000
0000
0001
0000
0010
0000
0000
1000
0000
0000
0100
0000
,  // measure 16
0001
0000
0100
0000
0000
0000
1000
0000
0010
0000
0000
1001
0000
0000
0100
0000
,  // measure 17
0000
0000
0000
0010
0000
0000
1000
0000
0000
0100
1000
0100
1000
0100
1000
0100
,  // measure 18
1000
0000
0001
0000
0100
0000
0000
0000
0001
0000
0000
1000
0000
0000
0100
0000
,  // measure 19
0010
0000
0000
0001
0000
0000
1000
0000
0100
0000
0000
1000
0000
0000
0001
0000
,  // measure 20
0100
0000
0100
0000
0001
0000
0000
0000
1000
0000
0000
0100
0000
0000
0000
0000
,  // measure 21
0010
0000
0000
0001
0000
0000
1000
0000
0100
0000
0000
1000
0000
0000
0001
0000
,  // measure 22
0000
0000
0100
0000
0000
0000
0100
0000
1000
0000
0000
0001
0000
0000
0100
0000
,  // measure 23
1000
0100
0000
1000
0100
0001
0000
0100
,  // measure 24
1000
0100
0000
1000
0100
0001
0000
0100
,  // measure 25
0000
0000
1001
0000
0000
0100
0000
0000
0001
0000
0000
0100
0000
0000
0100
0000
,  // measure 26
1001
0100
0000
1000
0100
0000
0001
0100
,  // measure 27
0000
1000
0100
0000
0010
0000
0010
0000
,  // measure 28
1000
0100
0000
0001
0100
0000
1000
0100
,  // measure 29
0000
0001
0100
0000
0000
1001
0000
0100
,  // measure 30
1000
0100
0000
0001
0100
0000
0010
1000
,  // measure 31
0000
0010
0001
0000
0100
0000
0100
0000
,  // measure 32
1001
0100
0000
1000
0100
0000
0001
0100
,  // measure 33
0010
1000
0001
0100
1000
0100
0010
0001
,  // measure 34
1000
0101
0000
0001
1100
0000
0010
1000
,  // measure 35
0000
0010
0001
0000
1100
0000
0101
0000
,  // measure 36
1000
0101
0000
0001
1100
0000
0010
1000
,  // measure 37
0000
0010
0001
0000
0000
0100
0000
0100
,  // measure 38
1001
0100
0000
1001
0100
0000
0001
0100
,  // measure 39
0000
1000
0100
0000
0010
0000
0010
0000
,  // measure 40
1001
0100
0000
0010
1000
0000
0001
0000
,  // measure 41
0010
0001
0010
0001
0010
0000
0001
0100
0001
0100
0001
0000
0000
0000
0000
0000
,  // measure 42
0000
0000
0000
0010
0000
0000
1000
0000
0000
0100
0000
0000
1000
0000
0000
0000
,  // measure 43
0010
1000
0010
1000
0010
0000
1000
0100
1000
0100
1000
0000
0000
0000
0000
0000
,  // measure 44
0010
0001
0010
0001
0010
0000
0001
0100
0001
0100
0001
0000
0000
0000
0000
0000
,  // measure 45
0010
1000
0010
1000
0010
0000
1000
0100
1000
0100
1000
0000
0000
0000
0000
0000
,  // measure 46
0000
0000
0000
0010
0000
0000
0001
0000
0000
0100
0000
0000
0001
0000
0000
0000
,  // measure 47
0001
0010
0001
0010
0001
0000
0001
0100
0001
0100
0001
0000
0000
0000
0000
0000
,  // measure 48
1000
0010
1000
0010
1000
0010
1000
0100
1000
0100
1000
0100
0000
0000
0000
0000
,  // measure 49
0010
0000
1000
0000
0100
0000
0000
1000
0000
0000
0001
0000
0000
0000
0100
0000
,  // measure 50
0010
0000
1000
0000
0001
0000
0000
1000
0000
0000
0001
0000
0000
0000
0100
0000
,  // measure 51
1000
0000
0100
0000
0001
0000
0000
1000
0000
0000
0100
0000
0000
0000
0100
0000
,  // measure 52
0001
0000
0100
0000
1000
0000
0000
0001
0000
0000
0100
0000
0000
0000
0100
0000
,  // measure 53
0010
0000
1000
0001
1000
0000
0000
0100
0000
0000
1000
0000
0000
0000
0100
0000
,  // measure 54
1000
0000
0001
1000
0001
0000
0000
0100
0000
0000
0010
0000
0000
0000
1000
0000
,  // measure 55
0100
0000
1000
0100
1000
0000
0000
0001
0000
0000
0100
0000
0000
0000
1000
0000
,  // measure 56
0001
0000
1000
0001
1000
0000
0000
0100
0000
0000
0010
0000
0000
0000
0010
0000
,  // measure 57
1000
0100
0001
0000
0000
1000
0000
0010
,  // measure 58
0100
0000
0100
0000
0000
1000
0001
0000
,  // measure 59
0001
0100
1000
0000
0000
0001
0000
0010
,  // measure 60
0100
0000
0100
0000
0000
0001
1000
0000
,  // measure 61
0010
0000
0000
0000
0010
0000
0000
0000
1000
0001
0000
0100
0001
0000
0000
0000
,  // measure 62
0100
0000
0000
0000
0100
0000
0000
0000
0001
1000
0000
0100
1000
0000
0000
0000
,  // measure 63
0010
0000
0000
0000
0010
0000
0000
0000
0000
0000
0000
0000
1000
0100
1000
0001
,  // measure 64
0010
0000
0000
0000
0010
0000
0000
0000
0000
1000
0000
0001
0000
0000
0100
0000
,  // measure 65
1001
0000
0000
0000
;

//---------------dance-double - ----------------
#NOTES:
     dance-double:
     :
     Easy:
     9:
     0.396359,0.414216,0.166667,0.000000,0.000000,283.000000,266.000000,17.000000,0.000000,0.000000,0.000000,0.396359,0.414216,0.166667,0.000000,0.000000,283.000000,266.000000,17.000000,0.000000,0.000000,0.000000:
00000000
00000000
00000000
00000000
,
00000000
00000000
00000000
00000000
,
00000000
00000000
00000000
00000000
,
00000000
00000000
00000000
00000000
,
00000000
00000000
00000000
00000000
,
00000001
00000100
00001000
00010000
,
01000000
10000000
01000000
00010000
,
00001000
00000100
00001000
00010000
,
00001000
00001000
00010000
00000100
,
00000000
00001001
00000000
00000000
00000000
00000000
00000000
00000000
,
00010000
00000000
00001000
00000000
00010000
01000000
10000000
01000000
,
00010000
00000000
00000100
00000000
00001000
00000010
00000001
00000000
,
00000010
00000000
00001000
00000000
00000100
00010000
00001000
00010000
,
01000000
00000000
10000000
00000000
00100000
00010000
00100000
00000000
,
10000000
00000000
00010000
00000000
10000000
01000000
00010000
00001000
,
00010000
00000000
00001000
00000000
00000100
00000001
00001000
00000100
,
00010000
00000000
00001000
00000000
00010000
01000000
10000000
00010000
,
00100000
00000000
00010000
00000000
01000000
00000000
00010000
01000000
,
00000000
00010000
00000000
10000000
00000000
01000000
00000000
00100000
,
00000000
10000000
00000000
01000000
00100000
00010000
00000000
00000100
,
00000000
00000001
00000000
00001000
00000001
00000100
00000000
00000000
,
00001001
00000100
00010000
00001000
,
00010000
01000000
10000000
01000000
,
10010000
01000000
00001000
00010000
,
00001000
00000100
00000001
00000100
,
00001000
00000100
00010000
00001000
,
00010000
01000000
10000000
01000000
,
00010000
01000000
10000000
00100000
,
00011000
00000010
00001000
00000001
,
00001000
00000100
00010000
00001000
,
00011000
00100000
00010000
10000000
,
01000000
00010000
10000000
00100000
,
10010000
01000000
10000000
00010000
,
00001000
00000100
00000001
00000010
,
00001001
00000000
00000100
00000000
00000001
00000100
00001000
00000000
,
00010000
00000000
01000000
00000000
10000000
01000000
00010000
00000000
,
00011000
00000000
00000100
00000000
00001000
00000100
00000001
00000000
,
00001000
00000000
00000100
00000000
00010000
00001000
00010000
00000000
,
00011000
00000000
01000000
00000000
00010000
01000000
10000000
00000000
,
00010000
00000000
01000000
00000000
00010000
10000000
01000000
00000000
,
10010000
00000000
01000000
00000000
01000000
00010000
00001000
00000000
,
00010000
00010000
00001000
00000100
,
00000010
00001000
00000100
00000001
,
00000010
00000010
00001000
00001000
,
00010000
00010000
00100000
00100000
,
00011000
00010000
00011000
00001000
,
00010000
00001000
00010000
01000000
,
10000000
10000000
01000000
01000000
,
00010000
00010000
00001000
00001000
,
00010000
00001000
00000100
00000001
,
00001000
00000100
00001000
00000100
,
00010000
00001000
00010000
01000000
,
10000000
00010000
01000000
10000000
,
00100000
10000000
00010000
01000000
,
00001000
00010000
00001000
00000100
,
00000001
00000100
00001000
00000100
,
00010000
01000000
10000000
01000000
,
10010000
00000000
01000000
00000000
10000000
01000000
00010000
00000000
,
00001000
00000000
00001000
00000000
00000001
00000100
00001000
00000000
,
00011000
00000000
01000000
00000000
10000000
01000000
00010000
00000000
,
00001000
00000000
00001000
00000000
00010000
00001000
00000100
00000000
,
00011000
00000000
00000100
00000000
00000001
00000100
00001000
00000000
,
00010000
00000000
00010000
00000000
00001000
00010000
01000000
00000000
,
00011000
00000000
00001100
00000000
00001000
00000010
00000001
00000000
,
00000000
00000000
00000000
00000000
00000001
00000100
00001000
01000000
,
10000000
00000000
00000000
00000000
,
00000000
00000000
00000000
00000000
;

//---------------dance-double - ----------------
#NOTES:
     dance-double:
     :
     Medium:
     11:
     0.453782,0.541667,0.156863,0.000000,0.029412,324.000000,308.000000,16.000000,0.000000,0.000000,0.000000,0.453782,0.541667,0.156863,0.000000,0.029412,324.000000,308.000000,16.000000,0.000000,0.000000,0.000000:
00000000
00000000
00000000
00000000
,
00000000
00000000
00000000
00000000
,
00000000
00000000
00000000
00000000
,
00000000
00000000
00000000
00000000
,
00000000
00000000
00000000
00000000
,
00001010
00000100
00001000
00010000
,
01000000
00000000
00010000
00000000
00001000
00010000
00001000
00000000
,
00010000
00001000
00010000
00000000
01000000
00000000
00010000
00000000
,
00001000
00010000
01000000
00000000
10010000
00000000
01000000
00000000
,
00000000
00011000
00000000
00000000
00000000
00000000
00000000
00000000
,
00001000
00000000
00010000
00000000
01000000
00000000
10000000
00010000
,
01000000
00000000
01000000
00000000
00100000
00010000
00001000
00000000
,
00010000
00001000
00010000
01000000
10000000
00010000
01000000
01000000
,
00010000
00010000
01000000
01000000
10000000
00010000
10010000
00000000
,
00100000
00000000
00010000
00000000
00001000
00010000
00001000
00000100
,
00001000
00000000
00010000
00000000
00001000
00000100
00001000
00010000
,
01000000
00000000
10000000
00000000
00010000
10000000
00100000
00010000
,
00100000
00000000
10000000
00000000
01000000
00000000
10010000
00100000
,
00000000
00010000
00000000
00001000
00000000
00010000
00000000
00001000
,
00000000
00000100
00000000
00001000
00000001
00000100
00000000
00001001
,
00000000
00000100
00000000
00010000
00001000
00000100
00000000
00000000
,
00010000
00000000
01000000
00000000
10000000
01000000
00010000
00000000
,
10000000
00000000
00010000
00000000
00100000
00010000
00001000
00000000
,
00000001
00000000
00001000
00000000
00000010
00001000
00010000
00000000
,
00011000
00000000
01000000
00000000
00010000
10000000
01000000
00000000
,
10010000
00000000
01000000
00000000
10000000
01000000
00010000
00000000
,
00001000
00001000
00000000
00000100
00001000
00000000
00001000
00010000
,
00000000
01000000
00010000
00000000
00001000
00000000
00001000
00000000
,
00011000
00010000
00000000
01000000
00010000
00000000
00010000
10000000
,
00000000
01000000
00100000
00000000
00010000
00000000
01000000
00000000
,
00011000
00010000
00000000
00100000
10000000
00000000
10000000
01000000
,
00000000
00010000
00001000
00000000
00000100
00000000
00000100
00000000
,
00011000
00010000
00000000
00001000
00010000
00000000
00001000
00000100
,
00000000
00000010
00001000
00000000
00000010
00000000
00000010
00000000
,
00010000
00001000
00000000
00000001
00000100
00000000
00000001
00000100
,
00000000
00010000
00010000
00000000
00100000
00000000
00100000
00000000
,
00011000
00000100
00000000
00010000
01000000
00000000
00010000
01000000
,
00000000
10000000
01000000
00000000
00100000
00000000
00100000
00000000
,
00011000
00000100
00000000
00010000
01000000
00000000
00001000
00000100
,
00000000
00001000
00000100
00000000
00001000
00000000
00001000
00000000
,
00001000
00010000
00000000
00010000
00001000
00000000
00010000
00000100
,
00010000
00001000
00010000
00001000
00010000
00001000
00000000
00000000
,
00000000
00000000
00000000
00010000
00000000
00000000
01000000
00000000
00000000
10000000
00000000
00000000
01000000
00000000
00000000
00000000
,
10000000
01000000
00010000
01000000
10000000
01000000
00000000
00000000
,
00100000
00010000
00001000
00010000
00001000
00010000
00000000
00000000
,
00001000
00000100
00000001
00000100
00001000
00000100
00000000
00000000
,
00000000
00000000
00000000
00000001
00000000
00000000
00000100
00000000
00000000
00001000
00000000
00000000
00010000
00000000
00000000
00000000
,
00010000
01000000
10000000
01000000
00010000
01000000
00000000
00000000
,
00010000
10000000
00010000
01000000
00010000
10000000
01000000
00010000
,
10000000
01000000
00010000
00001000
,
00000100
00000001
00000100
00011000
,
00010000
01000000
10000000
01010000
,
00001000
00010000
00001000
00000100
,
00010000
00000000
01000000
00000000
10000000
01000000
00010000
00000000
,
00010000
00000000
10000000
00000000
00100000
10000000
01000000
00000000
,
00100000
00000000
00010000
00000000
00001000
00000100
00000001
00000000
,
00000010
00000000
00001000
00000000
00000001
00000100
00001000
00000000
,
00001000
00010000
00000000
00010000
00001000
00000000
00000100
00000001
,
00000000
00001000
00000100
00000000
00010000
00000000
00010000
00000000
,
00010000
00001000
00000000
00010000
01000000
00000000
10000000
00100000
,
00000000
00010000
00100000
00000000
10000000
00000000
10000000
00000000
,
00100000
00010000
00000000
00001000
00010000
00000000
00001000
00000100
,
00000000
00000001
00001000
00000000
00000100
00000000
00000100
00000000
,
00001000
00000100
00000000
00001000
00010000
00000000
01000000
10010000
,
01000000
00000000
00000000
00000000
00000000
00000000
00000000
00000000
10000000
10000000
01000000
00000000
00010000
00001000
00000100
00000000
,
00000001
00000000
00000000
00000000
,
00000000
00000000
00000000
00000000
;

//---------------dance-double - ----------------
#NOTES:
     dance-double:
     :
     Hard:
     13:
     0.521008,0.732843,0.039216,0.000000,0.372549,372.000000,368.000000,4.000000,0.000000,0.000000,0.000000,0.521008,0.732843,0.039216,0.000000,0.372549,372.000000,368.000000,4.000000,0.000000,0.000000,0.000000:
00000000
00000000
00000000
00000000
,
00000000
00000000
00000000
00000000
,
00000000
00000000
00000000
00000000
,
00000000
00000000
00000000
00000000
,
00000000
00000000
00000000
00000000
,
00100000
00000000
10000000
00000000
01000000
00000000
00000000
00100000
00000000
00010000
10000000
00000000
01000000
00000000
00000000
00000000
,
00010000
00000000
00001000
00000000
00000100
00000000
00000000
00000001
00000000
00000100
00000001
00000000
00000100
00000000
00000000
00000000
,
00001000
00000000
00010000
00000000
01000000
00000000
00000000
10000000
00000000
00010000
10000000
00000000
01000000
00000000
00000000
00000000
,
00100000
00000000
00010000
00000000
01000000
00000000
00000000
00001000
00000000
00010000
00001000
00000000
00000100
00000000
00000001
00000000
,
00000000
00001100
00000000
00000000
00000000
00000000
00000000
00000000
,
00010000
00000000
10000000
00000000
01000000
00000000
10000000
01000000
00000000
00000000
00010000
00000000
00001000
00000000
00000000
00000000
,
00010000
00000000
00001000
00000000
00000100
00000000
00000000
00000000
00000001
00000000
00000000
00001000
00000000
00000000
00000001
00000000
,
00000010
00000000
00001000
00000000
00000000
00000000
00010000
00000000
00100000
00000000
00000000
10000000
00000000
00000000
01000000
00000000
,
00100000
00000000
00010000
00000000
00000000
00000000
10000000
00000000
01000000
00000000
00000000
10000000
00000000
00000000
00010000
00000000
,
01000000
00000000
10000000
00000000
00000000
00000000
01000000
00000000
00010000
00000000
00000000
10000000
00000000
00000000
01000000
00000000
,
00010000
00000000
00000010
00000000
00000000
00000000
00000001
00000000
00000010
00000000
00000000
00001000
00000000
00000000
00000100
00000000
,
00010000
00000000
00001000
00000000
00000000
00000000
00010000
00000000
01000000
00000000
00000000
10000000
00000000
00000000
01000000
00000000
,
00000000
00000000
00000000
00100000
00000000
00000000
00001000
00000000
00000000
00010000
00001000
00010000
00001000
00010000
00001000
00010000
,
00001000
00000000
00010000
00000000
01000000
00000000
00000000
00000000
10000000
00000000
00000000
00010000
00000000
00000000
01000000
00000000
,
00100000
00000000
00000000
10000000
00000000
00000000
01000000
00000000
00010000
00000000
00000000
00001000
00000000
00000000
00000100
00000000
,
00000001
00000000
00001000
00000000
00000100
00000000
00000000
00000000
00010000
00000000
00000000
00001000
00000000
00000000
00000000
00000000
,
00010000
00000000
00000000
00100000
00000000
00000000
10000000
00000000
01000000
00000000
00000000
10000000
00000000
00000000
00010000
00000000
,
00000000
00000000
01000000
00000000
00000000
00000000
01000000
00000000
10000000
00000000
00000000
00010000
00000000
00000000
10000000
00000000
,
01000000
00010000
00000000
00001000
00000100
00000001
00000000
00001000
,
00000100
00001000
00000000
00100000
00010000
00001000
00000000
00010000
,
00000000
00000000
00001000
00000000
00000000
00000100
00000000
00000000
00000001
00000000
00000000
00001000
00000000
00000000
00000100
00000000
,
00001000
00000100
00000000
00001000
00000100
00000000
00010000
00001000
,
00000000
00100000
00010000
00000000
00100000
00000000
00100000
00000000
,
10000000
01000000
00000000
10000000
01000000
00000000
00100000
00010000
,
00000000
00010000
01000000
00000000
00000000
00011000
00000000
00001000
,
00000100
00001000
00000000
00000001
00000100
00000000
00000010
00001000
,
00000000
00000010
00001000
00000000
00000100
00000000
00000100
00000000
,
00010000
00001000
00000000
00010000
00001000
00000000
00100000
00010000
,
00100000
10000000
01000000
00010000
01000000
10000000
00100000
00010000
,
00100000
10000000
00000000
01000000
00010000
00000000
00001000
00000100
,
00000000
00000001
00000100
00000000
00010000
00000000
00001000
00000000
,
00010000
01000000
00000000
10000000
01000000
00000000
00100000
00010000
,
00000000
00100000
00010000
00000000
00000000
00001000
00000000
00010000
,
00001000
00000100
00000000
00000001
00000100
00000000
00001000
00000100
,
00000000
00001000
00010000
00000000
00100000
00000000
00100000
00000000
,
10010000
01000000
00000000
00010000
01000000
00000000
00010000
00000000
,
00100000
00010000
00100000
00010000
00100000
00000000
00001000
00010000
00001000
00010000
00001000
00000000
00000000
00000000
00000000
00000000
,
00000000
00000000
00000000
00010000
00000000
00000000
00001000
00000000
00000000
00000100
00000000
00000000
00000001
00000000
00000000
00000000
,
00000010
00000001
00000010
00000001
00000010
00000000
00000001
00000100
00000001
00000100
00000001
00000000
00000000
00000000
00000000
00000000
,
00001000
00000100
00001000
00000100
00001000
00000000
00001000
00010000
00001000
00010000
00001000
00000000
00000000
00000000
00000000
00000000
,
00100000
00010000
00100000
00010000
00100000
00000000
01000000
10000000
01000000
10000000
01000000
00000000
00000000
00000000
00000000
00000000
,
00000000
00000000
00000000
00100000
00000000
00000000
00010000
00000000
00000000
00000100
00000000
00000000
00000001
00000000
00000000
00000000
,
00001000
00000010
00001000
00000010
00001000
00000000
00001000
00000100
00010000
00000100
00001000
00000000
00000000
00000000
00000000
00000000
,
00010000
00001000
00010000
00001000
00010000
00001000
00010000
00001000
00010000
00001000
00010000
00001000
00000000
00000000
00000000
00000000
,
00100000
00000000
00010000
00000000
10000000
00000000
00000000
01000000
00000000
00000000
00100000
00000000
00000000
00000000
00010000
00000000
,
00000100
00000000
00000001
00000000
00000010
00000000
00000000
00001000
00000000
00000000
00000010
00000000
00000000
00000000
00000001
00000000
,
00000100
00000000
00001000
00000000
00010000
00000000
00000000
01000000
00000000
00000000
10010000
00000000
00000000
00000000
10000000
00000000
,
00100000
00000000
00010000
00000000
00000100
00000000
00000000
00010000
00000000
00000000
00001000
00000000
00000000
00000000
00001000
00000000
,
00010000
00000000
00100000
00000000
00010000
00000000
00000000
00001000
00000000
00000000
00010000
00000000
00000000
00000000
00000100
00000000
,
00010000
00000000
00001000
00000000
00000100
00000000
00000000
00000001
00000000
00000000
00001000
00000000
00000000
00000000
00000100
00000000
,
00010000
00000000
00001000
00010000
00001000
00000000
00000000
00001000
00000000
00000000
00010000
00000000
00000000
00000000
01000000
00000000
,
00100000
00000000
00010000
01000000
00010000
00000000
00000000
01000000
00000000
00000000
00010000
00000000
00000000
00000000
00010000
00000000
,
00100000
00010000
01000000
00000000
00000000
00001000
00000000
00010000
,
00001000
00000000
00010000
00000000
00000000
00001000
00000100
00000000
,
00010000
00001000
00010000
00000000
00000000
00000100
00000000
00010000
,
00001000
00000000
00001000
00000000
00000000
00010000
10000000
00000000
,
00100000
00000000
00000000
00000000
00100000
00000000
00000000
00000000
00010000
00001000
00000000
00010000
00001000
00000000
00000000
00000000
,
00000100
00000000
00000000
00000000
00000100
00000000
00000000
00000000
00010000
10000000
01000000
00000000
10000000
00000000
00000000
00000000
,
00100000
00000000
00000000
00000000
00010000
00000000
00000000
00000000
00000000
00000000
00000000
00000000
00001000
00010000
00001000
00010000
,
00001000
00000000
00000000
00000000
00000100
00000000
00000000
00000000
00000000
00000001
00000000
00001000
00000000
00000000
01000000
00000000
,
10000000
00000000
00000000
00000000
,
00000000
00000000
00000000
00000000
;

//---------------dance-couple - ----------------
#NOTES:
     dance-couple:
     :
     Medium:
     9:
     0.298319,0.446078,0.137255,0.000000,0.000000,213.000000,199.000000,14.000000,0.000000,0.000000,0.000000,0.298319,0.446078,0.137255,0.000000,0.000000,213.000000,199.000000,14.000000,0.000000,0.000000,0.000000:
00000000
00000000
00000000
00000000
,
00000000
00000000
00000000
00000000
,
00000000
00000000
00000000
00000000
,
00000000
00000000
00000000
00000000
,
00000000
00000000
00000000
00000000
,
10001000
01000100
00010001
01000100
,
10001000
00010001
01000100
10001000
,
00010001
01000100
10001000
00010001
,
01000100
01000100
10001000
00010001
,
00000000
10011001
00000000
00000000
00000000
00000000
00000000
00000000
,
00010000
00000000
10000001
00000000
00010000
00100000
10000001
00100000
,
00010000
00000000
01000001
00000000
00100000
10000000
01000001
00000000
,
10000000
00000000
00010001
00000000
10000000
00100000
00010001
00100000
,
10000000
00000000
01000001
00000000
00100000
00010000
01000001
00000000
,
00000001
00000000
10001000
00000000
00000001
00000010
10001000
00000010
,
00000001
00000000
10000100
00000000
00000010
00001000
10000100
00000000
,
00001000
00000000
10000001
00000000
00001000
00000010
10000001
00000010
,
00001000
00000000
10000100
00000000
00000010
00000001
10000100
00000000
,
10001000
01000100
00010001
01000100
,
10001000
01000100
00010001
01000100
,
10001000
01000100
00010001
01000100
,
00000000
00000000
00000000
00000000
,
10010000
01000000
00010000
01000000
,
10010000
01000000
00010000
01000000
,
00001001
00000100
00000001
00000100
,
00001001
00000100
00000001
00000100
,
00100000
00100000
00000001
01000000
01000000
00000000
00010001
00010000
,
00000000
10000000
10000001
00000000
00100000
00000000
00100001
00000000
,
00000010
00000010
10000000
00000100
00000100
00000000
10000001
00000001
,
00000000
00001000
10001000
00000000
00000010
00000000
10000010
00000000
,
00100000
00010000
00000001
00100000
10000000
00000000
00100001
00010000
,
00000000
00100000
10000001
00000000
01000000
00000000
01000001
00000000
,
00000010
00000001
10000000
00000010
00001000
00000000
10000010
00000001
,
00000000
00000010
10001000
00000000
00000100
00000000
10000100
00000000
,
00100000
10010000
00000001
00100000
10000000
00000000
00100001
00010000
,
00000000
00100000
10010001
00000000
00100000
00000000
00100001
00000000
,
00000010
00001001
10000000
00000010
00001000
00000000
10000010
00000001
,
00000000
00000010
10001001
00000000
00000010
00000000
10000010
00000000
,
10010000
01000000
00000001
10000000
00100000
00000000
10000001
01000000
,
00000000
00010000
01000001
00000000
00100000
00000000
00100001
00000000
,
00001001
00000100
10000000
00001000
00000010
00000000
10001000
00000100
,
00000000
00000001
10000100
00000000
00000010
00000000
10000010
00000000
,
00000000
00000000
00000000
00000000
,
10001000
10001000
00010001
00010001
,
10001000
10001000
00010001
00010001
,
00100010
00100010
01000100
01000100
,
00000000
00000000
00000000
00000000
,
00010001
00010001
10001000
10001000
,
00100010
00100010
00100010
00100010
,
00000001
10000100
00001000
10000100
,
00000101
10001100
00000101
10001100
,
00010000
01000001
10000000
01000001
,
01010000
11000001
01010000
11000001
,
00001000
00000000
10000100
00000000
00000001
00000001
10000001
00000000
,
00001000
00000000
10000001
00000000
00001000
00001000
10001000
00000000
,
10000000
00000000
01000001
00000000
00010000
00010000
00010001
00000000
,
10000000
00000000
00010001
00000000
10000000
10000000
10000001
00000000
,
00001000
00000100
10000000
00000001
00000100
00000000
10001000
00000100
,
00000000
00000001
10000100
00000000
00001000
00000000
10001000
00000000
,
10000000
01000000
00000001
00010000
01000000
00000000
10000001
01000000
,
00000000
00010000
01000001
00000000
10000000
00000000
10000001
00000000
,
00010001
01000100
00000000
00100010
10001000
00000000
00010001
01000100
,
00000000
00100010
10001000
00000000
00010001
00000000
10011001
00000000
,
00100010
10011001
00000000
00100010
10011001
00000000
00100010
00000000
,
00000000
00000000
00000000
00000000
,
10011001
00000000
00000000
00000000
;

//---------------dance-solo - ----------------
#NOTES:
     dance-solo:
     :
     Easy:
     5:
     0.383754,0.414216,0.156863,0.000000,0.000000,274.000000,258.000000,16.000000,0.000000,0.000000,0.000000,0.383754,0.414216,0.156863,0.000000,0.000000,274.000000,258.000000,16.000000,0.000000,0.000000,0.000000:
000000
000000
000000
000000
,
000000
000000
000000
000000
,
000000
000000
000000
000000
,
000000
000000
000000
000000
,
000000
000000
000000
000000
,
010000
000001
100000
000010
,
001000
000001
100000
000100
,
010000
000001
100000
000010
,
000100
000001
100000
001000
,
000000
000000
000000
000000
,
100000
000100
010000
001000
,
000010
001000
000001
000100
,
100000
000000
000100
000000
001000
000010
000010
000000
,
010000
000000
000001
000000
000100
001000
001000
000000
,
000010
000000
010000
000000
000001
100000
000001
100000
,
000100
000000
001000
000000
000010
010000
000010
010000
,
000001
000000
100000
000000
000100
001000
000100
001000
,
000001
000100
000010
100000
,
000001
010000
000100
001000
,
000010
100000
000100
010000
,
000001
000100
000010
100000
,
000100
010000
000001
001000
,
000010
100000
000010
010000
,
100001
001000
000010
001000
,
100001
001000
010000
001000
,
100001
000010
001000
000001
,
100001
010000
001000
000010
,
000001
001000
100000
000100
,
100001
010000
000100
100000
,
000010
001000
000001
010000
,
100001
001000
000010
100000
,
000100
010000
000001
001000
,
100001
000100
100000
000001
,
010000
000001
010000
000001
,
001100
000000
100000
000000
000001
001000
100000
000000
,
010000
000000
000010
000000
001000
000001
100000
000000
,
001100
000000
000001
000000
100000
010000
100000
000000
,
000001
000000
001000
000000
000010
000001
000010
000000
,
001100
000000
100000
000000
000001
001000
100000
000000
,
000010
000000
010000
000000
000100
100000
000001
000000
,
100001
000000
000010
000000
010000
000100
001000
000000
,
000010
000010
100000
100000
,
000100
001000
100000
000001
,
010000
010000
000001
000001
,
100000
100000
000100
000100
,
001000
001000
000001
000001
,
010000
001000
000010
100000
,
000010
000010
001000
001000
,
010000
000010
010000
000010
,
100000
000010
010000
000001
,
100000
000010
010000
000001
,
100000
000010
010000
000001
,
100000
000010
010000
000001
,
001000
000010
100000
000100
,
001000
000010
100000
000100
,
001000
000010
100000
000100
,
001000
000010
100000
000100
,
100001
000000
001000
000000
000010
010000
000100
000000
,
100000
000000
100000
000000
000010
001000
000001
000000
,
001100
000000
100000
000000
000001
001000
100000
000000
,
000001
000000
000001
000000
010000
001000
100000
000000
,
100010
000000
000001
000000
001000
000100
010000
000000
,
000001
000000
100000
000000
000100
001000
000001
000000
,
001100
000000
100000
000000
000001
000100
100000
000000
,
000000
000000
000000
000000
010000
000000
000010
001000
,
100001
000000
000000
000000
;

//---------------dance-solo - ----------------
#NOTES:
     dance-solo:
     :
     Medium:
     6:
     0.462185,0.509804,0.215686,0.000000,0.019608,330.000000,308.000000,22.000000,0.000000,0.000000,0.000000,0.462185,0.509804,0.215686,0.000000,0.019608,330.000000,308.000000,22.000000,0.000000,0.000000,0.000000:
000000
000000
000000
000000
,
000000
000000
000000
000000
,
000000
000000
000000
000000
,
000000
000000
000000
000000
,
000000
000000
000000
000000
,
100000
000010
001000
000000
000001
100000
000100
000000
,
001000
000010
010000
000000
000100
010000
000001
000000
,
100000
001000
000001
000000
000001
001000
100000
000000
,
000010
000010
000010
000000
001100
000000
100000
000000
,
000000
001100
000000
000000
000000
000000
000000
000000
,
000010
000000
010000
000000
000001
000000
100000
100000
,
000100
000000
001000
000000
000001
000010
000001
000000
,
000100
010000
000010
010000
000010
010000
000001
000001
,
000000
000000
001000
001000
000100
000100
100000
100000
,
000010
000000
010000
000000
000001
001000
000001
001000
,
000100
000000
000001
000000
100000
010000
100000
010000
,
001000
000000
000100
000000
100000
000010
100000
000010
,
001000
000000
001001
000000
000101
000000
000110
000001
,
000000
100000
000000
100100
000000
010100
000000
110000
,
000000
000001
000000
001000
000100
001000
000000
000001
,
000000
101000
000000
000100
001000
000000
000001
000000
,
010000
000000
000001
000000
100000
000010
001000
000000
,
000001
000000
010000
000000
000100
100000
000010
000000
,
001000
000000
000001
000000
100000
000010
000100
000000
,
010010
000000
001000
000000
000001
001000
100000
000000
,
000101
000000
000100
000000
100000
001000
000001
000000
,
000100
000100
000000
010000
010000
000000
000010
000010
,
000000
100000
100000
000000
000001
000000
000001
000000
,
010000
000010
000000
000010
010000
000000
000100
001000
,
000000
000001
100000
000000
000100
000000
000100
000000
,
001000
000001
000000
000100
100000
000000
001000
000001
,
000000
000100
010000
000000
001000
000000
001000
000000
,
000010
100000
000000
000100
100000
000000
000001
001000
,
000000
000100
010000
000000
000010
000000
000010
000000
,
001000
001010
000000
000100
100000
000000
001000
000100
,
000000
001000
100001
000000
000100
000000
000100
000000
,
110000
000100
000000
000001
000010
000000
000001
001000
,
000000
100000
100000
000000
001000
000000
001000
000000
,
010010
100000
000000
100000
000100
000000
100000
000001
,
000000
001000
000100
000000
100000
000000
100000
000000
,
001100
000010
000000
010000
100000
000000
010000
000100
,
000010
000100
000010
100000
001000
100000
000000
000000
,
000000
000000
000000
000010
000000
000000
000010
000000
000000
010000
000000
000000
100000
000000
000000
000000
,
000100
001000
000100
100000
000001
100000
000000
000000
,
000001
001000
000001
100000
001000
100000
000000
000000
,
100000
001000
100000
000001
001000
000001
000000
000000
,
000000
000000
000000
000010
000000
000000
000001
000000
000000
010000
000000
000000
100000
000000
000000
000000
,
000100
001000
000100
100000
000001
100000
000000
000000
,
010000
100000
010000
100000
010000
001000
000001
000100
,
000001
001000
100000
001000
,
000010
000110
010000
010100
,
000001
001000
100000
000100
,
000001
000011
100000
110000
,
000100
001000
000001
100000
,
001000
000000
000100
000000
100000
000001
001000
000000
,
000010
000000
010000
000000
000010
000010
010000
000000
,
000100
000000
100000
000000
000001
010000
000010
000000
,
100000
001000
000000
000001
001000
000000
100000
001000
,
000000
000001
000100
000000
010000
000000
010000
000000
,
000100
000010
000000
000100
010000
000000
000100
000001
,
000000
000100
100000
000000
000010
000000
000001
000000
,
000010
001000
000000
000100
100000
000000
010000
000100
,
000000
000001
100000
000000
001000
000000
001000
000000
,
000100
000010
000000
010000
100001
000000
000100
010000
,
000010
000000
000000
000000
100000
001000
000001
001000
,
100001
000000
000000
000000
;

//---------------dance-solo - ----------------
#NOTES:
     dance-solo:
     :
     Hard:
     9:
     0.526611,0.732843,0.098039,0.000000,0.377451,376.000000,366.000000,10.000000,0.000000,0.000000,0.000000,0.526611,0.732843,0.098039,0.000000,0.377451,376.000000,366.000000,10.000000,0.000000,0.000000,0.000000:
000000
000000
000000
000000
,
000000
000000
000000
000000
,
000000
000000
000000
000000
,
000000
000000
000000
000000
,
000000
000000
000000
000000
,
000010
000000
010000
000000
000010
000000
000000
100000
000000
000001
100000
000000
001000
000000
000000
000000
,
000100
000000
000100
000000
000010
000000
000000
000010
000000
010000
000001
000000
010000
000000
000000
000000
,
000100
000000
100000
000000
000001
000000
000000
001000
000000
000100
001000
000000
000100
000000
000000
000000
,
010000
000000
000010
000000
010000
000000
000000
000001
000000
100000
000000
000000
000010
000000
000010
000000
,
000000
001100
000000
000000
000000
000000
000000
000000
,
000010
000000
010000
000000
000001
000000
010000
000010
000000
000000
010000
000000
000100
000000
000000
000000
,
100000
000000
000001
000000
000000
000000
010000
000000
000010
000000
000000
010000
000000
000000
000001
000000
,
000100
000000
000001
000000
000000
000000
001000
000000
000100
000000
000000
010000
000000
000000
000100
000000
,
100000
000000
000100
000000
000000
000000
001000
000000
000001
000000
000000
100000
000000
000000
001000
000000
,
000100
000000
000001
000000
000000
000000
100000
000000
000010
000000
000000
010000
000000
000000
000100
000000
,
100000
000000
000001
000000
000000
000000
001000
000000
000100
000000
000000
100000
000000
000000
000010
000000
,
010000
000000
000010
000000
000000
000000
100000
000000
000001
000000
000000
010000
000000
000000
001000
000000
,
000000
000000
000000
000100
000000
000000
000001
000000
000000
010000
000100
010000
000100
010000
000100
010000
,
000100
000000
001000
000000
000001
000000
000000
000000
100000
000000
000000
000100
000000
000000
001000
000000
,
000001
000000
000000
100000
000000
000000
000100
000000
001000
000000
000000
000000
000000
000000
000000
000000
,
000010
000000
000010
000000
100000
000000
000000
000000
000100
000000
000000
001000
000000
000000
000000
000000
,
000010
000000
000000
100000
000000
000000
000001
000000
001000
000000
000000
000001
000000
000000
000100
000000
,
000000
000000
001000
000000
000000
000000
000001
000000
100000
000000
000000
100000
000000
000000
000100
000000
,
001000
000100
000000
100000
000010
001000
000000
000001
,
100000
000100
000000
010000
000001
001000
000000
000010
,
000000
000000
100001
000000
000000
010000
000000
000000
000100
000000
000000
000010
000000
000000
000010
000000
,
100001
001000
000000
000010
010000
000000
000100
001000
,
000000
000001
100000
000000
000100
000000
001000
000000
,
000010
100000
000000
000001
010000
000000
001000
000100
,
000000
000001
100000
000000
000000
100001
000000
000100
,
001000
000100
000000
010000
000001
000000
100000
000010
,
000000
000100
001000
000000
010000
000000
000010
000000
,
001100
100000
000000
000010
010000
000000
000001
001000
,
000100
100000
000010
001000
000001
001000
000100
100000
,
000010
100000
000001
100000
000100
000000
010000
000001
,
000000
000100
000001
000000
101000
000000
001001
000000
,
000010
000010
000000
000100
010000
000000
000100
010000
,
000000
000100
000010
000000
000000
001000
000000
000100
,
000010
001000
000000
100001
010000
000000
000001
001000
,
000000
000001
000100
000000
001000
000000
001000
000000
,
100001
010000
000000
000010
001000
000000
000001
000000
,
000010
000001
000010
000001
000010
000000
000001
000100
000000
000100
000001
000000
000000
000000
000000
000000
,
000000
000000
000000
001000
000000
000000
000001
000000
000000
100000
000000
000000
000100
000000
000000
000000
,
010000
100000
010000
100000
010000
000000
100000
001000
100000
001000
100000
000000
000000
000000
000000
000000
,
000100
000001
000100
000001
000100
000000
000001
000010
000001
000010
000001
000000
000000
000000
000000
000000
,
001000
100000
001000
100000
001000
000000
010000
001000
010000
001000
010000
000000
000000
000000
000000
000000
,
000000
000000
000000
000100
000000
000000
000001
000000
000000
001000
000000
000000
000010
000000
000000
000000
,
000010
000100
000010
000100
000010
000000
000010
001000
000010
001000
000010
000000
000000
000000
000000
000000
,
010000
000100
010000
000100
010000
000100
010000
001000
010000
001000
010000
001000
000000
000000
000000
000000
,
000100
000000
100000
000000
001000
000000
000000
010000
000000
000000
000001
000000
000000
000000
001000
000000
,
000100
000000
010000
000000
000010
000000
000000
100000
000000
000000
000001
000000
000000
000000
001000
000000
,
000100
000000
001000
000000
000001
000000
000000
100000
000000
000000
001000
000000
000000
000000
001000
000000
,
000010
000000
001000
000000
010000
000000
000000
000001
000000
000000
100000
000000
000000
000000
100000
000000
,
000100
000000
001000
000010
001000
000000
000000
000100
000000
000000
100000
000000
000000
000000
001000
000000
,
100000
000000
000001
100000
000001
000000
000000
001000
000000
000000
000100
000000
000000
000000
100000
000000
,
001000
000000
100000
001000
100000
000000
000000
000001
000000
000000
000100
000000
000000
000000
000001
000000
,
100000
000000
000001
100000
000001
000000
000000
001000
000000
000000
000100
000000
000000
000000
000100
000000
,
100000
001000
000001
000000
000000
010000
000000
000010
,
001000
000000
001000
000000
000000
100000
000001
000000
,
000001
001000
100000
000000
000000
000001
000000
000100
,
001000
000000
001000
000000
000000
000001
100000
000000
,
000100
000000
000000
000000
000100
000000
000000
000000
010000
000001
000000
001000
000001
000000
000000
000000
,
100000
000000
000000
000000
100000
000000
000000
000000
000100
010000
000000
001000
010000
000000
000000
000000
,
000010
000000
000000
000000
000010
000000
000000
000000
000000
000000
000000
000000
000100
000001
000100
000000
,
000010
000000
000000
000000
000010
000000
000000
000000
000000
100000
000000
000001
000000
000000
001000
000000
,
100001
000000
000000
000000
;

//---------------dance-single - ----------------
#NOTES:
     dance-single:
     :
     Challenge:
     15:
     0.824930,0.837990,0.176471,0.156863,0.980392,589.000000,571.000000,18.000000,16.000000,0.000000,0.000000,0.824930,0.837990,0.176471,0.156863,0.980392,589.000000,571.000000,18.000000,16.000000,0.000000,0.000000:
// measure 0
0000
0000
0000
0000
,  // measure 1
0000
0000
0000
0000
,  // measure 2
0000
0000
0000
0000
,  // measure 3
0000
0000
0000
0000
,  // measure 4
0000
0000
0000
0000
,  // measure 5
1000
0000
0100
0000
0010
0000
0001
1000
0000
0001
1000
0000
0010
0000
0000
0000
,  // measure 6
1000
0000
0000
0000
0001
0000
0010
0100
0000
0010
0001
0000
1000
0000
0100
0000
,  // measure 7
1000
0000
1000
0000
0001
0000
0010
0001
0000
0100
0001
0000
0010
0000
0001
0000
,  // measure 8
1000
0000
0100
0000
1000
0000
0010
1000
0000
0100
1000
0000
0010
0100
0010
0000
,  // measure 9
0000
2002
0000
0000
0000
0000
3003
0000
,  // measure 10
0001
0000
1000
0000
0010
0000
1000
0100
0000
0100
1000
0000
0001
0000
0010
0000
,  // measure 11
0001
0100
0000
0100
0001
0000
1000
0100
0000
0100
1000
0000
0001
0000
0100
0000
,  // measure 12
0001
0010
0000
0010
0001
0000
1000
0010
0000
0010
1000
0000
0001
0000
0000
0000
,  // measure 13
0100
0010
0000
0010
0100
0000
0010
0100
0000
0100
0010
0000
1000
0000
0001
1000
,  // measure 14
0001
0000
0100
0001
0000
0001
0010
0000
0010
0100
0000
0100
1000
0000
0010
0100
,  // measure 15
0010
0100
0010
0100
0010
0000
0100
0000
0001
0010
0000
0010
0001
1000
0001
0000
,  // measure 16
1000
0100
0000
0100
1000
0000
0010
0000
0100
0001
0100
0000
0100
0001
0100
0000
,  // measure 17
0010
0000
0000
0010
1000
0000
0001
1000
0000
0001
0010
0001
0010
0001
0010
0001
,  // measure 18
1000
0000
0001
0010
0000
0001
0100
0000
0010
0000
0000
1000
0100
0000
1000
0010
,  // measure 19
0000
0100
0001
0000
0010
0001
0000
1000
0001
0000
0000
0001
0010
0000
0001
1000
,  // measure 20
0010
0000
1000
0010
0000
0100
0010
0000
0100
0001
0000
0010
0001
0010
0000
0000
,  // measure 21
0001
0000
1000
0100
0000
1000
0010
0000
0100
0000
0001
0000
0010
0000
0001
1000
,  // measure 22
0001
0000
1000
0100
0000
1000
0010
0000
0100
0000
0000
0100
0001
0000
0010
0001
,  // measure 23
0010
0000
0001
0010
0000
0001
1000
0000
0010
1000
0010
0000
0100
0000
0001
0000
,  // measure 24
0010
0000
0001
0010
0000
0010
0100
0000
0100
1000
0000
1000
0001
0000
0001
0000
,  // measure 25
1000
0100
0000
0100
1000
0000
1000
0001
0000
1001
0000
1000
0020
0000
0000
0000
,  // measure 26
0130
0000
0001
0000
0010
0000
0001
0000
1000
0010
0000
1000
0100
0000
1000
0000
,  // measure 27
0001
0000
0010
0000
0001
0000
0100
0000
0010
1000
0000
0001
1000
0000
0010
0000
,  // measure 28
0120
0000
0000
0000
0031
0000
1000
0000
0010
1000
0000
0001
1000
0000
0100
0000
,  // measure 29
0010
0001
0000
0100
0001
0000
0010
0000
0100
1000
0000
0001
1000
0010
1000
0000
,  // measure 30
1002
0000
0000
0000
0103
0000
0010
0000
1000
0100
0000
0001
0100
0000
1000
0000
,  // measure 31
0010
0001
0000
0010
1000
0000
0001
0000
0100
0010
0000
1000
0010
0000
0100
0000
,  // measure 32
0102
0000
0000
0000
0013
0000
1000
0000
0010
0001
0000
0100
0001
0000
1000
0000
,  // measure 33
0010
1000
0010
0100
0010
0001
0010
0100
0010
1000
0010
0100
0010
0001
0010
0000
,  // measure 34
2010
0000
0000
0000
3001
0000
0010
0000
0001
1000
0000
1000
0010
0000
0100
0000
,  // measure 35
0001
1000
0001
0000
0100
0000
0010
0000
1000
0100
0000
0100
0001
0000
0100
0000
,  // measure 36
1000
0010
0000
0010
0001
0000
0010
0000
1000
0100
0010
0001
0100
0000
0010
0000
,  // measure 37
1000
0000
0001
0000
0100
0000
0010
0000
0100
0001
0000
0001
0010
0100
1000
0000
,  // measure 38
1020
0000
0000
0000
0130
0000
0001
0000
1000
0100
0000
0100
1000
0000
0001
0000
,  // measure 39
1000
0010
0000
0010
1000
0000
0001
0000
1000
0001
0000
0001
1000
0000
0010
0000
,  // measure 40
0100
0000
0001
0000
0010
0000
0100
0000
1000
0100
0000
1000
0010
0000
0100
0000
,  // measure 41
0001
0010
0001
0010
0001
0000
1000
0100
1000
0100
1000
0000
0010
0000
0000
0000
,  // measure 42
0100
0000
0000
0001
0000
0000
0010
0000
0000
0100
0000
0000
1000
0000
0000
0000
,  // measure 43
0001
0100
0001
0100
1000
0000
0001
0010
0001
0010
1000
0000
0010
0000
0000
0000
,  // measure 44
1000
0100
1000
0100
0001
0000
1000
0010
1000
0010
0001
0000
0100
0000
0000
0000
,  // measure 45
0001
0100
1000
0100
0001
0000
1000
0100
0001
0100
1000
0000
0010
0000
0100
0000
,  // measure 46
0001
0000
0000
1000
0000
0000
0100
0000
0000
0010
0000
0000
0001
0000
0000
0000
,  // measure 47
1000
0100
0010
0100
1000
0000
0001
0010
0100
0010
0001
0000
1001
0000
0000
0000
,  // measure 48
1000
0010
0100
0010
1000
0010
0100
0010
1000
0010
0100
0020
0000
0000
0030
0000
,  // measure 49
1000
0000
0001
1000
0001
0000
0000
0010
0000
0000
0100
0010
0000
0100
1000
0100
,  // measure 50
1000
0000
0001
1000
0001
0000
0000
0010
0000
0000
0001
0100
0010
0000
0100
0010
,  // measure 51
1000
0000
0010
1000
0001
0000
0000
1001
0000
0000
0110
0000
0110
0000
0000
0000
,  // measure 52
0001
0000
0010
0100
0010
0000
0000
0011
0000
0000
1000
0000
0100
0000
0010
0100
,  // measure 53
1000
0000
0001
0010
0001
0000
0100
0001
0000
1000
0001
0000
1000
0000
0010
0000
,  // measure 54
0100
0000
0001
0010
0001
0000
1000
0000
0010
0100
0000
0100
0001
0000
0010
0000
,  // measure 55
0001
1000
0001
1000
0001
0000
1000
0000
0001
1000
0001
1000
0001
0000
0100
0000
,  // measure 56
0010
0100
0010
0100
0010
0000
0100
0010
0000
0000
0100
0001
1000
0000
0100
0000
,  // measure 57
2100
0000
0000
0000
3010
0000
0100
0000
0001
0010
0000
0100
0010
0000
0001
0000
,  // measure 58
1001
0000
1000
0000
0010
0000
0100
0000
0001
0010
0000
1000
0010
0000
0001
0100
,  // measure 59
0010
0000
1000
0000
0010
0000
0100
0000
0001
1000
0000
0010
1000
0000
0100
0000
,  // measure 60
0010
0000
0001
0000
0100
0000
0010
0000
0100
0001
0000
0010
0001
0010
0100
0000
,  // measure 61
2100
0000
0000
0000
3001
0000
0000
0000
0010
0001
0000
0100
0001
0000
1000
0000
,  // measure 62
0020
0000
0100
0000
0031
0000
0010
0000
0100
1000
0000
0001
1000
0000
0010
0000
,  // measure 63
0102
0000
0000
0000
0103
0000
0010
0000
2010
0000
0000
0000
3001
0100
0001
0010
,  // measure 64
0001
0000
0000
0000
1000
0000
0000
0000
1000
0001
0000
1000
0010
1000
0010
0000
,  // measure 65
2002
0000
0000
3003
;
