#TITLE:GOLDEN SKY;
#SUBTITLE:;
#ARTIST:SMiLE.dk;
#TITLETRANSLIT:;
#SUBTITLETRANSLIT:;
#ARTISTTRANSLIT:;
#GENRE:;
#CREDIT:;
#BANNER:GOLDEN SKY.png;
#BACKGROUND:GOLDEN SKY-bg.png;
#LYRICSPATH:;
#CDTITLE:./CDTitles/DanceDanceRevolution SuperNOVA.png;
#MUSIC:GOLDEN SKY.ogg;
#OFFSET:0.000000;
#SAMPLESTART:29.330000;
#SAMPLELENGTH:15.000000;
#SELECTABLE:YES;
#DISPLAYBPM:135.000000;
#BPMS:0.000000=135.337997
,4.000000=135.003006
;
#STOPS:
;
#BGCHANGES:;
#KEYSOUNDS:;
#ATTACKS:;

//---------------dance-single - ----------------
#NOTES:
     dance-single:
     :
     Beginner:
     3:
     0.144024,0.137960,0.021225,0.000000,0.000000,93.000000,2.000000,0.000000,0.000000,0.000000,0.000000,0.144024,0.137960,0.021225,0.000000,0.000000,93.000000,2.000000,0.000000,0.000000,0.000000,0.000000:
0000
0000
0000
0000
,
0000
0000
0000
0000
,
0000
0000
0000
0000
,
0000
0000
0000
0000
,
0000
0000
0000
0000
,
1000
0000
0001
0000
,
0100
0000
0010
0000
,
0001
0000
1000
0000
,
1000
0000
1000
0000
,
0010
0000
1000
0000
,
0001
0000
0100
0000
,
1000
0000
0001
0000
,
0100
0000
0100
0000
,
0010
0000
0100
0000
,
1000
0000
0010
0000
,
0001
0000
1000
0000
,
1001
0000
0000
0000
,
1000
0000
0100
0000
,
0001
0000
0010
0000
,
0100
0000
1000
0000
,
0100
0000
1000
0000
,
0010
0000
0100
0000
,
0001
0000
0010
0000
,
1000
1000
0000
0001
,
0000
0000
0000
0000
,
1000
0000
0001
0000
,
0100
0000
0010
0000
,
0001
0000
1000
0000
,
0010
0000
0010
0000
,
1000
0000
0100
0000
,
0100
0000
1000
0000
,
1000
0000
1000
0000
,
0010
0000
0100
0000
,
1000
1000
0000
0000
,
0100
0000
1000
0000
,
0010
0000
1000
0000
,
0010
0000
1000
0000
,
0010
0000
0100
0000
,
0100
0000
0010
0000
,
1000
0000
1000
0000
,
0100
0000
1000
0000
,
0010
0000
0010
0000
,
0100
0000
0010
0000
,
1000
0000
1000
0000
,
0001
0000
0010
0000
,
0001
0000
0010
0000
,
0100
0000
1000
0000
,
0100
0000
0010
0000
,
1000
0000
0010
0000
,
0001
0000
0100
0000
,
1000
0000
0010
0000
,
0001
0000
1000
0000
,
1001
0000
0000
0000
,
0000
0000
0000
0000
;

//---------------dance-single - ----------------
#NOTES:
     dance-single:
     :
     Easy:
     4:
     0.209215,0.193144,0.042449,0.042449,0.000000,130.000000,4.000000,4.000000,0.000000,0.000000,0.000000,0.209215,0.193144,0.042449,0.042449,0.000000,130.000000,4.000000,4.000000,0.000000,0.000000,0.000000:
0000
0000
0000
0000
,
0000
0000
0000
0000
,
0000
0000
0000
0000
,
0000
0000
0000
0000
,
0000
0000
0000
0000
,
1000
0000
0001
0000
,
0100
0000
0010
0000
,
0001
0000
1000
0000
,
1000
0001
1000
1001
,
0010
0000
1000
0000
,
0001
0010
0100
0000
,
1000
0000
0001
0000
,
0100
1000
0100
0000
,
0010
0000
0100
0000
,
1000
0001
0010
0000
,
0001
0000
1000
0000
,
2002
0000
0000
3003
,
1000
0001
0100
0000
,
0001
1000
0010
0000
,
0100
0010
1000
0000
,
0100
0001
1000
0000
,
0010
0000
0100
0000
,
0001
1000
0010
0000
,
1000
1000
0001
0001
,
2002
0000
0000
3003
,
1000
0000
0001
0000
,
0100
0000
0010
0000
,
0001
0000
1000
0000
,
0010
0100
0010
0000
,
1000
0010
0100
0000
,
0100
0001
1000
0000
,
1000
0010
1000
0001
,
0010
0001
0100
0000
,
1000
1000
0010
0000
,
0100
0001
1000
0000
,
0010
0001
1000
0001
,
0010
0100
1000
0000
,
0010
0001
0100
0000
,
0100
0001
0010
0000
,
1000
0010
1000
0001
,
0100
0001
1000
0000
,
0010
0001
0010
1000
,
0100
1000
0010
0000
,
1000
0010
1000
0010
,
0001
0100
0010
0000
,
0001
0000
0010
0000
,
0100
0000
1000
0001
,
0100
0000
0010
0000
,
1000
0000
0010
0100
,
0001
0000
0100
0000
,
1000
0100
0010
0000
,
0001
0000
1000
0000
,
1001
0000
0000
0000
,
0000
0000
0000
0000
;

//---------------dance-single - ----------------
#NOTES:
     dance-single:
     :
     Medium:
     6:
     0.309274,0.275921,0.148573,0.010612,0.000000,189.000000,14.000000,1.000000,0.000000,0.000000,0.000000,0.309274,0.275921,0.148573,0.010612,0.000000,189.000000,14.000000,1.000000,0.000000,0.000000,0.000000:
0000
0000
0000
0000
,
0000
0000
0000
0000
,
0000
0000
0000
0000
,
0000
0000
0000
0000
,
0000
0000
0000
0000
,
0001
0010
1000
0001
,
0100
1000
0010
0100
,
0010
1000
0010
0001
,
0100
0010
0100
1001
,
0010
1000
0001
0100
,
1000
0010
0001
0100
,
0001
0010
1000
0010
,
0100
0001
1000
0110
,
1000
0001
0100
0010
,
0001
1000
0010
0100
,
0010
0001
0010
0100
,
2001
0000
0010
3001
,
0110
1000
0100
0001
,
0100
1000
0010
1000
,
0100
0010
0001
0010
,
0100
1000
0001
1001
,
0010
0010
0010
0000
0100
0000
1000
0000
,
0010
0010
0010
0000
0100
0000
1001
0000
,
0001
0010
0001
1000
,
0001
0100
0010
1001
,
0001
0000
0010
0000
1000
1000
1000
0000
,
0001
0000
1000
0000
0100
0100
0100
0000
,
1000
0100
0001
0100
,
0010
1000
0100
1001
,
0110
0001
1000
0010
,
0100
1000
0001
0100
,
0001
0010
0001
1000
,
0010
0001
0010
1000
,
0001
0001
0001
0000
0100
0000
1000
0000
,
0100
0100
0100
0000
0010
0000
1001
0000
,
0010
1000
0100
1000
,
0010
0100
0001
0100
,
1001
0010
0100
0001
,
0100
1000
0010
1000
,
0001
0010
1000
0010
,
0100
1000
0001
0100
,
0001
0001
0001
0000
0010
0000
1000
0000
,
0100
0100
0100
0000
0001
0000
0110
0000
,
0001
0010
1000
0010
,
0001
1000
0010
1001
,
0100
0000
0010
0000
,
0100
1000
0001
1000
,
0100
0000
0010
1000
,
0001
0000
0100
0010
,
1000
0000
0100
0000
,
0010
1000
0001
0000
,
0010
0001
1000
0100
,
1001
0000
0000
0000
,
0000
0000
0000
0000
;

//---------------dance-single - ----------------
#NOTES:
     dance-single:
     :
     Hard:
     8:
     0.416913,0.386289,0.254696,0.031837,0.000000,248.000000,24.000000,3.000000,0.000000,0.000000,0.000000,0.416913,0.386289,0.254696,0.031837,0.000000,248.000000,24.000000,3.000000,0.000000,0.000000,0.000000:
// measure 0
0000
0000
0000
0000
,  // measure 1
0000
0000
0000
0000
,  // measure 2
0000
0000
0000
0000
,  // measure 3
0000
0000
0000
0000
,  // measure 4
0000
0000
0000
0000
,  // measure 5
1000
0100
0010
0000
0001
0100
0010
0000
,  // measure 6
0100
0000
0001
0000
0010
1000
0100
0000
,  // measure 7
0011
1100
1010
0101
,  // measure 8
1000
0100
0001
0100
1000
0000
1001
0000
,  // measure 9
0010
0000
0001
0000
1000
0010
0100
0000
,  // measure 10
0001
0000
0010
0000
0100
0010
0001
0000
,  // measure 11
1000
0001
0100
0000
0001
1000
0010
0000
,  // measure 12
0100
0001
1000
0001
0100
0000
1100
0000
,  // measure 13
0010
0000
1000
0000
0100
0001
0010
0000
,  // measure 14
1000
0000
0001
0000
0010
0001
0100
0000
,  // measure 15
0010
0001
1000
0000
0010
1000
0100
0000
,  // measure 16
0102
0000
0010
1003
,  // measure 17
0110
0000
0001
0010
0100
0000
1000
0010
,  // measure 18
0100
0000
0001
1000
0010
1000
0001
0000
,  // measure 19
0100
0000
0010
0100
1000
0000
0010
1000
,  // measure 20
0100
0000
0001
0000
1000
0001
0100
0000
,  // measure 21
0010
0100
0001
0000
0110
0000
1000
0100
,  // measure 22
0001
0100
1000
0000
0010
0000
0101
0000
,  // measure 23
1000
0000
0010
0100
1000
0100
0010
0000
,  // measure 24
1001
0000
0100
0000
0010
0001
0100
0000
,  // measure 25
1000
0100
0010
0000
0001
0100
0010
0000
,  // measure 26
0100
0000
0001
0000
0010
1000
0100
0000
,  // measure 27
0011
1100
1010
0101
,  // measure 28
0010
1000
0100
1000
0010
0000
1001
0000
,  // measure 29
1100
0000
0010
0001
0100
0000
0010
1000
,  // measure 30
0100
0000
0001
0010
1000
0010
0001
0000
,  // measure 31
1000
0000
0010
0100
1000
0000
0001
0100
,  // measure 32
0010
0000
0001
0000
0010
1000
0001
0000
,  // measure 33
1000
0100
1000
0000
0110
0000
0001
1000
,  // measure 34
0100
0010
0001
0000
1000
0000
0101
0000
,  // measure 35
0010
0000
0001
0100
0010
0100
0001
0000
,  // measure 36
0010
0000
0100
0000
1000
0001
0100
0000
,  // measure 37
1010
0000
0001
0010
0100
0000
1000
0010
,  // measure 38
0100
0000
0001
1000
0010
1000
0001
0000
,  // measure 39
1000
0000
0010
0100
1000
0000
0010
1000
,  // measure 40
0100
0000
0001
0000
1000
0001
0100
0000
,  // measure 41
0010
0100
0001
0000
0110
0000
1000
0100
,  // measure 42
0001
0100
1000
0000
0010
0000
0101
0000
,  // measure 43
1000
0000
0010
0100
1000
0100
0010
0000
,  // measure 44
1001
0000
0100
0000
0010
0001
0100
0000
,  // measure 45
2001
0000
0010
0000
,  // measure 46
3100
0000
0001
0100
1000
0100
0001
1000
,  // measure 47
0200
0000
0010
0001
,  // measure 48
1300
0000
0000
0000
0100
0001
0010
0000
,  // measure 49
0001
0000
0100
0000
,  // measure 50
0010
0100
0001
0010
1000
0000
0000
0000
,  // measure 51
0010
0000
0001
0000
1000
0010
0100
0001
,  // measure 52
1000
0000
0000
0000
;

//---------------dance-double - ----------------
#NOTES:
     dance-double:
     :
     Easy:
     4:
     0.203150,0.193144,0.053062,0.084899,0.000000,121.000000,5.000000,8.000000,0.000000,0.000000,0.000000,0.203150,0.193144,0.053062,0.084899,0.000000,121.000000,5.000000,8.000000,0.000000,0.000000,0.000000:
00000000
00000000
00000000
00000000
,
00000000
00000000
00000000
00000000
,
00000000
00000000
00000000
00000000
,
00000000
00000000
00000000
00000000
,
00000000
00000000
00000000
00000000
,
00000001
00000000
00001000
00000000
,
00000100
00000000
00000010
00000000
,
00001000
00001000
00000001
00000001
,
00001000
00000001
00001000
00000000
,
00000010
00000000
00000001
00000000
,
00000100
00001000
00000100
00000000
,
00001000
00000000
00010000
00000000
,
01000000
00010000
01000000
00000000
,
00100000
00000000
01000000
00000000
,
00010000
10000000
00100000
00000000
,
01000000
00000000
10000000
00000000
,
20020000
00000000
00000000
30030000
,
00010000
10000000
01000000
00000000
,
10000000
00010000
00100000
00000000
,
01000000
00100000
00010000
00000000
,
10000000
00100000
00010000
00000000
,
00001000
00000000
00010000
00000000
,
00001000
00000100
00000010
00000000
,
00000001
00000001
00001000
00001000
,
00002002
00000000
00000000
00003003
,
00000001
00000000
00001000
00000000
,
00000100
00000000
00000010
00000000
,
00001000
00001000
00000001
00000001
,
00001000
00000001
00001000
00000000
,
00000001
00000010
00000100
00000000
,
00001000
00000001
00000010
00000000
,
00001000
00000000
00010000
00000000
,
00100000
10000000
01000000
00000000
,
00010000
01000000
00010000
00000000
,
10000000
00010000
10000000
00000000
,
00100000
00100000
01000000
01000000
,
20020000
00000000
00000000
30030000
,
00100000
10000000
01000000
00000000
,
00010000
10000000
01000000
00000000
,
00010000
00000000
00001000
00000000
,
00000100
00001000
00000001
00000000
,
00000010
00001000
00000010
00000000
,
00000100
00000001
00000100
00000000
,
00000001
00000001
00001000
00001000
,
00002002
00000000
00000000
00003003
,
00000100
00000000
00000001
00000000
,
00000010
00000000
00001000
00000000
,
00010000
00000000
00100000
00000000
,
00010000
00000000
01000000
00000000
,
10000000
00000000
01000000
00000000
,
00010000
00000000
00001000
00000000
,
00000100
00000000
00000001
00000000
,
00001001
00000000
00000000
00000000
,
00000000
00000000
00000000
00000000
;

//---------------dance-double - ----------------
#NOTES:
     dance-double:
     :
     Medium:
     5:
     0.303209,0.303513,0.180410,0.084899,0.000000,175.000000,17.000000,8.000000,0.000000,0.000000,0.000000,0.303209,0.303513,0.180410,0.084899,0.000000,175.000000,17.000000,8.000000,0.000000,0.000000,0.000000:
00000000
00000000
00000000
00000000
,
00000000
00000000
00000000
00000000
,
00000000
00000000
00000000
00000000
,
00000000
00000000
00000000
00000000
,
00000000
00000000
00000000
00000000
,
10000000
01000000
00010000
10000000
,
00100000
00010000
01000000
00100000
,
01000000
00010000
00001000
00000100
,
00000010
00001000
00000100
00001001
,
00000010
00000001
00001000
00000010
,
00000001
00000100
00001000
00000000
,
00010000
01000000
00100000
10000000
,
00100000
00010000
10000000
01100000
,
00010000
10000000
00100000
01000000
,
10000000
00100000
00010000
00000000
,
00001000
00000100
00000001
00000010
,
00002002
00003003
00000100
00000010
,
00001001
00000010
00001000
00000001
,
00000100
00000010
00000100
00001000
,
00010000
00100000
10000000
01000000
,
00100000
00010000
10000000
00010000
,
01000000
10000000
00100000
10010000
,
01000000
00010000
02200000
03300000
,
10000000
01000000
00010000
00100000
,
10000000
01000000
00010000
00011000
,
00001000
00000100
00000010
00000001
,
00001000
00000001
00000100
00000010
,
00000001
00000010
00001000
00010000
,
01000000
00010000
00100000
10010000
,
01100000
10000000
00010000
01000000
,
00100000
00010000
10000000
00100000
,
10000000
01000000
00010000
00001000
,
00000100
00000010
00000001
00001000
,
00000010
00000100
00001001
00000110
,
00001000
00010000
00022000
00033000
,
01000000
00100000
00010000
01000000
,
00010000
00100000
10000000
00100000
,
10010000
01000000
00100000
10000000
,
01000000
00010000
00001000
00000010
,
00000001
00000100
00001000
00000100
,
00000010
00000001
00001000
00000010
,
00000100
00000001
00000010
00000110
,
00010000
00001000
00022000
00033000
,
01000000
10000000
01000000
00010000
,
00100000
00010000
01000000
10010000
,
00100000
00000000
01000000
00000000
,
00100000
00000000
10000000
01000000
,
00010000
00000000
00001000
00000010
,
00000001
00000000
00000010
00000100
,
00000001
00000000
00000100
00000000
,
00000010
00001000
00000001
00000000
,
00000010
00000100
00001000
00010000
,
00011000
00000000
00000000
00000000
,
00000000
00000000
00000000
00000000
;

//---------------dance-double - ----------------
#NOTES:
     dance-double:
     :
     Hard:
     9:
     0.416913,0.358697,0.222859,0.010612,0.000000,253.000000,21.000000,1.000000,0.000000,0.000000,0.000000,0.416913,0.358697,0.222859,0.010612,0.000000,253.000000,21.000000,1.000000,0.000000,0.000000,0.000000:
00000000
00000000
00000000
00000000
,
00000000
00000000
00000000
00000000
,
00000000
00000000
00000000
00000000
,
00000000
00000000
00000000
00000000
,
00000000
00000000
00000000
00000000
,
00010000
00000000
00001000
00000000
00100000
00010000
01000000
00000000
,
00001000
00000000
00010000
00000000
00000010
00010000
00000100
00000000
,
00011000
00101000
00011000
00010100
,
00001000
00000010
00000100
00001000
00010000
00000000
00110000
00000000
,
01000000
10000000
00000000
00010000
10000000
00100000
00000000
01000000
,
00001000
00010000
00000000
00000010
00001000
00000001
00000000
00001000
,
00000001
00000100
00000000
00001000
00010000
01000000
00000000
10000000
,
00100000
01000000
00000000
00010000
10000000
01000000
00010000
00000000
,
00001000
00000100
00000000
00000001
00001000
00000010
00000000
00010000
,
00001000
01000000
00000000
00010000
10000000
01000000
00000000
00100000
,
00010000
10000000
00000000
00100000
01000000
00010000
00000000
10000000
,
02000000
00000000
00100000
03010000
,
00011000
00000000
00000010
00001000
00000100
00000000
00010000
00001000
,
00000010
00000000
00000001
00000100
00001000
00010000
01000000
00000000
,
10000000
00000000
00010000
01000000
00100000
00000000
10000000
01000000
,
00010000
00000000
00001000
00000000
00000010
00000001
00000100
00000000
,
00000010
00001000
00000100
00000000
00011000
00000000
00100000
00010000
,
01000000
00100000
10000000
00000000
01000000
00000000
10010000
00000000
,
01000000
00000000
00001000
00010000
00000010
00001000
00000001
00000000
,
00000011
00000000
00000100
00000000
00001000
00000010
00001000
00000000
,
00000001
00000000
00000100
00000000
00001000
00010000
00001000
00000000
,
00100000
00000000
00010000
00000000
10000000
00100000
10000000
00000000
,
11000000
11000000
11000000
11000000
,
00100000
00010000
01000000
00000000
00001000
00000000
00010010
00000000
,
00001001
00000000
00000100
00000010
00001000
00000000
00000100
00010000
,
00001000
00000000
00100000
00010000
01000000
10000000
01000000
00000000
,
00010000
00000000
10000000
01000000
00010000
00000000
00001000
00000100
,
00000001
00000000
00001000
00000000
00000100
00000010
00000001
00000000
,
00000100
00001000
00000100
00000000
00001000
00000000
00010000
01000000
,
10000000
00100000
01000000
00000000
00010000
00000000
10010000
00000000
,
01000000
00000000
00100000
00010000
01000000
00001000
00010000
00000000
,
00000010
00000000
00001000
00000000
00000100
00010000
00001000
00000000
,
00110000
00000000
00001000
00010000
00000100
00000000
00001000
00000001
,
00000010
00000000
00000100
00001000
00000001
00000100
00000010
00000000
,
00001000
00000000
00000001
00000100
00001000
00000000
00010000
01000000
,
00010000
00000000
00001000
00000000
00010000
00100000
00010000
00000000
,
00001000
00000010
00000001
00000000
00001001
00000000
00000100
00000010
,
00001000
00010000
00100000
00000000
10000000
00000000
11000000
00000000
,
00010000
00000000
01000000
10000000
01000000
00010000
00100000
00000000
,
01100000
00000000
10000000
00000000
00010000
01000000
00001000
00000000
,
00011000
00000010
00001000
00000001
,
00000010
00000000
00000010
00000000
00000010
00000100
00001000
00000001
,
00000100
00001000
00010000
01000000
,
10000000
00000000
00000000
00000000
00010000
01000000
00100000
00000000
,
00010000
00001000
00000010
00001000
,
00010000
00100000
10000000
01000000
00010000
00000000
00000000
00000000
,
00001000
00000000
00000010
00000000
00000001
00000100
00001000
00010000
,
00100000
00000000
00000000
00000000
,
00000000
00000000
00000000
00000000
;

//---------------dance-single - ----------------
#NOTES:
     dance-single:
     :
     Challenge:
     12:
     0.571550,0.501433,0.127348,0.180410,0.111429,348.000000,12.000000,17.000000,0.000000,0.000000,0.000000,0.571550,0.501433,0.127348,0.180410,0.111429,348.000000,12.000000,17.000000,0.000000,0.000000,0.000000:
// measure 0
0000
0000
0000
0000
,  // measure 1
0000
0000
0000
0000
,  // measure 2
0000
0000
0000
0000
,  // measure 3
0000
0000
0000
0000
,  // measure 4
0000
0000
0000
0000
,  // measure 5
0001
0000
1000
0001
1000
0000
0010
0000
0100
0000
0010
0100
0010
0000
1000
0000
,  // measure 6
0100
0000
1000
0100
1000
0000
0001
0000
0010
0000
0001
0000
0100
0000
1000
0000
,  // measure 7
0100
0000
0001
0010
1000
0010
0001
0100
,  // measure 8
0010
0000
1000
0010
1000
0000
0001
0000
0100
0000
1000
0000
0100
0000
0001
0000
,  // measure 9
1000
0100
0010
1000
0010
0001
0010
0100
,  // measure 10
0001
0100
1000
0001
0100
0010
0010
1000
,  // measure 11
1000
0100
0001
0100
0010
0001
0100
0010
,  // measure 12
1000
0000
0001
0000
0100
0000
0001
0000
0010
0000
0100
1000
0100
0000
1000
0000
,  // measure 13
0010
0100
0001
0100
0010
1000
0100
1000
,  // measure 14
0001
0010
0001
0100
0010
1000
1000
0001
,  // measure 15
0101
0100
0010
1000
0100
0010
0001
0001
,  // measure 16
2002
3003
1000
1010
,  // measure 17
0010
0100
0000
0000
0100
0000
0001
0000
0010
0000
0001
0000
1000
0000
0010
0000
,  // measure 18
1000
0000
0001
0010
1000
0100
1000
0010
,  // measure 19
0001
0000
0000
0000
1000
0000
0100
0000
0010
0001
0010
0000
0100
0000
0010
0000
,  // measure 20
0001
0000
0101
0000
0100
0010
1000
0010
,  // measure 21
0100
0001
0010
0100
0010
0000
1000
0010
,  // measure 22
0001
0100
0010
1000
0010
0000
1001
0000
,  // measure 23
0011
0000
0010
1000
0010
0001
0100
1000
,  // measure 24
0100
0011
0110
1100
,  // measure 25
0001
0000
1000
0001
1000
0000
0010
0000
0100
0000
0010
0100
0010
0000
1000
0000
,  // measure 26
0100
0000
1000
0100
1000
0000
0001
0000
0100
0000
0100
0000
0001
0000
0001
0000
,  // measure 27
1001
0000
0000
0000
1000
0000
0010
0000
0100
0000
0010
0000
1000
0000
0001
1000
,  // measure 28
0001
0000
1000
0001
1000
0000
0010
0000
0200
0000
0000
0000
0301
0000
0000
0000
,  // measure 29
1000
0010
0001
0010
1000
0000
0001
0100
,  // measure 30
0001
0000
0010
1000
0010
0100
0001
0100
,  // measure 31
0010
1000
0000
0000
0001
0000
0100
0000
0010
0000
0100
0000
0001
0000
0010
0000
,  // measure 32
0200
0000
1300
0000
1000
0001
0010
0000
,  // measure 33
0001
0100
1000
0100
0010
0000
1000
0001
,  // measure 34
0010
0001
0100
0010
0100
0010
0000
1000
,  // measure 35
0100
1000
0001
0010
0001
0010
0100
1000
,  // measure 36
0100
0010
0100
0010
0100
0010
0001
0010
,  // measure 37
0001
0000
0000
0000
1000
0000
0010
0000
1000
0000
0001
0100
0001
0000
0100
0000
,  // measure 38
0010
1000
0001
0100
1000
0100
0001
0010
,  // measure 39
0001
0100
0001
0000
1000
0000
0010
0000
0100
0010
0100
0000
0001
0000
0010
0000
,  // measure 40
0100
0010
0000
0100
1000
0000
0001
0000
0100
0001
0100
0000
0010
0000
1000
0000
,  // measure 41
0001
0010
0001
0100
0010
0000
1000
0010
,  // measure 42
0100
0010
1000
0010
0100
0000
0010
0000
,  // measure 43
0001
0000
0010
1000
0010
0001
0100
0010
,  // measure 44
1000
0000
0001
1000
0001
0000
0100
0000
0010
0000
0100
0000
0001
0000
0010
0000
,  // measure 45
2100
0000
3001
0100
0020
0000
1030
0100
,  // measure 46
0002
0000
0013
1000
0010
0001
0100
0010
,  // measure 47
2000
0000
3001
0010
0002
0000
0023
0000
,  // measure 48
0230
1300
0012
2003
,  // measure 49
3001
0100
0001
0000
0100
0000
0010
0000
2000
0000
0000
0000
3100
0000
0010
0000
,  // measure 50
0001
0010
1000
0010
0002
0000
0103
0000
,  // measure 51
0020
0000
1030
0100
0010
1000
0010
0001
,  // measure 52
0200
0000
0300
0000
;
