#TITLE:GO!;
#SUBTITLE:(Mahalo Mix);
#ARTIST:DM Ashura;
#TITLETRANSLIT:;
#SUBTITLETRANSLIT:;
#ARTISTTRANSLIT:;
#GENRE:;
#CREDIT:;
#BANNER:GO! (Mahalo Mix).png;
#BACKGROUND:GO! (Mahalo Mix)-bg.png;
#LYRICSPATH:;
#CDTITLE:./CDTITLES/Dance Dance Revolution ULTRAMIX4.png;
#MUSIC:GO! (Mahalo Mix).mp3;
#OFFSET:-0.098000;
#SAMPLESTART:54.540001;
#SAMPLELENGTH:13.600000;
#SELECTABLE:YES;
#DISPLAYBPM:154.000000;
#BPMS:0.000000=154.020004
;
#STOPS:
;
#BGCHANGES:;
#KEYSOUNDS:;
#ATTACKS:;

//---------------dance-single - ----------------
#NOTES:
     dance-single:
     :
     Beginner:
     3:
     0.100762,0.119083,0.054961,0.000000,0.000000,71.000000,6.000000,0.000000,0.000000,0.000000,0.000000,0.100762,0.119083,0.054961,0.000000,0.000000,71.000000,6.000000,0.000000,0.000000,0.000000,0.000000:
0000
0000
0000
0000
,
0000
0000
0000
0000
,
0000
0000
0001
0000
,
0000
0000
0000
1000
,
0000
0000
0000
0000
,
0100
0000
0100
0000
,
0000
0100
0000
0000
,
0000
0000
0010
0000
,
0010
0000
0000
0010
,
0000
0000
0000
0000
,
1000
0000
0001
0000
,
0000
1001
0000
0000
,
0000
0000
1000
0000
,
0001
0000
0000
1001
,
0000
0000
0000
0000
,
0100
0000
0000
0000
,
0000
0001
0000
0000
,
0000
0000
0010
0000
,
0000
0000
0000
1000
,
0000
0000
0000
0000
,
1000
0000
1000
0000
,
0000
0001
0000
0001
,
0000
0000
1000
0000
,
1000
0000
0000
0100
,
0000
0000
0000
0000
,
0010
0000
0000
0000
,
0001
0001
0000
0000
,
0000
1000
1000
0000
,
0000
0000
0100
0100
,
0000
0000
0000
0010
,
0010
0000
0000
0000
,
0001
0001
0000
0000
,
0000
1000
1000
0000
,
0000
0000
0100
0100
,
0000
0000
0000
0000
,
0010
0000
0000
0000
,
0000
0001
0000
0000
,
0000
0000
0100
0000
,
0000
0000
0000
0100
,
0000
0000
0000
0000
,
0001
0000
0000
0000
,
0000
0010
0000
0000
,
0000
0000
0100
0000
,
0000
0000
0000
1000
,
0000
0000
0000
0000
,
0001
0000
1000
0000
,
0001
0000
0000
0000
,
0000
0000
0100
0000
,
0100
0000
0100
0000
,
0000
0000
0000
0000
,
0001
0000
1000
0000
,
0001
0000
0000
0000
,
0000
0000
0100
0000
,
0100
0000
0100
0000
,
0000
0000
0000
0000
,
1001
0000
0000
0000
,
0000
0000
1000
0000
,
0001
0000
1001
0000
,
0000
0000
0000
0000
,
1000
0000
0001
0000
,
1001
0000
0000
0000
,
0000
0100
0000
0000
,
0000
0000
0010
0000
,
0000
0000
0000
0100
,
0000
0000
0000
0000
,
1001
0000
0000
0000
;

//---------------dance-single - ----------------
#NOTES:
     dance-single:
     :
     Easy:
     6:
     0.263028,0.267936,0.036641,0.164883,0.000000,179.000000,4.000000,18.000000,0.000000,0.000000,0.000000,0.263028,0.267936,0.036641,0.164883,0.000000,179.000000,4.000000,18.000000,0.000000,0.000000,0.000000:
0000
0000
0000
0000
,
0000
0000
0000
0000
,
0000
0000
2000
0000
,
0000
3000
0000
0020
,
0000
0000
0030
0000
,
0100
0001
0100
0000
,
0000
0100
0001
0100
,
0000
0000
1000
0100
,
1000
0000
0000
1000
,
0100
1000
0000
0000
,
0010
0000
0010
0000
,
1000
0001
0000
0001
,
0000
0100
0010
0000
,
0010
0000
0001
1000
,
0000
1000
0000
0010
,
0100
0100
0001
1000
,
0000
0010
0010
1000
,
0001
0000
0100
0100
,
0001
1000
0000
0010
,
0010
1000
0001
0000
,
0100
0100
0010
1000
,
0000
0010
0010
0100
,
0001
0000
0100
0100
,
0010
1000
0000
0010
,
0010
0100
0001
0000
,
1000
1000
1000
0100
,
0010
0001
0001
0001
,
0100
0010
1000
1000
,
1000
0100
0010
0001
,
0001
0001
0100
0010
,
1000
0000
0001
0100
,
0010
1000
0000
0010
,
0100
0001
0010
0000
,
0100
1000
0010
0100
,
0000
0001
0100
0010
,
1000
0000
0001
0000
,
1000
1001
0000
0100
,
0000
0010
0110
0000
,
0001
0000
1000
1001
,
0000
0100
0000
0010
,
0020
0030
2000
3000
,
0100
0200
0300
0020
,
0030
0001
0002
0003
,
0200
0300
0010
0020
,
0030
2000
3000
0100
,
0100
0100
0010
0010
,
0001
2000
3000
0002
,
0003
0010
0010
0010
,
0100
0100
1000
0002
,
0003
2000
3000
0100
,
0100
0100
0010
0010
,
0001
2000
3000
0002
,
0003
0010
0010
0010
,
0100
0100
1000
0002
,
0003
2000
3000
0100
,
0010
0100
0010
0000
,
1000
0000
0001
0000
,
1000
0000
0010
0100
,
0010
0000
1000
0000
,
0001
0000
1000
0000
,
0001
0100
0010
1000
,
0000
0010
0100
0001
,
0010
0000
0100
1000
,
0010
0100
0000
0001
,
0100
0010
1000
0000
,
1001
0000
0000
0000
;

//---------------dance-single - ----------------
#NOTES:
     dance-single:
     :
     Medium:
     10:
     0.371642,0.357248,0.128243,0.018320,0.000000,268.000000,14.000000,2.000000,0.000000,0.000000,0.000000,0.371642,0.357248,0.128243,0.018320,0.000000,268.000000,14.000000,2.000000,0.000000,0.000000,0.000000:
0000
0000
0000
0000
,
0000
0000
0000
0000
,
0000
0000
1000
0010
,
0000
0010
0100
0001
,
0000
0000
0010
0100
,
1000
0010
1000
0000
0100
0000
0010
0000
,
0100
0000
0010
0001
0010
0000
0001
0000
,
0100
0000
0010
0000
1000
0100
1000
0000
,
0100
0000
0010
0000
0100
0000
0010
0001
,
0010
0001
0100
0010
,
0100
1000
0100
0000
0001
0000
0100
0000
,
0001
0000
0010
1000
0010
0000
0001
0000
,
0100
0000
0001
0000
0100
1000
0100
0000
,
0001
0100
0001
0020
,
0100
0100
0100
0130
,
0100
1000
0010
0001
0000
0000
0000
0000
,
0000
0000
0001
0010
1000
0100
0000
0000
,
0000
0000
0000
0000
0100
1000
0010
1000
,
0000
0000
0000
0000
0000
0000
0010
1000
,
0100
1000
0000
0000
0000
0000
0000
0000
,
0100
1000
0001
0010
0000
0100
0000
0010
,
0000
0000
0010
0001
1000
0100
0000
0010
,
0000
0100
0000
0000
1000
0010
1000
0100
,
0000
0001
0000
0100
0000
0000
1010
0000
,
0000
0101
0000
0000
1100
0000
0000
0000
,
0010
1000
0100
0000
0001
0100
0010
0000
,
0001
0000
0100
1000
0001
0000
0010
1000
,
0100
0000
0010
0000
0010
0001
0100
0000
,
0001
1000
0010
0000
0100
0000
0001
1000
,
0100
0000
1000
0010
0100
0000
0001
0000
,
0010
1000
0100
0000
0001
0100
1000
0000
,
0010
0000
0100
0001
1000
0000
0010
0100
,
1000
0000
0100
0000
0001
0010
0100
0000
,
1000
0001
0010
0000
0100
0000
0020
0000
,
0100
0100
0100
0130
,
1000
0010
0100
0000
0010
0000
0010
0000
,
0100
0001
0100
0010
,
1000
0000
0100
0000
0010
0001
0100
0000
,
1000
1000
0100
0001
,
0100
0010
1000
0010
,
1000
0010
0100
0000
0010
0000
0010
0000
,
0100
0001
0100
0010
,
1000
0000
0100
0000
0010
0001
0100
0000
,
1000
1000
0100
0001
,
0100
0010
1000
0010
,
0100
0100
0010
0010
,
1001
1000
1000
0001
,
0001
0110
0100
0100
,
0010
0010
1001
1000
,
1000
0001
0001
0110
,
1000
0100
0100
0100
,
0101
0001
0100
0100
,
0100
1100
1000
0010
,
0010
0010
0011
0001
,
0010
0010
0010
1010
,
0100
0010
0100
0010
1000
0100
0000
0000
,
0000
0000
0000
0000
,
0000
0000
0011
0000
0100
0010
0100
0010
,
0001
0100
0000
0000
0000
0000
0000
0000
,
0000
0000
0000
0110
,
1000
0010
0100
0000
0100
0000
0001
0000
,
0100
0000
0010
0100
0001
0000
0001
0000
,
1000
0000
0001
0000
1000
0010
0100
0000
,
0100
0000
0001
0000
0100
0000
0010
0100
,
0001
0100
0100
0010
,
1001
0000
0000
0000
;

//---------------dance-single - ----------------
#NOTES:
     dance-single:
     :
     Hard:
     13:
     0.656917,0.684724,0.256485,0.082442,0.270226,465.000000,28.000000,9.000000,0.000000,0.000000,0.000000,0.656917,0.684724,0.256485,0.082442,0.270226,465.000000,28.000000,9.000000,0.000000,0.000000,0.000000:
// measure 0
0000
0000
0000
0000
,  // measure 1
0000
0000
0000
0000
,  // measure 2
0000
0000
0000
0000
0000
0000
0000
0000
0000
0000
1000
0100
1000
0000
0000
0000
,  // measure 3
0001
0100
0001
0000
0000
0000
1001
0000
0000
0000
0010
0000
0100
0000
1000
0000
,  // measure 4
0001
1100
0011
1001
,  // measure 5
0001
0100
0001
1000
0100
1000
0001
0010
,  // measure 6
0100
1000
0001
0100
0001
1000
0100
1000
,  // measure 7
0001
0100
0010
1000
0001
0010
0001
1000
,  // measure 8
0010
1000
0001
0010
0100
1000
0001
0010
,  // measure 9
0001
1000
0010
1000
0001
0100
0010
1000
,  // measure 10
0001
0010
0001
0000
0010
0000
0100
0000
1000
0000
0100
0000
0010
0000
0001
0000
,  // measure 11
0100
0000
0001
0000
1000
0010
1000
0000
0010
0000
0100
0000
0001
0000
0100
0000
,  // measure 12
0010
0000
1000
0000
0100
0000
1000
0000
0001
0100
0001
0000
0010
0000
0001
0000
,  // measure 13
1000
0010
1000
0100
0010
0001
2000
0000
,  // measure 14
3020
0230
0302
2003
,  // measure 15
3001
0000
1000
0100
0000
0001
0200
0000
,  // measure 16
0310
0000
0110
0000
1000
0010
0000
0001
,  // measure 17
0020
0000
0130
0000
1100
0000
0100
0001
,  // measure 18
0000
0100
2000
0000
3001
0000
1010
0000
,  // measure 19
0010
0001
0000
0010
2000
0000
3001
0000
,  // measure 20
0100
0010
0000
0000
0000
0000
1000
0000
0100
0000
0000
0000
0010
0000
0000
0000
,  // measure 21
1001
0000
0000
0000
0100
0010
0000
0000
0000
0000
0001
0000
0100
0000
0000
0000
,  // measure 22
0010
0000
0000
0000
1001
0000
0000
0000
0100
0010
0100
0000
0000
0000
0001
0000
,  // measure 23
0010
0000
0000
0000
0100
0000
0000
0000
1001
0000
0000
0000
0100
0010
0100
0000
,  // measure 24
0000
1000
0010
0000
0100
0000
1001
0000
,  // measure 25
0010
0100
1000
0001
0100
0100
1000
0000
,  // measure 26
0110
0000
0100
0010
1000
0001
0010
0010
,  // measure 27
1000
0000
0110
0000
0010
0001
1000
0010
,  // measure 28
0100
0100
1000
0000
0110
0000
0100
0001
,  // measure 29
1000
0100
0010
0010
1000
0000
0110
0000
,  // measure 30
0010
0001
0001
1000
0010
0010
1000
0000
,  // measure 31
0101
0000
0010
1000
1000
0001
0010
0010
,  // measure 32
0001
0000
1100
0000
0010
0001
0001
0100
,  // measure 33
0010
0010
1000
0100
0100
0010
0011
0000
,  // measure 34
0101
1100
1010
1001
,  // measure 35
0100
0001
0100
0000
0001
0000
1000
0100
1000
0000
0010
0000
0010
0000
1000
0000
,  // measure 36
0001
0000
0010
0000
0100
1000
0100
0000
1000
0000
0001
0100
0001
0000
0010
0000
,  // measure 37
0001
0000
1000
0000
0100
0000
0100
0000
1000
0000
0000
1000
0010
0000
0000
0010
,  // measure 38
0100
0000
0000
0100
0001
0000
0000
0001
1000
0000
0001
0000
0100
0000
0000
0100
,  // measure 39
0010
0000
0000
0010
1000
0000
0000
1000
0001
0000
0010
0000
0100
0000
1000
0000
,  // measure 40
0010
1000
0010
0000
1000
0000
0001
0010
0001
0000
0100
0000
0100
0000
0001
0000
,  // measure 41
1000
0000
0100
0000
0010
0001
0010
0000
0001
0000
1000
0010
1000
0000
0100
0000
,  // measure 42
1000
0000
0001
0000
0010
0000
0010
0000
0001
0000
0000
0001
0100
0000
0000
0100
,  // measure 43
0010
0000
0000
0010
1000
0000
0000
1000
0001
0000
1000
0000
0010
0000
0000
0010
,  // measure 44
0100
0000
0000
0100
0001
0000
0000
0001
1000
0000
0100
0000
0010
0000
0001
0000
,  // measure 45
1000
0001
0010
0100
1000
0010
0100
0001
,  // measure 46
1000
0000
0100
0000
0010
0000
0001
0100
0001
0000
0010
0000
0100
0000
1000
0010
,  // measure 47
1000
0000
0100
0000
1000
0000
0001
0000
0010
0000
0100
1000
0100
0000
0010
0000
,  // measure 48
0001
0000
0100
0001
0100
0000
0010
0000
1000
0000
0001
0000
0100
0000
0010
0000
,  // measure 49
0001
0010
1000
0100
0010
1000
0010
0001
,  // measure 50
1000
0000
0001
0000
0010
0000
0100
1000
0100
0000
0010
0000
0001
0000
0100
0010
,  // measure 51
0100
0001
1000
0010
0100
0001
0010
0001
,  // measure 52
1000
0000
0010
0100
0010
0000
1000
0000
0100
0000
0010
0001
0010
0000
0100
0000
,  // measure 53
1000
0001
0100
0010
1000
0100
1100
0000
,  // measure 54
1010
0011
0101
1001
,  // measure 55
1000
0100
0010
0000
0100
0000
1000
0100
0010
0000
0100
0000
0000
0000
0010
0000
,  // measure 56
0000
0001
0000
1000
0100
0000
0001
0100
,  // measure 57
0000
0000
1000
0000
0001
0000
0000
0000
0001
0010
0100
0000
0010
0000
0001
0010
,  // measure 58
0100
0010
0000
0100
0000
1000
0000
0001
,  // measure 59
0100
0000
1000
0100
0000
0001
1000
0000
,  // measure 60
0100
0010
0100
0000
1000
0000
0001
0100
0001
0000
1000
0000
0100
0010
0100
0000
,  // measure 61
1000
0001
1000
0000
0010
0100
0010
0000
1000
0000
0001
0100
0001
0000
0010
0000
,  // measure 62
0100
1000
0100
0000
0010
0001
0010
0000
0100
1000
0100
0000
0010
0000
0001
0100
,  // measure 63
0001
0000
1000
0000
0001
0100
0001
0000
1000
0100
1000
0000
0001
1000
0001
0000
,  // measure 64
0100
0000
0010
0100
0010
0000
0100
0000
0001
1000
0100
0000
1000
0001
0100
0000
,  // measure 65
1001
0000
0000
0000
;

//---------------dance-double - ----------------
#NOTES:
     dance-double:
     :
     Beginner:
     1:
     0.098145,0.119083,0.036641,0.000000,0.000000,71.000000,4.000000,0.000000,0.000000,0.000000,0.000000,0.098145,0.119083,0.036641,0.000000,0.000000,71.000000,4.000000,0.000000,0.000000,0.000000,0.000000:
00000000
00000000
00000000
00000000
,
00000000
00000000
00000000
00000000
,
00000000
00000000
00000001
00000000
,
00000000
00000000
00000000
00001000
,
00000000
00000000
00000000
00000000
,
00000001
00000000
00000100
00000000
,
00000000
00001000
00000000
00000000
,
00000000
00000000
00010000
00000000
,
01000000
00000000
00000000
10000000
,
00000000
00000000
00000000
00000000
,
01000000
00000000
00100000
00000000
,
00000000
00010000
00000000
00000000
,
00000000
00000000
00010000
00000000
,
00001000
00000000
00000000
00000100
,
00000000
00000000
00000000
00000000
,
00001001
00000000
00000000
00000000
,
00000000
00001000
00000000
00000000
,
00000000
00000000
00011000
00000000
,
00000000
00000000
00000000
00010000
,
00000000
00000000
00000000
00000000
,
00100000
00000000
10000000
00000000
,
00000000
01000000
00000000
00010000
,
00000000
00000000
00001000
00000000
,
00010000
00000000
00000000
00001000
,
00000000
00000000
00000000
00000000
,
00000010
00000000
00000000
00000000
,
00000001
00000001
00000000
00000000
,
00000000
00000100
00000100
00000000
,
00000000
00000000
00001000
00001000
,
00000000
00000000
00000000
00010000
,
00010000
00000000
00000000
00000000
,
01000000
01000000
00000000
00000000
,
00000000
10000000
10000000
00000000
,
00000000
00000000
00100000
00100000
,
00000000
00000000
00000000
00000000
,
00010000
00000000
00000000
00000000
,
00000000
00001000
00000000
00000000
,
00000000
00000000
00000100
00000000
,
00000000
00000000
00000000
00000001
,
00000000
00000000
00000000
00000000
,
00000010
00000000
00000000
00000000
,
00000000
00001000
00000000
00000000
,
00000000
00000000
00010000
00000000
,
00000000
00000000
00000000
00100000
,
00000000
00000000
00000000
00000000
,
10000000
00000000
10000000
00000000
,
01000000
00000000
00000000
00000000
,
00000000
00000000
00010000
00000000
,
00010000
00000000
00001000
00000000
,
00000000
00000000
00000000
00000000
,
00000001
00000000
00000001
00000000
,
00000100
00000000
00000000
00000000
,
00000000
00000000
00001000
00000000
,
00001000
00000000
00010000
00000000
,
00000000
00000000
00000000
00000000
,
10010000
00000000
00000000
00000000
,
00000000
00000000
01000000
00000000
,
00010000
00000000
00001000
00000000
,
00000000
00000000
00000000
00000000
,
00000100
00000000
00001000
00000000
,
00010000
00000000
00000000
00000000
,
00000000
01000000
00000000
00000000
,
00000000
00000000
00100000
00000000
,
00000000
00000000
00000000
00010000
,
00000000
00000000
00000000
00000000
,
00011000
00000000
00000000
00000000
;

//---------------dance-double - ----------------
#NOTES:
     dance-double:
     :
     Easy:
     4:
     0.223770,0.208394,0.009160,0.000000,0.000000,170.000000,1.000000,0.000000,0.000000,0.000000,0.000000,0.223770,0.208394,0.009160,0.000000,0.000000,170.000000,1.000000,0.000000,0.000000,0.000000,0.000000:
00000000
00000000
00000000
00000000
,
00000000
00000000
00000000
00000000
,
00000000
00000000
01000000
00000000
,
00000000
00000000
00000000
00010000
,
00000000
00000000
00000000
00000000
,
00001000
00000100
00000000
00000100
,
00000000
00000001
00000010
00000000
,
00000010
00000000
00001000
00010000
,
00000000
00010000
00000000
00100000
,
10000000
00000000
10000000
00000000
,
00100000
01000000
00100000
00000000
,
10000000
01000000
00010000
01000000
,
00000000
00010000
00001000
00000100
,
00001000
00000000
00000100
00000001
,
00000010
00000001
00000010
00000001
,
00001000
00000000
00000100
00000000
,
00000010
00000001
00000000
00000100
,
00000000
00001000
00010000
00000000
,
01000000
00000000
10000000
00100000
,
00000000
10000000
00000000
01000000
,
00010000
01000000
00010000
00000000
,
00001000
00010000
00001000
00010000
,
00000000
00001000
00000100
00001000
,
00000100
00000000
00000001
00000010
,
00000000
00000000
00000000
00000000
,
00000010
00000001
00000100
00000010
,
00001000
00000100
00000000
00000100
,
00000000
00010000
00001000
00100000
,
00010000
01000000
00100000
10000000
,
00000000
10000000
00000000
00100000
,
10000000
01000000
00100000
00010000
,
01000000
00010000
00000000
00010000
,
00000000
00100000
00001000
00010000
,
00000100
00001000
00000010
00000100
,
00000000
00001000
00000000
00000100
,
00000001
00000000
00000010
00000010
,
00000000
00000001
00000000
00000000
,
00000100
00001000
00010000
00000000
,
00010000
00010000
00000000
01000000
,
00000000
00000000
10000000
00100000
,
01000000
00000000
01000000
01000000
,
00000000
00010000
00000000
00000000
,
10000000
01000000
00010000
00000000
,
00010000
00010000
00000000
00001000
,
00000000
00000000
00000100
00000100
,
00000001
00001000
00000001
00000000
,
00001000
00000100
00001000
00000000
,
00010000
00000000
00001000
00010000
,
00001000
00000000
01000000
00010000
,
01000000
00000000
00100000
00000000
,
10000000
01000000
10000000
00000000
,
00010000
01000000
00010000
00000000
,
00100000
00000000
00001000
00010000
,
00001000
00000000
00000100
00000001
,
00001000
00001000
00000001
00000001
,
00000001
00000000
00000100
00000000
,
00001000
00000000
00010000
00000000
,
01000000
00000000
10000000
00000000
,
01000000
00000000
00010000
00000000
,
00001000
00000000
00000100
00000000
,
00000001
00000100
00001000
00000100
,
00000000
00001000
00010000
01000000
,
00010000
00000000
01000000
10000000
,
00100000
10000000
00000000
01000000
,
00010000
00001000
00010000
00001000
,
00011000
00000000
00000000
00000000
;

//---------------dance-double - ----------------
#NOTES:
     dance-double:
     :
     Medium:
     7:
     0.380802,0.387018,0.109922,0.155723,0.000000,262.000000,12.000000,17.000000,0.000000,0.000000,0.000000,0.380802,0.387018,0.109922,0.155723,0.000000,262.000000,12.000000,17.000000,0.000000,0.000000,0.000000:
00000000
00000000
00000000
00000000
,
00000000
00000000
00000000
00000000
,
00000000
00000000
00000000
00000000
10000000
00000000
00000000
01000000
,
00000000
00010000
00011000
00001000
,
00000000
00000100
00000000
00000000
00000001
00000000
00001001
00000000
,
00001000
00000100
00000010
00000001
,
00000100
00001000
00010000
01000000
,
00100000
00010000
10000000
01000000
,
00100000
00010000
01000000
00100000
,
00010000
00001000
00000100
00001000
,
00020000
00000000
00000000
02030000
00000000
00000000
03010000
00000000
,
00001000
00000000
00000200
00000000
00000000
00002300
00000000
00000000
,
00003100
00000000
00000001
00000000
00000020
00000000
00000000
00000032
,
00000000
00000103
00001000
00020000
,
00000000
02030000
00000000
00000000
13000000
00000000
01000000
00000000
,
00100000
00000000
00100000
01000000
00000000
00000000
01100000
00000000
,
00000000
00000000
00010000
00000000
00010000
00001000
00000000
00000000
,
00011000
00000000
00000000
00000000
00001000
00000000
00001000
00000100
,
00000000
00001100
00000000
00000001
,
00000001
00000010
00000000
00000000
00000011
00000000
00000000
00000000
,
00000100
00000000
00000100
00001000
00000000
00000000
00001100
00000000
,
00000000
00000000
00010000
00000000
00010000
00001000
00000000
00000000
,
00011000
00000000
01001000
00000000
00010000
00000000
01000000
00100000
,
00000000
01100000
10010000
02000000
,
00000000
00100000
00000000
00000000
03010000
00000000
00000000
00000000
,
10000000
00100000
01000000
00010000
,
01000000
00100000
10000000
00000000
01000000
00000000
00010000
00000000
,
00001000
00000000
00010000
00001000
00000100
00000000
00000001
00000000
,
00000010
00000000
00001000
00000000
00000010
00000001
00000100
00000000
,
00001000
00000000
00010000
00000000
00001000
00000000
00000100
00001000
,
00010000
01000000
10000000
00100000
,
00010000
00001000
00000010
00000000
00000001
00000000
00001000
00000000
,
00000100
00000000
00001000
00000001
00000010
00000000
00000001
00000000
,
00000100
00000000
00001000
00000000
00010000
00001000
00000100
00000000
,
00001000
00010000
01000000
10000000
,
00100000
10000000
00200000
00000000
01000000
00000000
01000000
00000000
,
01300000
00000000
00001000
00010000
00002000
00000000
00010000
00000000
,
00010000
00000000
00013000
00000000
00000100
00000010
00000200
00000000
,
00001000
00000000
00001000
00000000
00001300
00000000
00000001
00000010
,
00000002
00000100
00000100
00000103
,
00001000
00010000
02000000
00000000
00010000
00000000
00010000
00000000
,
03010000
00000000
01000000
10000000
00200000
00000000
01000000
00000000
,
01000000
00000000
01300000
00000000
00100000
00010000
00002000
00000000
,
00010000
00000000
00010000
00000000
00013000
00000000
00010000
00001000
,
00000200
00001000
00001000
00001300
,
00000100
00000001
00000000
00000010
00000000
00001000
00000000
00010000
,
00000000
00001000
00000000
00000100
00000000
00001000
00000000
00010000
,
00001000
00000000
00010000
00000000
00100000
10000000
00000000
01000000
,
00000000
00010000
00000000
00001000
00000000
00000010
00000000
00001000
,
00000000
00010000
00000000
00001000
00010000
00000000
00001000
00000000
,
00000100
00000001
00000000
00000100
00000000
00001000
00000000
00010000
,
00000000
01000000
00000000
10000000
00000000
00100000
00000000
00010000
,
00001000
00000100
00010000
00000000
00001000
00000100
00000000
00000001
,
00000000
00000010
00000000
00001000
00000000
00010000
00000000
00100000
,
00000000
10000000
00000000
01000000
00010000
00000000
01000000
00000000
,
00010000
00010000
00010000
00000000
00001000
00000000
00001000
00000000
,
00000000
00000100
00000000
00000001
,
00000000
00000000
00000100
00000000
00001000
00001000
00001000
00000000
,
00010000
00010000
00000000
01000000
,
00000000
10000000
00000000
10000000
,
00100000
10000000
01000000
00000000
00010000
00000000
00001000
00010000
,
00001000
00000000
00000100
00000001
00000010
00000000
00001000
00000000
,
00010000
00001000
00010000
00000000
01000000
10000000
00100000
00000000
,
00010000
00000000
00001000
00010000
00001000
00000000
00000100
00000001
,
00000010
00000000
00000001
00000000
00000100
00001000
00010000
00000000
,
00011000
00000000
00000000
00000000
;

//---------------dance-double - ----------------
#NOTES:
     dance-double:
     :
     Hard:
     9:
     0.596721,0.595413,0.219845,0.064121,0.316027,425.000000,24.000000,7.000000,0.000000,0.000000,0.000000,0.596721,0.595413,0.219845,0.064121,0.316027,425.000000,24.000000,7.000000,0.000000,0.000000,0.000000:
00000000
00000000
00000000
00000000
,
00000000
00000000
00000000
00000000
,
00000000
00000000
00000000
00000000
00000000
00000000
00000000
00000000
00000000
00000000
00100000
10000000
00100000
00000000
00000000
00000000
,
00100000
10000000
00100000
00000000
00000000
00000000
01000000
00000000
00000000
00000000
00010000
00000000
00000000
00000000
00100000
00010000
,
00100000
00000000
00000000
00000000
00100000
00010000
00100000
00000000
00000000
00000000
00001000
00000000
00000000
00000000
00010000
00000000
,
00000100
00000000
00000000
00000000
00000010
00000000
00000000
00000000
00000001
00000100
00000001
00000000
00000000
00000000
00000010
00000000
,
00000000
00000000
00000001
00000000
00000100
00000000
00000010
00000000
00001000
00000000
00000000
00000000
00000100
00001000
00000100
00000000
,
00000000
00010000
00001000
01000000
00010000
00000000
00010000
00000000
,
01000000
00100000
01000000
00000000
00000000
00000000
00100000
00000000
00000000
00000000
10000000
00000000
00100000
00000000
01000000
00000000
,
00010000
00000000
00000000
00000000
00100000
00010000
00100000
00000000
00000000
00000000
00001000
00000000
00000000
00000000
00010000
00000000
,
00000010
00000000
00000000
00000000
00000100
00000000
00000000
00000000
00000001
00000010
00000001
00000000
00000000
00000000
00000100
00000000
,
00000000
00000000
00000001
00000000
00000100
00000000
00000010
00000000
00001000
00000000
00000000
00000000
00000100
00001000
00000100
00000000
,
00000000
00010000
00001000
01000000
00100000
00000000
10000000
01000000
,
00010000
01000000
10000000
00100000
00010000
00001000
00010000
00000000
,
00010100
00000110
00000011
00001001
,
00000001
00000000
00001000
00000100
00001000
00000100
00001000
00000000
00000000
00000000
00000000
00000000
00000001
00000000
00000000
00000000
,
00000100
00000000
00000000
00000000
00001000
00000000
00010000
00001000
00010000
00001000
00010000
00000000
00000000
00000000
00000000
00000000
,
01000000
00000000
00000000
00000000
10000000
00000000
00000000
00000000
01000000
00100000
00000000
00100000
00001000
00000000
00010000
00000000
,
00000000
00010000
00001000
00000000
00000100
00000000
00000000
00000000
00000100
00000000
00000000
00000000
00000001
00000100
00000000
00000100
,
00000010
00000000
00001000
00000000
00000000
00001000
00000100
00000000
00010000
00000000
00000000
00000000
00010000
00000000
00000000
00000000
,
01000000
00100000
01000000
00000000
00000000
00000000
01000000
00000000
00000000
00000000
01000000
00000000
10000000
00000000
00000000
00000000
,
01000000
00000000
00000000
00000000
00010000
00001000
00010000
00000000
00000000
00000000
00010000
00000000
00000000
00000000
00010000
00000000
,
01000000
00000000
00000000
00000000
00010000
00000000
00000000
00000000
00001000
00010000
00001000
00000000
00000000
00000000
00001000
00000000
,
00000000
00001000
00000100
00000000
00001000
00000000
00000200
00000000
,
00000000
00000001
00000000
00000000
00000301
00000000
00000000
00000000
,
00000010
00000001
00000100
00000001
00000010
00000002
00000100
00000000
,
00000103
00000000
00000010
00010000
00001000
00010000
00000010
00020000
,
00001000
00000000
00031000
00000000
01000000
00010000
00100000
00010000
,
01000000
00020000
00100000
00000000
00130000
00000000
00010000
10000000
,
01000000
10000000
00010000
20000000
01000000
00000000
31000000
00000000
,
00100000
00001000
00010000
00001000
00100000
00002000
00010000
00000000
,
00013000
00000000
00000010
00001000
00000001
00001000
00000010
00002000
,
00000001
00000000
00003001
00000000
00000100
00000010
00001000
00000100
,
00001000
00000010
00000010
00000010
00010000
00001000
00010000
01000000
,
10000000
00100000
00100000
00100000
10000000
00010000
10000000
00100000
,
10000000
01000000
00000000
00000000
01000000
00100000
00000000
00000000
00100000
00001000
00000000
00000000
00001000
00010000
00000000
00000000
,
00010100
00000000
00000000
00000000
00000100
00001000
00000000
00000000
00001000
00000010
00000000
00000000
00000010
00000001
00000000
00000000
,
00000001
00000010
00000000
00000000
00000110
00000000
00000000
00000000
00000100
00000001
00000000
00000000
00000001
00000010
00000000
00000000
,
00000010
00000100
00000000
00000000
00000100
00001000
00000000
00000000
00010100
00000000
00000000
00000000
00010000
00001000
00000000
00000000
,
00001000
01000000
00000000
00000000
01000000
00010000
00000000
00000000
00010000
10000000
00000000
00000000
11000000
00000000
00000000
00000000
,
10000000
00100000
00000000
00000000
00100000
00010000
00000000
00000000
00010000
00001000
00000000
00000000
00001000
00000100
00000000
00000000
,
00000101
00000000
00000000
00000000
00000010
00000001
00000000
00000000
00000001
00000100
00000000
00000000
00000100
00001000
00000000
00000000
,
00001000
00010000
00000000
00000000
00011000
00000000
00000000
00000000
00010000
01000000
00000000
00000000
01000000
00010000
00000000
00000000
,
00010000
00001000
00000000
00000000
00001000
00000100
00000000
00000000
00001001
00000000
00000000
00000000
00000001
00000100
00000000
00000000
,
00000100
00001000
00000000
00000000
00001000
00010000
00000000
00000000
00010000
01000000
00000000
00000000
10010000
00000000
00000000
00000000
,
10000000
01000000
00100000
00010000
00100000
00001000
00010000
01000000
,
10000000
00100000
00010000
00001000
00010000
00001000
00000100
00000001
,
00000010
00000100
00001000
00000100
00010000
00001000
00000100
00000001
,
00000010
00001000
00010000
00001000
00010000
01000000
10000000
00100000
,
01000000
00010000
01000000
00010000
01000000
00000000
10010000
00000000
,
01000000
00010000
00001000
00000100
00000010
00000001
00000010
00000100
,
00000001
00001000
00000010
00000100
00000001
00000010
00001000
00010000
,
00001000
00010000
00100000
10000000
01000000
00100000
01000000
10000000
,
00100000
01000000
00001000
00010000
00100000
01000000
00100000
00000000
,
01100000
01001000
00011000
00010100
,
00000100
00001000
00000100
00000000
00000100
00000000
00000010
00000001
00000100
00000000
00000100
00000000
00000000
00000000
00000000
00000000
,
00000000
00000000
00000000
00000000
00000100
00000100
00010000
00010000
,
01000000
00000000
01000000
00000000
00100000
00000000
00100000
00000000
00010000
01000000
00010000
00000000
00010000
00000000
10000000
01000000
,
00100000
00100000
00000000
00000000
00000000
00000000
00000000
00000000
,
00100000
00100000
00010000
00010000
00001000
00001000
00000010
00000010
,
00000001
00000100
00000001
00000000
00001000
00000000
00000100
00000010
00000100
00000000
00001000
00000000
00001100
00000000
00000000
00000000
,
00010100
00000000
00000000
00000000
00010000
00001000
00010000
00000000
01000000
00000000
00100000
00010000
00100000
00000000
01000000
00000000
,
01100000
00000000
00000000
00000000
11000000
00000000
00000000
00000000
10000000
01000000
10000000
00000000
00010000
00000000
01000000
00100000
,
01000000
00000000
00010000
00000000
01010000
00000000
00000000
00000000
01001000
00000000
00000000
00000000
00001000
00010000
00001000
00000000
,
00000100
00000000
00000010
00000100
00000010
00000000
00001000
00000000
00000100
00000010
00000100
00000000
00001000
00000001
00001000
00000000
,
00001001
00000000
00000000
00000000
;

//---------------dance-single - ----------------
#NOTES:
     dance-single:
     :
     Challenge:
     16:
     0.879379,0.777013,0.210684,0.018320,0.787777,647.000000,23.000000,2.000000,0.000000,0.000000,0.000000,0.879379,0.777013,0.210684,0.018320,0.787777,647.000000,23.000000,2.000000,0.000000,0.000000,0.000000:
// measure 0
0000
0000
0000
0000
,  // measure 1
0000
0000
0000
0000
,  // measure 2
0000
0000
0000
0000
0000
0000
0000
0000
0000
0000
0001
1000
0001
0000
0100
0010
,  // measure 3
0100
0000
0001
0000
1000
0010
1000
0000
0001
0100
0001
0000
1000
0100
1000
0000
,  // measure 4
0010
0000
0100
0001
0100
0000
0010
0000
1000
0001
1000
0000
0001
1000
0001
0000
,  // measure 5
0100
0010
0100
0010
0000
0000
1000
0100
0010
0000
0011
0000
0001
0100
0010
0000
,  // measure 6
0010
0100
0001
0000
1000
0010
1000
0000
0010
0000
0010
0100
0010
0000
1000
0000
,  // measure 7
0100
0010
0100
0000
1000
0001
1000
0000
0001
0100
0001
0000
1000
0000
0010
0100
,  // measure 8
0010
0000
0100
0000
0001
1000
0001
0000
1000
0010
1000
0000
0001
0100
0001
0000
,  // measure 9
1000
0000
0010
0100
0010
0000
1000
0000
0100
0010
0001
0000
0001
0010
0100
0000
,  // measure 10
1000
0001
0010
0000
0010
0000
0001
1000
0001
0000
1000
0000
0001
0100
0001
0000
,  // measure 11
0100
0010
0100
0000
0010
1000
0010
0000
0100
0000
0001
0010
0100
0000
1000
0000
,  // measure 12
0100
0010
0001
0000
1000
0001
1000
0000
0001
0100
0001
0000
0100
0000
0001
1000
,  // measure 13
0001
0000
1000
0000
0010
0100
0010
0000
1000
0010
1000
0000
0010
0100
0010
0000
,  // measure 14
1010
1001
0101
0110
,  // measure 15
0010
0000
1000
0001
0100
0001
1000
0000
0010
1000
0001
1000
0010
0000
0100
0001
,  // measure 16
1000
0000
0001
0100
0010
0000
1000
0010
1000
0001
1000
0000
0001
0100
0001
1000
,  // measure 17
0001
0000
1000
0010
0100
0000
0010
0100
0001
1000
0000
1000
0001
0000
0001
0000
,  // measure 18
0100
0000
0010
0000
1000
0000
0010
0000
0100
0000
0001
0010
0001
0000
0100
1000
,  // measure 19
0100
0001
0100
0000
1000
0000
0010
0000
1000
0000
0100
0001
0100
0000
1000
0000
,  // measure 20
1100
0000
0100
0010
0001
0010
0100
0000
1000
0000
0001
0010
0100
0000
0000
0000
,  // measure 21
1000
0000
0010
1000
0010
0100
0000
0000
0001
0000
1000
0000
0010
0000
0100
0010
,  // measure 22
1000
0001
0100
0001
0010
0001
1000
0001
,  // measure 23
1000
0100
0010
0001
1000
0000
0001
0000
0001
0000
0100
0000
0010
1000
0001
0000
,  // measure 24
0100
0010
1000
0000
0001
0000
0001
0000
1000
0000
1000
0000
0010
0000
0010
0000
,  // measure 25
0101
0001
1000
1000
0010
0010
0100
0100
,  // measure 26
0101
0001
1001
1000
0010
0010
0100
0100
,  // measure 27
0101
0001
1001
1000
1010
0010
0100
0001
,  // measure 28
0010
0100
1001
0001
0101
0100
0110
0010
,  // measure 29
1000
0100
1000
0001
0101
0100
0110
0000
,  // measure 30
1010
1000
0001
1001
0001
0100
0110
0010
,  // measure 31
1010
0000
1001
0000
0001
0100
1000
0100
,  // measure 32
0001
0010
1000
0010
0001
1000
0100
0010
,  // measure 33
0100
0000
0001
0000
0100
0000
1000
0000
0001
0000
0100
0000
0010
1000
0001
0000
,  // measure 34
0100
0010
1000
0000
1000
0010
0100
0000
0001
0010
0100
0000
1000
0010
0001
0000
,  // measure 35
0010
1000
0001
0000
0010
0000
1000
0010
0001
0000
1000
0100
1000
0100
0010
0000
,  // measure 36
0001
0100
0001
0000
0001
1000
0001
0000
1000
0000
1000
0010
0100
0000
0010
0000
,  // measure 37
0100
0010
1000
0000
0001
0100
1000
0100
0001
0000
0000
0001
0010
0000
0000
0010
,  // measure 38
1000
0000
0000
1000
0001
0000
0000
0001
0100
0000
0010
0000
0100
0000
0000
0100
,  // measure 39
0001
0000
0000
0001
1000
0000
0000
1000
0001
0000
0100
0000
0010
1000
0001
1000
,  // measure 40
0010
0000
0100
0000
0001
0000
1000
0100
0001
0000
0001
0100
1000
0100
0001
0000
,  // measure 41
0100
1000
0010
0000
0100
0010
1000
0000
1000
0000
0001
0100
0001
0000
1000
0000
,  // measure 42
0010
0100
0010
0000
1000
0100
0010
0001
0100
0010
1000
0001
0100
0000
0000
0100
,  // measure 43
0010
0000
0000
0010
1000
0000
0000
1000
0001
0000
0100
0000
0010
0000
0000
0010
,  // measure 44
0100
0000
0000
0100
0001
0000
0000
0001
1000
0000
0010
0000
0100
0001
0010
0100
,  // measure 45
1000
1000
0001
0001
0100
0100
0010
0010
,  // measure 46
1000
0000
1000
0000
0001
0000
0001
0100
0001
0000
1000
0000
0010
0100
0001
0100
,  // measure 47
0010
0000
1000
0100
0010
0000
0100
0000
1000
0000
0001
0000
0100
0000
0000
0001
,  // measure 48
0100
0000
0010
1000
0010
0000
0100
0010
0100
0000
0001
1000
0001
0000
1000
0100
,  // measure 49
0010
0100
1000
0001
0100
0010
0100
0001
1000
0000
0001
0100
0001
0000
0010
0000
,  // measure 50
0100
0000
1000
0010
1000
0000
0001
0100
0001
0000
1000
0001
1000
0000
0010
0100
,  // measure 51
0010
0000
0100
0001
0100
0000
0001
0100
1000
0010
1000
0100
0001
0100
0001
1000
,  // measure 52
0001
0100
0100
0010
1000
1000
0001
0100
,  // measure 53
0001
0010
0100
0010
0001
0000
0010
1000
0010
0000
0001
0000
0100
0000
0001
1000
,  // measure 54
0100
0000
0010
0001
1000
0000
0001
0100
0010
0000
0010
0100
0001
0000
1000
0000
,  // measure 55
0001
0100
0001
0000
1000
0000
0010
0100
0010
0000
1000
0000
0100
0010
0100
0000
,  // measure 56
1000
0001
1000
0000
0001
0100
0001
0000
1000
0000
0001
0100
0010
0000
0100
0000
,  // measure 57
0010
1000
0001
0000
0100
0010
1000
0000
0001
0100
0001
0000
1000
0000
0010
0100
,  // measure 58
0010
0000
1000
0000
0100
0010
0001
0000
0001
1000
0010
0000
0100
0010
1000
0000
,  // measure 59
1000
0000
0001
0100
0010
0000
0010
0000
0100
0001
1000
0000
1000
0001
0100
0000
,  // measure 60
0010
1000
0001
0000
0001
0000
0100
0010
1000
0000
0001
0000
0010
0100
1000
0000
,  // measure 61
1000
0100
0010
0000
0001
0100
1000
0000
0100
0000
0001
0010
0100
0000
1000
0000
,  // measure 62
0100
0010
0001
0000
1000
0001
1000
0000
0001
0010
1000
0000
0010
0000
0001
0100
,  // measure 63
0010
0000
1000
0000
0001
0100
0010
0000
1000
0100
1000
0000
0100
0010
0001
0000
,  // measure 64
1000
0000
0001
0100
0001
0000
1000
0000
0010
0100
0001
0000
0001
1000
0001
0000
,  // measure 65
2002
3003
0000
0000
;
