#TITLE:GENOM SCREAMS;
#SUBTITLE:;
#ARTIST:L.E.D.LIGHT;
#TITLETRANSLIT:;
#SUBTITLETRANSLIT:;
#ARTISTTRANSLIT:;
#GENRE:;
#CREDIT:;
#BANNER:GENOM SCREAMS.png;
#BACKGROUND:GENOM SCREAMS-bg.png;
#LYRICSPATH:;
#CDTITLE:;
#MUSIC:GENOM SCREAMS.ogg;
#OFFSET:0.000000;
#SAMPLESTART:52.876972;
#SAMPLELENGTH:15.200000;
#SELECTABLE:YES;
#DISPLAYBPM:150.000000;
#BPMS:0.000000=150.000000
;
#STOPS:
;
#BGCHANGES:;
#KEYSOUNDS:;
#ATTACKS:;

//---------------dance-single - ----------------
#NOTES:
     dance-single:
     :
     Beginner:
     3:
     0.159314,0.240196,0.085784,0.000000,0.000000,91.000000,84.000000,7.000000,0.000000,0.000000,0.000000,0.159314,0.240196,0.085784,0.000000,0.000000,91.000000,84.000000,7.000000,0.000000,0.000000,0.000000:
0000
0000
0000
0000
,
0000
0000
0000
0000
,
0000
0000
0000
0000
,
0000
0000
0000
0000
,
0000
0000
0000
0000
,
1000
0000
1000
0000
,
0010
0000
0010
0000
,
0001
0001
0000
0000
,
1000
1000
0000
0000
,
0001
0001
0000
0000
,
0100
0100
0100
0000
,
1000
1000
0000
0000
,
0001
0001
0000
0000
,
1000
1000
0000
0000
,
0100
0100
0100
0000
,
0010
0000
0010
0000
,
0100
0000
0100
0000
,
0001
0000
1000
0000
,
0100
0000
0100
0000
,
0000
0000
0000
0000
,
0000
0000
0000
0000
,
0000
0100
0000
0100
,
0000
0100
0000
0100
,
0000
1000
0000
1000
,
0000
1000
0000
1000
,
0000
0001
0000
0001
,
0000
0001
0000
0001
,
0000
0010
0000
0010
,
0000
0010
0000
0010
,
0000
1000
0000
1000
,
0000
0001
0000
0001
,
0000
0000
0000
0000
,
0000
0000
0000
0000
,
0000
0100
0000
0100
,
0000
0001
0000
0001
,
0000
1000
0000
1000
,
0000
0010
0000
0010
,
0000
0100
0000
0100
,
0000
0001
0000
0001
,
0000
1000
0000
1000
,
0000
0010
0000
0010
,
0000
0110
0000
0100
,
0000
0110
0000
0100
,
0000
0110
0000
0100
,
0000
0100
0100
0100
,
0000
1001
0000
1000
,
0000
1001
0000
0001
,
0000
1001
0000
1000
,
0000
1001
0000
0001
,
0001
0000
0000
0000
,
0000
0000
0000
0000
;

//---------------dance-single - ----------------
#NOTES:
     dance-single:
     :
     Easy:
     6:
     0.390406,0.540441,0.661765,0.000000,0.000000,223.000000,169.000000,54.000000,0.000000,0.000000,0.000000,0.390406,0.540441,0.661765,0.000000,0.000000,223.000000,169.000000,54.000000,0.000000,0.000000,0.000000:
0000
0000
0000
0000
,
0000
0000
0000
0000
,
0000
0000
0000
0000
,
0000
0000
0000
0000
,
0000
0000
0000
0000
,
1000
0001
1000
0001
,
0010
1000
0001
1001
,
0001
0001
1000
1000
,
0001
0001
1000
1000
,
0001
1000
0001
1000
,
0001
1000
0001
0001
,
1000
0001
1000
0100
,
0001
1000
0001
0100
,
0010
1000
0001
0100
,
0010
1000
0001
0100
,
0010
0010
1000
0100
,
1000
1000
0001
0100
,
0100
0100
0001
0100
,
0001
0001
1000
0100
,
0000
0000
0000
0000
,
0010
0010
0010
0010
,
1001
0100
1001
0100
,
1001
0100
1001
0100
,
0010
1000
0001
1000
,
0010
1000
0001
1000
,
1010
0001
1010
0001
,
1010
0001
1010
0001
,
0110
1000
0110
0001
,
0110
1000
0110
0001
,
1010
1010
1100
1100
,
0101
0101
0011
0011
,
0000
0000
0000
0000
,
0010
1000
0001
0100
,
1001
0100
1010
0001
,
1001
0100
0011
1000
,
0010
0001
0010
1000
,
1001
0100
0011
0100
,
1001
0100
0010
0001
,
1000
0001
0100
0010
,
1001
0100
0010
1000
,
0001
0100
0010
1000
,
1001
0110
1000
0100
,
1001
0110
0001
0100
,
1001
0110
1001
0100
,
1001
0110
1001
0100
,
0011
1100
1001
0100
,
1010
0101
1001
0100
,
1001
0101
1010
1100
,
0011
1100
1001
0110
,
1001
0000
0000
0000
,
0000
0000
0000
0000
;

//---------------dance-single - ----------------
#NOTES:
     dance-single:
     :
     Medium:
     8:
     0.393908,0.480392,0.245098,0.000000,0.000000,225.000000,205.000000,20.000000,0.000000,0.000000,0.000000,0.393908,0.480392,0.245098,0.000000,0.000000,225.000000,205.000000,20.000000,0.000000,0.000000,0.000000:
0000
0000
0000
0000
,
0000
0000
0000
0000
,
0000
0000
0000
0000
,
0000
0000
0000
0000
,
0000
0000
0000
0000
,
1000
0001
1000
0001
,
0010
1000
0001
1001
,
0001
0001
1000
1000
,
0001
0001
1000
1000
,
0001
1000
0001
1000
,
0001
1000
0001
0001
,
1000
0000
0001
0000
1000
1000
1000
0000
,
0001
0000
1000
0000
0001
0001
0001
0000
,
0010
0000
1000
0000
0001
1000
0100
0000
,
0010
0000
1000
0000
0001
1000
0100
0000
,
0010
0000
0010
0000
0001
1000
0100
0000
,
1000
0000
1000
0000
0001
1000
0100
0000
,
0100
0000
0100
0000
0001
1000
0100
0000
,
0001
0000
0001
0000
0001
1000
0100
0000
,
0000
0000
0000
0000
,
0010
0010
0010
0010
,
1000
0001
0100
0000
1000
0001
0100
0000
,
0001
1000
0100
0000
0001
1000
0100
0000
,
0010
0001
0100
0000
0010
1000
0100
0000
,
0010
0001
0100
0000
0010
1000
0100
0000
,
0010
0100
1000
0000
0010
0100
0001
0000
,
0010
1000
0100
0000
0010
0001
1000
0000
,
0001
0001
0100
0000
0001
0001
0100
0000
,
1000
0001
0100
0000
1000
0001
0100
0000
,
0001
1000
0100
0000
0001
1000
0100
0000
,
0001
0010
0100
0000
0001
0010
0100
0000
,
0000
0000
0000
0000
,
0010
1000
0001
0100
,
1001
0100
1010
0001
,
1001
0100
0011
1000
,
0010
0001
0010
1000
,
1001
0100
0011
0100
,
1001
0100
0010
0001
,
1000
0001
0100
0010
,
1001
0100
0010
1000
,
0001
0100
0010
1000
,
1001
0000
0010
0000
1000
0100
1000
0000
,
1001
0000
0010
0000
0001
0100
0001
0000
,
0010
0000
1000
0000
0011
1000
0100
0000
,
0010
0000
0001
0000
1010
0001
0100
0000
,
1001
0000
0100
0000
0010
0001
0100
0000
,
1001
0000
0100
0000
0010
1000
0100
0000
,
1001
0000
1100
0000
0010
0001
0100
0000
,
1001
0000
0101
0000
0010
1000
0100
0000
,
1001
0000
0000
0000
,
0000
0000
0000
0000
;

//---------------dance-single - ----------------
#NOTES:
     dance-single:
     :
     Hard:
     11:
     0.497199,0.539063,0.563725,0.000000,0.000000,284.000000,238.000000,46.000000,0.000000,0.000000,0.000000,0.497199,0.539063,0.563725,0.000000,0.000000,284.000000,238.000000,46.000000,0.000000,0.000000,0.000000:
0000
0000
0000
0000
,
0000
0000
0000
0000
,
0000
0000
0000
0000
,
0000
0000
0000
0000
,
0000
0000
0000
0000
0000
0000
0000
0010
,
0000
0010
0000
0010
0000
0010
0000
1001
,
0000
1001
0000
1000
0001
0101
0000
1000
,
0001
0100
0000
1000
0001
0100
0000
1000
,
0001
0100
0000
1000
0001
0100
0000
0001
,
1000
0100
0000
0001
1000
0100
0000
0001
,
1000
0100
0000
0001
1000
0100
0000
1000
,
0000
0001
0000
0010
1000
0100
0000
1000
,
0000
0001
0000
0010
0001
0100
0000
0010
,
1000
0100
0010
0001
0100
0010
0000
0010
,
1000
0100
0010
0001
0100
0010
0000
0010
,
0010
0010
0000
0001
1000
0100
0000
0010
,
0010
0010
0000
0001
1000
0100
0000
0100
,
0100
0100
0000
1000
0001
0100
0000
0100
,
0100
0100
0000
1000
0001
0100
0000
0000
,
0000
0000
0000
0000
0000
0000
0000
0010
,
0000
0010
0000
0010
0000
1001
0000
1001
,
0100
1000
0000
1001
0100
1000
0000
1001
,
0100
1000
0000
1001
0100
1000
0000
1010
,
0001
0100
0000
1010
0001
0100
0000
1010
,
0001
0100
0000
1010
0001
0100
0000
0011
,
0000
1000
0000
0011
0000
1000
0000
0011
,
0000
1000
0000
0011
0000
1000
0000
0010
,
0100
1001
0000
0010
0100
1001
0000
1000
,
0001
0101
0000
1000
0001
0101
0000
0001
,
1000
1100
0000
0001
1000
1100
0000
1000
,
0001
0100
0000
1000
0001
0100
0000
0000
,
0000
0000
0000
0000
0000
0000
0000
0010
,
0000
1000
0000
0001
0000
0100
0000
1000
,
0100
0010
0100
1000
0100
0001
0100
0010
,
0100
0001
0100
1000
0100
0010
0100
0001
,
0100
1000
0100
0010
0100
1000
0100
0001
,
0100
1000
0100
0001
0100
1000
0100
1001
,
0000
0100
0000
0100
0000
0100
0000
1000
,
0000
0001
0000
0100
0010
1000
0001
1001
,
0000
0100
0000
0010
0001
1000
0100
1001
,
0000
0100
0000
0010
0000
0101
0000
1001
,
0000
0100
0000
1000
0001
0100
0000
1001
,
0000
0010
0000
0001
0100
1001
0000
0010
,
0000
1000
0000
0011
1000
1100
0000
0010
,
0000
0001
0000
1010
0001
0101
0000
1001
,
0000
0100
0000
1010
0100
1001
0000
1001
,
0000
0100
0000
1010
0100
1001
0000
1001
,
0000
1100
0000
0010
0001
1001
0000
1001
,
0000
0101
0000
0010
1000
1001
0000
1001
;

//---------------dance-double - ----------------
#NOTES:
     dance-double:
     :
     Easy:
     9:
     0.388655,0.480392,0.330882,0.000000,0.000000,222.000000,195.000000,27.000000,0.000000,0.000000,0.000000,0.388655,0.480392,0.330882,0.000000,0.000000,222.000000,195.000000,27.000000,0.000000,0.000000,0.000000:
00000000
00000000
00000000
00000000
,
00000000
00000000
00000000
00000000
,
00000000
00000000
00000000
00000000
,
00000000
00000000
00000000
00000000
,
00000000
00000000
00000000
00000000
,
00100000
00010000
00000010
00001000
,
01000000
00010000
00000100
00011000
,
00100000
00100000
10000000
10000000
,
00010000
00001000
00000001
00000001
,
00000010
00000010
00001000
00001000
,
00010000
10000000
01000000
01000000
,
00100000
00000000
00010000
00000000
00000010
00000001
00000100
00000000
,
00000010
00000000
00001000
00000000
00100000
10000000
01000000
00000000
,
00100000
00000000
00010000
00000000
00000010
00000001
00000100
00000000
,
00000010
00000000
00001000
00000000
00100000
10000000
01000000
00000000
,
00010000
00000000
01000000
00000000
00001000
00000100
00000001
00000000
,
00001000
00000000
00000100
00000000
00010000
01000000
10000000
00000000
,
00010000
01000000
00100000
00001000
,
00000100
00000010
00010000
01000000
,
00000000
00000000
00000000
00000000
,
00010000
00001000
00010000
00001000
,
10000000
01000000
00001000
00010000
,
00000001
00000100
00010000
00001000
,
10000000
01000000
00001000
00010000
,
00000001
00000100
00010000
00001000
,
00100000
00010000
01000000
00000000
00000010
00001000
00000100
00000000
,
00100000
00010000
01000000
00000000
00000010
00001000
00000100
00000000
,
00000001
00001000
00000100
00000000
00010000
00001000
00010000
00000000
,
10000000
00010000
01000000
00000000
00001000
00010000
00001000
00000000
,
00100000
00010000
00000000
01000000
00000010
00001000
00000100
00000000
,
00100000
01000000
00010000
00000000
00000010
00000100
00001000
00000000
,
00000000
00000000
00000000
00000000
,
00100000
01000000
00001000
00000001
,
00000110
00001000
10010000
01000000
,
00110000
00001000
00000110
00000001
,
00001000
00100000
10000000
01000000
,
11000000
00010000
00001100
00000001
,
00000110
00001000
00010000
01000000
,
10000000
01000000
00010000
00001000
,
00000110
00010000
10000000
01000000
,
01100000
00001000
00000001
00000100
,
00001001
00000000
00011000
00000000
10000000
01000000
10000000
00000000
,
10010000
00000000
00011000
00000000
00000001
00000100
00000001
00000000
,
00001001
00000000
00011000
00000000
10000000
01000000
10000000
00000000
,
10010000
00000000
00011000
00000000
00000001
00000100
00000001
00000000
,
00000110
00000000
00011000
00000000
00100000
10000000
01000000
00000000
,
01100000
00000000
00011000
00000000
00000010
00000001
00000100
00000000
,
00000110
00000000
00011000
00000000
00100000
10000000
01000000
00000000
,
01100000
00000000
00011000
00000000
00000010
00000001
00000100
00000000
,
00011000
00000000
00000000
00000000
,
00000000
00000000
00000000
00000000
;

//---------------dance-double - ----------------
#NOTES:
     dance-double:
     :
     Medium:
     11:
     0.500700,0.540441,0.747549,0.000000,0.000000,286.000000,225.000000,61.000000,0.000000,0.000000,0.000000,0.500700,0.540441,0.747549,0.000000,0.000000,286.000000,225.000000,61.000000,0.000000,0.000000,0.000000:
00000000
00000000
00000000
00000000
,
00000000
00000000
00000000
00000000
,
00000000
00000000
00000000
00000000
,
00000000
00000000
00000000
00000000
,
00000000
00000000
00000000
00000000
,
00010000
00001000
00010000
00001000
,
00011000
00000010
00010000
01100000
,
10010000
00001000
10010000
00001000
,
00001001
00010000
00001001
00010000
,
10010000
00001000
10010000
00001000
,
00001001
00010000
00001001
00010000
,
00001000
00000000
00010000
00000000
01100000
10000000
01000000
00000000
,
00010000
00000000
00001000
00000000
00000110
00000001
00000100
00000000
,
00001000
00000000
00010000
00000000
01100000
10000000
01000000
00000000
,
00010000
00000000
00001000
00000000
00000110
00000001
00000100
00000000
,
00000010
00001000
00000100
00000000
00000010
00001000
00000100
00000000
,
00100000
00010000
01000000
00000000
00100000
00010000
01000000
00000000
,
00100000
01000000
00100000
00000000
00001000
00010000
00001000
00000000
,
00000010
00000100
00000010
00000000
00010000
00001000
00010000
00000000
,
00000000
00000000
00000000
00000000
,
00000010
00000010
00010000
00011000
,
00011000
00100000
00010000
00000000
10010000
00100000
01000000
00000000
,
01010000
00001000
00010000
00000000
00001100
00000001
00000100
00000000
,
00000110
00000001
00001000
00000000
00001010
00010000
00001000
00000000
,
00110000
00010000
10000000
00000000
11000000
00010000
01000000
00000000
,
00011000
01000000
11000000
00010000
,
00011000
00000100
00000101
00001000
,
00010000
10000000
11000000
00000000
00100000
00010000
01010000
00000000
,
00001000
00010000
00001100
00000000
00000010
00000100
00001001
00000000
,
00000001
00000100
00000110
00000000
00001000
00010000
00011000
00000000
,
00100000
01000000
00010000
00000000
00000010
00000100
00001000
00000000
,
00000000
00000000
00000000
00000000
,
00100000
00010000
00000010
00011000
,
00100000
10000000
01000000
10000000
00010000
01000000
00001000
00010000
,
00000100
00001000
00000010
00000100
00000001
00001000
00000100
00000010
,
00000001
00000100
00000010
00001000
00000100
00010000
00001000
01000000
,
00100000
10000000
01000000
10000000
00010000
01000000
00001000
00010000
,
00011000
00001000
00010000
00010000
,
00100000
00000000
10000000
00000000
01000000
00010000
00001000
00000100
,
00001001
00000000
00001000
00000000
00010000
10000000
01000000
10000000
,
01100000
00001000
00000001
00000110
,
00001001
00000000
00000100
00000000
00010000
10000000
01000000
00000000
,
10010000
00000000
00011000
00000000
00000001
00000100
00001001
00000000
,
00001001
00000000
00011000
00000000
10000000
01000000
10010000
00000000
,
10010000
00000000
00011000
00000000
00000001
00000100
00001001
00000000
,
00000110
00000000
00011000
00000000
00100000
10000000
11000000
00000000
,
01100000
00000000
00011000
00000000
00000010
00000001
00001100
00000000
,
00000110
00000000
00011000
00000000
00100000
10000000
01010000
00000000
,
01100000
00000000
00011000
00000000
00000010
00000001
00000110
00000000
,
00011000
00000000
00000000
00000000
,
00000000
00000000
00000000
00000000
;

//---------------dance-double - ----------------
#NOTES:
     dance-double:
     :
     Hard:
     12:
     0.521709,0.780637,0.318627,0.098039,0.245098,298.000000,272.000000,26.000000,8.000000,0.000000,0.000000,0.521709,0.780637,0.318627,0.098039,0.245098,298.000000,272.000000,26.000000,8.000000,0.000000,0.000000:
00000000
00000000
00000000
00000000
,
00000000
00000000
00000000
00000000
,
00000000
00000000
00000000
00000000
,
00000000
00000000
00000000
00000000
,
00000000
00000000
00000000
00000000
,
01000000
00010000
00001000
00000100
00001000
00010000
01000000
00010000
,
00001000
00000100
00000001
00000100
00001000
00010000
00001000
00000000
,
00110000
00000000
00100000
00001000
00000000
00010000
00000010
00000000
00001010
00000000
00000010
00010000
00000000
00001000
00100000
00000000
,
00110000
00000000
00100000
00001000
00000000
00010000
00000010
00000000
00001010
00000000
00000010
00010000
00000000
00001000
00100000
00000000
,
00110000
00000000
00100000
00001000
00000000
00010000
00000010
00000000
00001010
00000000
00000010
00010000
00000000
00001000
00100000
00000000
,
00110000
00000000
00100000
00001000
00000000
00010000
00000010
00000000
00001010
00000000
00000010
00010000
00000000
00001000
00100000
00000000
,
01000000
00100000
01000000
00010000
00001000
00000100
00000010
00000000
,
00000010
00000100
00001000
00010000
00001000
00000100
00000001
00000000
,
00000010
00001000
00000100
00000010
00001000
00010000
01000000
00000000
,
10000000
00100000
01000000
00010000
00001000
00000100
00000010
00000000
,
00000001
00000000
00000100
00000000
00000000
00001000
00000000
00010000
00000000
00010000
00000000
01000000
00000000
01000000
10000000
00000000
,
10000000
00000000
01000000
00000000
00000000
00010000
00000000
00001000
00000000
00001000
00000000
00000100
00000000
00000100
00000001
00000000
,
00000001
00000000
00000100
00000000
00000000
00001000
00000000
00010000
00000000
00010000
00000000
01000000
00000000
01000000
10000000
00000000
,
10000000
00000000
01000000
00000000
00000000
00010000
00000000
00001000
00000000
00001000
00000000
00010000
00000000
00010000
00002000
00000000
,
00000000
00000000
00000000
00000000
,
00000000
00000000
00000000
00003000
,
00020010
00001000
00000100
00001000
,
00000010
00001000
00000100
00031000
,
00102000
00010000
01000000
01000000
,
00010000
00100000
00100000
00013000
,
00001020
00010000
00001000
00000100
,
00001000
00010000
00001000
00010030
,
00020010
00001000
00000100
00000100
,
00001000
00000010
00000010
00031000
,
00201000
00010000
01000000
00010000
,
01000000
10000000
00010000
00301000
,
00220000
00000000
00000000
00000000
,
00000000
00000000
00000000
00330000
,
01000000
10000000
01000000
00010000
01000000
00100000
01000000
10000000
,
01000000
00010000
00001000
00000100
00001000
00010000
00001000
00000010
,
00000100
00000001
00000100
00000010
00000100
00001000
00000100
00000010
,
00000001
00000100
00000010
00010000
00001000
00010000
00000010
00000100
,
00000001
00000100
00000001
00001000
00000001
00000010
00000001
00000100
,
00000010
00010000
00001000
00000000
00100000
00001000
00010000
01000000
,
00100000
00001000
00010000
01000000
00100000
00001000
00010000
00000100
,
00000010
00000001
00000100
00001000
00010000
01000000
10000000
00100000
,
01010000
00000000
00110000
00000000
01001000
00010000
00001000
00000100
,
00000110
00000000
00001001
00000000
00010010
00001000
00010000
00100000
,
01100000
00000000
10010000
00000000
00101000
00001000
00010000
00000010
,
00001010
00000000
00001100
00000000
00010100
00001000
00010000
01000000
,
00100000
00000000
00000000
01000000
00000000
00000000
10000000
00000000
01000000
00000000
00010000
00000000
00001000
00000000
00000100
00000000
,
00000010
00000000
00000000
00000100
00000000
00000000
00000001
00000000
00000100
00000000
00001000
00000000
00010000
00000000
01000000
00000000
,
00100000
00000000
00000000
01000000
00000000
00000000
10000000
00000000
01000000
00000000
00010000
00000000
00001000
00000000
00000100
00000000
,
00000010
00000000
00000000
00000100
00000000
00000000
00000001
00000000
00000100
00000000
00001000
00000000
00010000
00000000
01000000
00000000
,
00100000
00000000
00000000
00000000
,
00000000
00000000
00000000
00000000
;

//---------------dance-single - ----------------
#NOTES:
     dance-single:
     :
     Edit:
     13:
     0.765056,0.780637,0.649510,0.000000,0.790441,437.000000,384.000000,53.000000,0.000000,0.000000,0.000000,0.765056,0.780637,0.649510,0.000000,0.790441,437.000000,384.000000,53.000000,0.000000,0.000000,0.000000:
0000
0000
0000
0000
,
0000
0000
0000
0000
,
0000
0000
0000
0000
,
0000
0000
0000
0000
,
0000
0000
0000
0000
,
1000
0100
1000
0010
0100
0001
0010
0000
,
1001
0000
0100
0000
1000
0000
0100
0000
0010
0001
0010
0001
0010
0001
0010
0001
,
0100
0000
0010
0100
0000
0010
1000
0000
0100
0000
0010
0001
0000
1000
0001
0000
,
0100
0000
0010
1000
0000
0100
1000
0000
0010
0000
0100
0001
0000
0010
0001
0000
,
1000
0000
0100
0010
0000
0001
0100
0000
0011
0000
1000
0100
0000
0010
0001
0000
,
0100
0000
0010
1000
0000
0001
1000
0000
0110
0000
0001
0010
0000
0100
1000
0000
,
1001
0000
1000
0000
0010
0100
0010
0100
0001
0000
1000
0000
0001
1000
0001
1000
,
0100
0010
0000
0001
0100
0000
0010
0000
1000
0100
1000
0000
0100
1000
0100
0000
,
0010
0000
0000
0001
0000
0000
0100
0000
1000
0000
0100
0000
0001
0010
0100
0010
,
0001
0000
0010
0000
1000
0000
0010
0000
0001
0000
0100
0000
0010
1000
0010
0000
,
0100
0000
0101
0000
0000
0000
0001
0000
1000
0000
0010
0000
1000
0100
0000
1000
,
0010
0000
0101
0000
0000
0000
0010
0000
1000
0000
0100
0000
0001
0100
0000
0000
,
1000
0010
0000
0001
0000
0000
0010
0000
1000
0000
0100
0000
0001
0100
0000
1000
,
0001
0000
0101
0000
0000
0000
0100
0000
0010
0000
1000
0000
0100
0010
0001
0000
,
1001
0000
0000
0000
,
0001
1000
0000
0001
1000
0000
0010
0100
0010
0100
0010
0100
0010
0100
0010
0100
,
0001
0000
0010
0001
0000
0100
0000
0000
0010
0000
1000
0010
0000
0100
0010
0000
,
0000
0000
0001
1000
0000
0010
1000
0000
0001
0000
0100
0010
0000
1000
0010
0000
,
0100
0000
0001
0010
0000
0100
1000
0000
0001
0000
0100
0010
0000
1000
0010
0000
,
0000
0000
0100
0010
0000
0010
1000
0000
0010
0100
0010
0000
0100
0001
0100
0000
,
0001
1000
0000
1010
0000
0010
0000
0010
,
0101
0000
0010
0000
0000
0000
1001
0000
0000
0000
1010
0000
0000
1001
0000
0000
,
0101
0000
0100
0000
0010
1000
0010
0000
0100
0000
0001
1000
0000
1000
0010
0000
,
0100
0000
0110
0000
0001
0000
1000
0000
0001
0000
0100
0010
0000
1000
0010
0000
,
0100
0000
0001
0010
0000
0001
1000
0000
0100
0000
0011
0000
0000
0001
0100
0000
,
0010
0000
1000
0100
0000
1000
0100
0000
0001
0000
0100
0000
1000
0000
0001
0000
,
1000
0000
0000
0000
,
0000
0000
0000
0000
,
1000
0000
0100
0001
0000
0100
1000
0000
0010
0000
0001
0010
0000
1000
0100
0000
,
0001
0000
1000
0010
0000
0001
1000
0000
0001
0000
0100
0000
0010
1000
0010
0000
,
0100
0000
0001
0000
0010
0001
0010
0000
0001
0000
0100
0000
0010
1000
0010
0000
,
0101
0000
0001
0000
1000
0010
1000
0000
1100
0000
0100
0000
0010
0001
0010
0000
,
1001
0000
1000
0010
0000
0010
0100
0000
0011
0000
0100
1000
0000
1000
0001
0000
,
0101
0000
0100
0010
0000
0010
1000
0000
0110
0000
0001
0010
0000
0010
0100
0000
,
1100
0000
0100
0001
0000
0001
0100
0000
1010
0000
0010
0001
0000
0001
0010
0000
,
1001
0000
0001
0100
0000
0100
1000
0000
0101
0000
0001
0010
0000
0010
1000
0000
,
1001
0000
0000
1010
0000
0000
0110
0000
0000
0100
0001
0010
0001
0010
0001
0000
,
1001
0000
0000
1100
0000
0000
0110
0000
0000
0001
1000
0010
1000
0010
1000
0000
,
0011
0000
0000
0110
0000
0000
1100
0000
0000
0100
0001
0010
0001
1000
0010
0000
,
0110
0000
0000
0101
0000
0000
0011
0000
1010
0000
1000
0000
0001
0100
0001
0000
,
0011
0000
0000
0110
0000
0000
1100
0000
0000
0100
0001
0010
0001
0010
0100
0000
,
1010
0000
0000
1100
0000
0000
0110
0000
0000
0001
0100
0010
0100
0010
1000
0000
,
1001
0000
0000
0011
0000
0000
1010
0000
0000
0010
0001
0100
0010
0100
0010
0000
,
1100
0000
0000
0110
0000
0000
0011
0000
0011
0000
1000
0000
0100
1000
0100
0000
,
1001
0000
0000
0000
;

//---------------dance-single - Another----------------
#NOTES:
     dance-single:
     :
     Challenge:
     16:
     0.924370,0.990809,0.575980,0.000000,1.280637,528.000000,481.000000,47.000000,0.000000,0.000000,0.000000,0.924370,0.990809,0.575980,0.000000,1.280637,528.000000,481.000000,47.000000,0.000000,0.000000,0.000000:
// measure 0
0000
0000
0000
0000
,  // measure 1
0000
0000
0000
0000
,  // measure 2
0000
0000
0000
0000
,  // measure 3
0000
0000
0000
0000
,  // measure 4
0000
0000
0000
0000
0000
0000
0000
0000
0000
0000
0000
0000
0000
0000
0001
1000
,  // measure 5
0001
0010
0001
0010
0100
1000
0100
1000
0010
0100
0010
0100
0001
1000
0001
1000
,  // measure 6
0010
0100
0010
0100
0001
0010
0001
0010
0100
1000
0001
0100
0010
1000
0001
0100
,  // measure 7
0010
0000
1000
0010
0000
0100
0001
0010
0100
0000
1000
0010
0000
1000
0001
0010
,  // measure 8
0001
0000
0100
0010
0000
1000
0001
0010
0001
0000
1000
0100
0000
1000
0010
0001
,  // measure 9
0010
0000
1000
0100
0000
0010
0001
1000
0001
0000
0010
1000
0000
0010
0001
0100
,  // measure 10
0010
0000
1000
0010
0000
1000
0001
0100
0001
0000
0010
1000
0000
0010
0001
0000
,  // measure 11
0101
0000
0100
0000
0010
1000
0100
0010
0001
0000
1001
0000
1000
0010
0100
0010
,  // measure 12
0001
0010
0000
1000
0010
0000
0110
0000
0100
0001
0010
0000
0010
0001
0100
0010
,  // measure 13
1000
0000
0100
1000
0010
0000
0100
0000
0001
0000
1001
0000
1000
0010
0100
0000
,  // measure 14
0010
0001
0000
0001
0010
0000
1000
0000
0100
0010
0001
1000
0001
0100
0010
1000
,  // measure 15
0100
0000
0110
0000
0000
0001
0000
1000
0000
0010
0000
1000
0100
0010
0000
0001
,  // measure 16
0100
0000
0101
0000
0000
0001
0000
1000
0000
0010
0000
1000
0001
0100
0000
0100
,  // measure 17
0010
0000
1010
0000
0000
0001
0000
0010
0000
0001
0000
0100
0001
1000
0000
0010
,  // measure 18
1000
0000
1100
0000
0000
0100
0000
0010
0000
0001
1000
0001
1000
0010
0000
0110
,  // measure 19
0000
0000
0000
0000
0000
0001
0010
0001
0010
0100
1000
0100
1000
0001
1000
0001
,  // measure 20
0010
0000
0100
1000
0000
0010
1000
0001
1000
0010
1000
0001
1000
0010
1000
0000
,  // measure 21
1001
0000
0001
0100
0000
1000
0100
0000
0101
0000
0010
1000
0000
0010
0001
0000
,  // measure 22
1010
0000
0010
1000
0000
0100
1000
0001
1000
0000
0100
0010
0000
0001
0100
0010
,  // measure 23
0100
0000
0010
1000
0000
0001
1000
0000
1010
0000
0100
0001
0000
0010
1000
0000
,  // measure 24
0010
0001
1000
0001
0100
0010
1000
0010
0100
0001
0100
0001
0010
0100
1000
0100
,  // measure 25
1000
1010
0000
0110
0000
0101
0001
0010
,  // measure 26
0101
0000
0010
0000
1000
0000
0100
0000
1000
0000
1010
0000
0000
0110
0000
0000
,  // measure 27
0101
0000
0001
0000
0010
0100
0010
0000
0001
0000
1000
0000
0010
1000
0100
0000
,  // measure 28
0010
0011
0001
1000
0100
1000
0010
0100
,  // measure 29
0001
0010
0001
0000
1000
0000
1010
0000
0000
0000
0010
0100
0001
0000
0010
0000
,  // measure 30
0001
0100
0010
0000
1100
0000
1000
0000
0001
0000
0010
0000
0001
0000
0100
0000
,  // measure 31
0010
0000
0000
0000
,  // measure 32
0001
0010
0001
0010
0100
1000
0100
1000
0010
0100
0001
0010
0100
1000
0010
0100
,  // measure 33
0001
0000
1000
0010
0000
1000
0100
0010
0001
0000
0100
0001
0000
0010
1000
0010
,  // measure 34
0001
0000
1000
0001
0000
1000
0010
0100
0010
0000
0001
0010
0000
0010
1000
0100
,  // measure 35
0010
0000
0001
0100
0000
0100
0010
1000
0010
0000
0100
0000
0001
0010
0001
0000
,  // measure 36
1001
0000
1000
0000
1010
0000
0010
0000
0100
0001
0010
0100
1000
0001
0010
0100
,  // measure 37
1000
0000
0010
0100
0000
0001
0010
0001
1000
0000
0100
1000
0000
0010
1000
0001
,  // measure 38
1000
0000
0100
0001
0000
0100
1000
0010
1000
0000
0001
0100
0000
0010
0100
0001
,  // measure 39
0100
0000
0010
1000
0000
0001
1000
0000
0010
0000
0100
0001
0000
0010
0001
0000
,  // measure 40
1000
0100
1000
0100
0010
0001
0010
0001
0100
0010
1000
0001
0100
0010
1000
0001
,  // measure 41
0100
0000
0000
0110
0000
0000
1001
0000
0000
0010
0001
1000
0100
1000
0010
0000
,  // measure 42
0110
0000
0000
0101
0000
0000
1001
0000
0000
1000
0100
0010
0001
0010
0100
1000
,  // measure 43
0010
0000
0000
0110
0000
0000
0101
0000
0000
0001
0010
1000
0010
0001
0010
0000
,  // measure 44
1010
0000
0000
0000
0000
0000
1010
0000
0000
0000
0000
0000
1001
0000
0000
0000
0101
0000
0000
0000
0110
0000
0000
0000
0010
1000
0010
1000
0001
0000
0000
0000
,  // measure 45
1001
0000
0000
0101
0000
0000
0110
0000
0000
1000
0001
0010
0001
0100
0010
0000
,  // measure 46
1010
0000
0000
1100
0000
0000
0011
0000
0000
0001
0010
0100
1000
0001
0010
0000
,  // measure 47
1010
0000
0000
0011
0000
0000
0101
0000
0000
0100
1000
0100
0001
0100
1000
0000
,  // measure 48
0001
0000
0010
0000
0001
0000
0010
0000
0100
0000
1000
0000
0100
0000
1000
0000
0010
0000
0000
0000
0100
0000
0000
0000
0001
0010
0001
0010
0100
0000
0000
0000
,  // measure 49
1001
0000
0000
0000
;
