#TITLE:Freeze;
#SUBTITLE:;
#ARTIST:nc ft. NRG Factory;
#TITLETRANSLIT:;
#SUBTITLETRANSLIT:;
#ARTISTTRANSLIT:;
#GENRE:;
#CREDIT:;
#BANNER:Freeze.png;
#BACKGROUND:Freeze-bg.png;
#LYRICSPATH:;
#CDTITLE:;
#MUSIC:Freeze.ogg;
#OFFSET:0.000000;
#SAMPLESTART:75.330086;
#SAMPLELENGTH:15.000000;
#SELECTABLE:YES;
#DISPLAYBPM:140.000000;
#BPMS:0.000000=140.078003
,4.000000=139.994995
;
#STOPS:
;
#BGCHANGES:;
#KEYSOUNDS:;
#ATTACKS:;

//---------------dance-single - ----------------
#NOTES:
     dance-single:
     :
     Beginner:
     2:
     0.087425,0.160644,0.019124,0.191243,0.000000,64.000000,62.000000,2.000000,20.000000,0.000000,0.000000,0.087425,0.160644,0.019124,0.191243,0.000000,64.000000,62.000000,2.000000,20.000000,0.000000,0.000000:
0000
0000
0000
0000
,
0000
0000
0000
0000
,
0000
0000
0000
0000
,
0000
0000
0000
0000
,
0000
0000
0000
0000
,
0020
0000
0000
0030
,
0000
0000
0000
0000
,
0020
0000
0000
0030
,
0000
0000
0000
0000
,
1001
0000
0000
0000
,
0000
0000
0000
0000
,
0200
0000
0000
0300
,
0000
0000
0000
0000
,
0020
0000
0000
0030
,
0000
0000
0000
0000
,
2000
0000
0000
3000
,
0000
0000
0000
0000
,
0002
0000
0000
0003
,
0000
0000
0000
0000
,
0100
0000
0000
0000
,
0100
0000
1000
0000
,
0100
0000
0000
0000
,
0100
0000
0001
0000
,
0100
0000
0000
0000
,
0100
0000
0010
0000
,
0100
0000
0000
0000
,
1000
0000
0001
0000
,
0000
0000
0000
0000
,
2000
0000
3000
0000
,
2000
0000
3000
0000
,
0002
0000
0003
0000
,
0002
0000
0003
0000
,
0200
0000
0300
0000
,
0020
0000
0030
0000
,
0200
0000
0300
0000
,
0020
0000
0030
0000
,
1000
0000
0001
0000
,
2000
0000
3000
0000
,
0001
0000
1000
0000
,
0002
0000
0003
0000
,
0001
0000
0100
0000
,
0002
0000
0003
0000
,
1000
0000
0100
0000
,
2000
0000
3000
0000
,
1000
0000
0100
0000
,
1000
1000
1000
0000
,
0001
0000
0100
0000
,
0001
0001
0001
0000
,
0100
0000
0010
0000
,
0100
0100
0100
0000
,
1000
0000
0001
0000
,
0010
0010
0010
0000
,
0020
0000
0000
0030
,
0000
0000
0000
0000
,
0020
0000
0000
0000
,
0000
0030
0000
0000
,
1001
0000
0000
0000
,
;

//---------------dance-single - ----------------
#NOTES:
     dance-single:
     :
     Easy:
     5:
     0.166655,0.248496,0.009562,0.525918,0.000000,122.000000,121.000000,1.000000,55.000000,0.000000,0.000000,0.166655,0.248496,0.009562,0.525918,0.000000,122.000000,121.000000,1.000000,55.000000,0.000000,0.000000:
0000
0000
0000
0000
,
0000
0000
0000
0000
,
0000
0000
0000
0000
,
0000
0000
0000
0000
,
0000
0000
0000
0000
,
0020
0000
0130
0000
,
1000
0001
0100
0000
,
0020
0000
0130
0000
,
0001
1000
0100
0000
,
0020
0000
0000
0000
,
0030
0000
0000
0000
,
2000
0000
0000
0000
,
0000
0000
0000
0000
,
0001
0000
0001
0000
,
0001
0000
0000
3000
,
0002
0000
0000
0000
,
0000
0000
0000
0000
,
1000
0000
1000
0000
,
1000
0000
0000
0003
,
2000
0000
0001
0000
,
0100
0000
0001
3000
,
0002
0000
1000
0000
,
0100
0000
1000
0003
,
0200
0000
1000
0000
,
0010
0000
0001
0300
,
0020
0000
0001
0000
,
0100
0000
1000
0000
,
0030
0000
0000
0000
,
2000
0000
0001
3000
,
0020
0000
1000
0030
,
0002
0000
0010
0003
,
0200
0000
1000
0300
,
0020
0000
1000
1030
,
2000
0000
0001
3001
,
0002
0000
0100
0103
,
0200
0000
0310
0000
,
2000
0000
3002
1003
,
2000
0000
3002
0103
,
0200
0000
0320
0130
,
0200
0000
0320
0031
,
0002
0000
2003
3001
,
0002
0000
2003
3010
,
0020
0000
0230
0310
,
0020
0000
0230
1300
,
0002
0103
0002
0103
,
2000
3010
2000
3010
,
0002
0103
0020
0130
,
2000
3010
0200
0310
,
0002
0103
2000
3100
,
0020
1030
0002
0103
,
2000
3010
0200
0301
,
2000
3200
0320
0032
,
0023
0000
0130
0000
,
0001
1000
0100
0000
,
0020
0000
0130
0000
,
1000
0001
0100
0000
,
2002
0000
0000
0000
,
0000
0000
0000
3003
,
;

//---------------dance-single - ----------------
#NOTES:
     dance-single:
     :
     Medium:
     8:
     0.286864,0.358939,0.152994,0.430297,0.000000,210.000000,194.000000,16.000000,45.000000,0.000000,0.000000,0.286864,0.358939,0.152994,0.430297,0.000000,210.000000,194.000000,16.000000,45.000000,0.000000,0.000000:
0000
0000
0000
0000
,
0000
0000
0000
0000
,
0000
0000
0000
0000
,
0000
0000
0000
0000
,
0000
0000
0000
0000
,
0001
1000
0201
0000
,
1000
1000
0020
0330
,
1000
0001
1200
0000
,
0001
0001
0010
0310
,
0220
0000
0000
0000
,
0000
0000
0000
0330
,
1000
0000
0010
0200
0000
0000
0000
0000
,
0010
0010
0010
0010
,
0002
0000
0000
0000
,
0000
0000
0000
0303
,
0001
0000
0010
0200
0000
0000
0000
0000
,
0010
0010
0010
0010
,
2000
0000
0000
0000
,
0000
0000
0000
3300
,
1000
0100
2000
0000
0010
0000
0010
0000
,
0001
0010
0002
3003
,
0001
0010
0002
0000
1000
0000
1000
0000
,
0100
1000
0200
0303
,
0100
0001
0200
0000
0010
0000
0010
0000
,
1000
0010
2000
3300
,
0010
1000
0020
0000
0001
0000
0001
0000
,
0100
0001
0200
0000
,
0330
0000
0000
0000
,
0010
2100
0001
3010
,
0100
0001
0010
0000
0102
0000
1003
0000
,
1000
0201
0010
1300
,
0010
1000
0100
0000
1020
0000
0130
0000
,
0100
0012
1000
0103
,
0010
1000
0100
0000
2010
0000
3001
0000
,
0001
1020
0100
0031
,
0100
0001
0010
0000
0220
0000
0330
0000
,
0010
0001
0002
0000
0100
0000
0013
0000
,
0100
1000
0010
0000
1000
0200
0001
0000
,
1300
0010
0020
0000
1000
0000
0130
0000
,
1000
0000
0101
0000
0001
0200
1000
0000
,
0310
1000
2000
0000
0010
0000
3100
0000
,
0010
0001
0100
0000
0001
0020
1000
0000
,
0031
0100
0200
0000
0001
0000
0310
0000
,
1000
0001
0010
0000
1001
0000
0000
0000
,
0010
0100
2000
0000
0001
0000
3010
0000
,
0100
0001
0020
0000
0001
0000
0130
0000
,
1000
0001
0200
0000
0010
0000
1300
0000
,
0010
1000
0200
0000
0001
0000
0310
0000
,
0100
0010
0002
0000
1000
0000
0103
0000
,
0010
1000
0002
0000
0010
0000
1003
0000
,
0001
1000
0020
0000
0100
0000
0031
0000
,
0100
0001
0010
0000
1001
0000
0110
0000
,
1000
0000
0001
1000
0020
0000
0000
0000
,
0001
0001
0100
0130
,
0001
0000
1000
0001
0020
0000
0000
0000
,
1000
1000
0200
0330
,
2002
0000
0000
0000
,
0000
0000
0000
3003
,
;

//---------------dance-single - ----------------
#NOTES:
     dance-single:
     :
     Hard:
     12:
     0.433029,0.469382,0.258178,0.545043,0.267740,317.000000,290.000000,27.000000,57.000000,0.000000,0.000000,0.433029,0.469382,0.258178,0.545043,0.267740,317.000000,290.000000,27.000000,57.000000,0.000000,0.000000:
// measure 0
0000
0000
0000
0000
,  // measure 1
0000
0000
0000
0000
,  // measure 2
0000
0000
0000
0000
,  // measure 3
0000
0000
0000
0000
,  // measure 4
0000
0000
0000
0000
,  // measure 5
0010
2000
0000
0000
0001
0000
0000
0100
3000
0000
0000
0000
1100
0000
0000
0000
,  // measure 6
0001
0200
1000
0000
0010
0000
0301
0000
,  // measure 7
0010
0002
0000
0000
1000
0000
0000
0100
0003
0000
0000
0000
0101
0000
0000
0000
,  // measure 8
1000
0000
0020
0000
0001
0000
0000
0000
0130
0000
0000
1010
0000
1001
0000
0000
,  // measure 9
0220
0000
0000
0000
,  // measure 10
0000
0000
0000
0330
,  // measure 11
0010
1000
0010
0002
0000
0100
0000
0100
,  // measure 12
0000
1000
0000
1000
0003
0010
0001
0010
,  // measure 13
2000
0010
0000
0010
0000
0001
0000
0001
,  // measure 14
0000
0100
0000
0100
0000
0010
3000
0010
,  // measure 15
0100
1000
0001
0200
0000
1000
0000
1000
,  // measure 16
0000
0010
0000
0010
0300
0001
0100
0001
,  // measure 17
0020
1000
0000
0100
0000
0001
0000
0100
,  // measure 18
0200
0000
0000
0330
,  // measure 19
0002
0000
1000
0000
2003
0000
0000
0100
0000
0000
3100
0000
0020
0000
0000
0001
,  // measure 20
0000
0000
0031
0000
0200
0000
0000
0010
0000
0000
0310
0000
1000
0000
0100
0000
,  // measure 21
2000
0000
0001
0000
3002
0000
0000
0100
0000
0000
0103
0000
0020
0000
0000
1000
,  // measure 22
0000
0000
1030
0000
0200
0000
0000
0010
0000
0000
0310
0000
0001
0000
1000
0000
,  // measure 23
0002
0000
0100
0000
0203
0000
0000
0010
0000
0000
0301
0000
2000
0000
0000
0001
,  // measure 24
0000
0000
3010
0000
0200
0000
0000
0001
0000
0000
0310
0000
1000
0000
0001
0000
,  // measure 25
2000
0000
0001
0000
3200
0000
0000
0010
0000
0000
1300
0000
0002
0000
0000
1000
,  // measure 26
0000
0000
0013
0000
0200
0000
0000
1000
0000
0000
0310
0000
0001
1000
0000
2002
,  // measure 27
0000
0000
0000
3003
,  // measure 28
0001
0200
0010
0000
0301
0010
0100
1000
,  // measure 29
0010
0200
1000
0000
0310
1000
0001
0100
,  // measure 30
1000
0200
0001
0000
1300
0001
0010
1000
,  // measure 31
0001
2000
0100
0000
3010
0100
0001
0100
,  // measure 32
0010
0000
1000
0000
0100
0000
0000
1100
0000
0000
0002
0000
1000
0000
0000
0000
,  // measure 33
0103
0010
0100
0000
1000
0010
0100
0001
,  // measure 34
0010
0000
0100
0000
1000
0000
0000
1001
0000
0000
0200
0000
0010
0000
0000
0000
,  // measure 35
0310
0001
1000
0000
0010
0001
1001
0000
,  // measure 36
1000
0000
0010
0000
0001
0000
0000
0011
0000
0000
2000
0000
0010
0000
0000
0010
,  // measure 37
3000
0000
0100
0000
0010
0000
0000
1010
0000
0000
0001
0000
1000
0000
0010
0000
,  // measure 38
0001
0000
0010
0000
1000
0000
0000
1001
0000
0000
0020
0000
0100
0000
0000
0100
,  // measure 39
0030
0000
1000
0000
0001
0000
0000
0101
0000
0000
1000
0000
0001
0000
0010
0000
,  // measure 40
0100
0000
1000
0000
0010
0000
0000
1010
0000
0000
2000
0000
0001
0000
0000
0001
,  // measure 41
3000
0000
0100
0000
0010
0000
0000
0110
0000
0000
0100
0000
0010
0000
1000
0000
,  // measure 42
0100
0000
0010
0000
0001
0000
0000
1001
0000
0000
0020
0000
0100
0000
0000
0100
,  // measure 43
0030
0000
1000
0000
0001
0000
0000
0010
0000
0000
0100
0000
1001
0000
0000
0000
,  // measure 44
1000
0010
2000
0000
0001
0000
0000
0100
3000
0000
0020
0000
0001
0000
0000
0100
,  // measure 45
0030
0000
2000
0000
0001
0000
0000
0100
3000
0000
0010
0000
0011
0000
0000
0000
,  // measure 46
0001
0010
0002
0000
1000
0000
0000
0100
0003
0000
0020
0000
1000
0000
0000
0100
,  // measure 47
0030
0000
0002
0000
1000
0000
0000
0100
0003
0000
0010
0000
1010
0000
0000
0000
,  // measure 48
0010
1000
0020
0000
0100
0000
0000
1000
0030
0000
0200
0000
0010
0000
0000
0001
,  // measure 49
0300
0000
0020
0000
0100
0000
0000
1000
0030
0000
0100
0000
0110
0000
0000
0000
,  // measure 50
0100
0001
0200
0000
0010
0000
0000
0001
0300
0000
0020
0000
1000
0000
0000
0100
,  // measure 51
0030
0000
0200
0000
0010
0000
0000
0001
0300
0000
1001
0000
1001
0000
0000
0000
,  // measure 52
0010
0002
0000
0000
1000
0000
0000
0100
0003
0000
0000
0000
0101
0000
0000
0000
,  // measure 53
1000
0200
0001
0000
0010
0000
1300
0000
,  // measure 54
0010
2000
0000
0000
0001
0000
0000
0100
3000
0000
0000
0000
1100
0000
0000
0000
,  // measure 55
0001
0000
0020
0000
1000
0000
0000
0000
0130
0000
0000
0011
0000
0110
0000
0000
,  // measure 56
2002
0000
0000
0000
,  // measure 57
0000
0000
0000
3003
;

//---------------dance-single - ----------------
#NOTES:
     dance-single:
     :
     Challenge:
     13:
     0.392048,0.441771,0.181681,0.545043,0.267740,287.000000,268.000000,19.000000,57.000000,92.000000,0.000000,0.392048,0.441771,0.181681,0.545043,0.267740,287.000000,268.000000,19.000000,57.000000,92.000000,0.000000:
// measure 0
0000
0000
0000
0000
,  // measure 1
0000
0000
0000
0000
,  // measure 2
0000
0000
0000
0000
,  // measure 3
0000
0000
0000
0000
,  // measure 4
0000
0000
0000
0000
,  // measure 5
0010
2000
0000
0000
0001
0000
0000
0100
3000
0000
0000
0000
MMMM
0000
0000
0000
,  // measure 6
0001
0200
1000
0000
0010
0000
0301
0000
,  // measure 7
0010
0002
0000
0000
1000
0000
0000
0100
0003
0000
0000
0000
MMMM
0000
0000
0000
,  // measure 8
1000
0000
0020
0000
0001
0000
0000
0000
0130
0000
0000
1010
0000
1001
0000
0000
,  // measure 9
0220
0000
0000
0000
,  // measure 10
0000
0000
0000
0330
,  // measure 11
0010
1000
0010
0002
0000
0100
0000
0100
,  // measure 12
0000
1000
0000
1000
0003
0010
0001
0010
,  // measure 13
2000
0010
0000
0010
0000
0001
0000
0001
,  // measure 14
0000
0100
0000
0100
0000
0010
3000
0010
,  // measure 15
0100
1000
0001
0200
0000
1000
0000
1000
,  // measure 16
0000
0010
0000
0010
0300
0001
0100
0001
,  // measure 17
0020
1000
0000
0100
0000
0001
0000
0100
,  // measure 18
0200
0000
0330
MMMM
,  // measure 19
0002
0000
1000
0000
2003
0000
0000
0100
0000
0000
3100
0000
0020
0000
0000
0001
,  // measure 20
0000
0000
0031
0000
0200
0000
0000
0010
0000
0000
0310
0000
MMMM
0000
0100
0000
,  // measure 21
2000
0000
0001
0000
3002
0000
0000
0100
0000
0000
0103
0000
0020
0000
0000
1000
,  // measure 22
0000
0000
1030
0000
0200
0000
0000
0010
0000
0000
0310
0000
MMMM
0000
1000
0000
,  // measure 23
0002
0000
0100
0000
0203
0000
0000
0010
0000
0000
0301
0000
2000
0000
0000
0001
,  // measure 24
0000
0000
3010
0000
0200
0000
0000
0001
0000
0000
0310
0000
MMMM
0000
0001
0000
,  // measure 25
2000
0000
0001
0000
3200
0000
0000
0010
0000
0000
1300
0000
0002
0000
0000
1000
,  // measure 26
0000
0000
0013
0000
0200
0000
0000
1000
0000
0000
0310
0000
0001
1000
0000
2002
,  // measure 27
0000
0000
0000
3003
,  // measure 28
MMMM
0200
0010
0000
0301
0010
0100
1000
,  // measure 29
MMMM
0200
1000
0000
0310
1000
0001
0100
,  // measure 30
MMMM
0200
0001
0000
1300
0001
0010
1000
,  // measure 31
MMMM
2000
0100
0000
3010
0100
0001
0100
,  // measure 32
MMMM
0000
1000
0000
0100
0000
0000
1100
0000
0000
0002
0000
1003
0000
0000
0000
,  // measure 33
MMMM
0010
0100
0000
1000
0010
0100
0001
,  // measure 34
MMMM
0000
0100
0000
1000
0000
0000
1001
0000
0000
0200
0000
0010
0000
0000
0000
,  // measure 35
0310
0001
1000
0000
0010
0001
1001
0000
,  // measure 36
MMMM
0000
0010
0000
0001
0000
0000
0011
0000
0000
2000
0000
0010
0000
0000
0010
,  // measure 37
3000
0000
0100
0000
0010
0000
0000
1010
0000
0000
0001
0000
1000
0000
0010
0000
,  // measure 38
MMMM
0000
0010
0000
1000
0000
0000
1001
0000
0000
0020
0000
0100
0000
0000
0100
,  // measure 39
0030
0000
1000
0000
0001
0000
0000
0101
0000
0000
1000
0000
0001
0000
0010
0000
,  // measure 40
MMMM
0000
1000
0000
0010
0000
0000
1010
0000
0000
2000
0000
0001
0000
0000
0001
,  // measure 41
3000
0000
0100
0000
0010
0000
0000
0110
0000
0000
0100
0000
0010
0000
1000
0000
,  // measure 42
MMMM
0000
0010
0000
0001
0000
0000
1001
0000
0000
0020
0000
0100
0000
0000
0100
,  // measure 43
0030
0000
1000
0000
0001
0000
0000
0010
0000
0000
0100
0000
1001
0000
0000
0000
,  // measure 44
1000
0010
2000
0000
0001
0000
0000
0100
3000
0000
0020
0000
0001
0000
0000
0100
,  // measure 45
0030
0000
2000
0000
0001
0000
0000
0100
3000
0000
0010
0000
MMMM
0000
0000
0000
,  // measure 46
0001
0010
0002
0000
1000
0000
0000
0100
0003
0000
0020
0000
1000
0000
0000
0100
,  // measure 47
0030
0000
0002
0000
1000
0000
0000
0100
0003
0000
0010
0000
MMMM
0000
0000
0000
,  // measure 48
0010
1000
0020
0000
0100
0000
0000
1000
0030
0000
0200
0000
0010
0000
0000
0001
,  // measure 49
0300
0000
0020
0000
0100
0000
0000
1000
0030
0000
0100
0000
MMMM
0000
0000
0000
,  // measure 50
0100
0001
0200
0000
0010
0000
0000
0001
0300
0000
0020
0000
1000
0000
0000
0100
,  // measure 51
0030
0000
0200
0000
0010
0000
0000
0001
0300
0000
1001
0000
MMMM
0000
0000
0000
,  // measure 52
0010
0002
0000
0000
1000
0000
0000
0100
0003
0000
0000
0000
MMMM
0000
0000
0000
,  // measure 53
1000
0200
0001
0000
0010
0000
1300
0000
,  // measure 54
0010
2000
0000
0000
0001
0000
0000
0100
3000
0000
0000
0000
MMMM
0000
0000
0000
,  // measure 55
0001
0000
0020
0000
1000
0000
0000
0000
0130
0000
0000
0011
0000
0110
0000
0000
,  // measure 56
2002
0000
0000
0000
,  // measure 57
0000
0000
0000
3003
;

//---------------dance-double - ----------------
#NOTES:
     dance-double:
     :
     Easy:
     5:
     0.157092,0.276107,0.028686,0.392048,0.000000,115.000000,112.000000,3.000000,41.000000,0.000000,0.000000,0.157092,0.276107,0.028686,0.392048,0.000000,115.000000,112.000000,3.000000,41.000000,0.000000,0.000000:
00000000
00000000
00000000
00000000
,
00000000
00000000
00000000
00000000
,
00000000
00000000
00000000
00000000
,
00000000
00000000
00000000
00000000
,
00000000
00000000
00000000
00000000
,
00000020
00000000
00000030
00000000
,
00001000
00001000
00001000
00000000
,
00200000
00000000
00300000
00000000
,
00010000
00010000
00010000
00000000
,
00022000
00000000
00000000
00000000
,
00033000
00000000
00000000
00000000
,
02000000
00000000
00000000
00000000
,
00010000
00000000
00010000
00000000
,
00010000
00000000
00000000
00000000
,
00001000
00000000
03000000
00000000
,
00000200
00000000
00000000
00000000
,
00001000
00000000
00001000
00000000
,
00001000
00000000
00000000
00000000
,
00010000
00000000
00000300
00000000
,
00002000
00000000
00000100
00000000
,
00000001
00000000
00000010
00003000
,
00020000
00000000
01000000
00000000
,
10000000
00000000
00100000
00030000
,
00002000
00000000
00000100
00000000
,
00000001
00000000
00000010
00003000
,
00020000
00000000
01000000
00000000
,
10000000
00000000
00100000
00000000
,
00031000
00000000
00000000
00000000
,
20000000
00000000
31000000
00000000
,
00200000
00000000
00301000
00000000
,
00002000
00000000
00003100
00000000
,
00000020
00000000
00000031
00000000
,
00000002
00000000
00001003
00000000
,
00000200
00000000
00010300
00000000
,
00020000
00000000
00130000
00000000
,
02000000
00000000
03000000
00000000
,
20000000
00000000
30010000
00100000
,
00002000
00000000
00013000
00000100
,
00000020
00000000
00000031
00001000
,
00000200
00000000
00001300
00010000
,
00200000
00000000
00310000
10000000
,
02000000
00000000
03100000
00001000
,
00000200
00000000
00000310
00001000
,
00000002
00000000
00001003
00000000
,
00000200
00001300
00000100
00010000
,
00002000
00103000
00010000
10000000
,
00020000
00130000
10000000
01000000
,
00020000
00031000
00011000
00000000
,
00000020
00000130
00000001
00001000
,
00000200
00000310
00000100
00010000
,
00002000
00003000
00020000
00030000
,
00002000
00023000
00032000
00013000
,
00000200
00000000
00000300
00000000
,
00010000
00010000
00010000
00000000
,
02000000
00000000
03000000
00000000
,
00001000
00001000
00001000
00000000
,
00022000
00000000
00000000
00000000
,
00000000
00000000
00000000
00033000
,
;

//---------------dance-double - ----------------
#NOTES:
     dance-double:
     :
     Medium:
     7:
     0.274570,0.331328,0.124308,0.487670,0.000000,201.000000,188.000000,13.000000,51.000000,0.000000,0.000000,0.274570,0.331328,0.124308,0.487670,0.000000,201.000000,188.000000,13.000000,51.000000,0.000000,0.000000:
00000000
00000000
00000000
00000000
,
00000000
00000000
00000000
00000000
,
00000000
00000000
00000000
00000000
,
00000000
00000000
00000000
00000000
,
00000000
00000000
00000000
00000000
,
20010000
00100000
30010000
01000000
,
00100000
00010000
00100000
00000000
00001000
00000000
00000000
00000000
,
00001002
00000100
00001003
00000010
,
00000100
00001000
00000100
00000000
00010000
00000000
00000000
00000000
,
00022000
00000000
00000000
00000000
,
00000000
00000000
00000000
00033000
,
00001000
00000000
00000100
00000020
00000000
00000000
00000000
00000000
,
00000001
00000001
00001000
00001000
,
00020000
00000000
00000000
00000000
,
00000000
00000000
00000000
00030030
,
00010000
00000000
01000000
00200000
00000000
00000000
00000000
00000000
,
10000000
10000000
00010000
00010000
,
00002000
00000000
00000000
00000000
,
00000000
00000000
00000000
00303000
,
02000000
10000000
03200000
10000000
,
02300000
00000000
10000000
00000000
03100000
00000000
00001000
00010000
,
00000200
00000001
00000320
00000001
,
00000230
00000000
00000001
00000000
00000310
00000000
00001000
00010000
,
00200000
01000000
00302000
01000000
,
00203000
00000000
01000000
00000000
00301000
00000000
00010000
00001000
,
00000020
00000100
00020030
00000100
,
00030020
00000000
00000100
00000000
00010030
00000000
00001000
00010000
,
00000000
00000000
00000000
00000000
,
10000000
01000000
00010000
00000000
00002000
00000000
00010000
00000000
,
00003020
00000000
00000030
00001001
,
00000001
00000100
00001000
00000000
00020000
00000000
00001000
00000000
,
00230000
00000000
00300000
10010000
,
01000000
00010000
00100000
00000000
00002000
00000000
00010000
00000000
,
00003200
00010000
00000300
00001001
,
00000100
00001000
00000010
00000000
00020000
00000000
00001000
00000000
,
02030000
00001000
03000000
10010000
,
10000000
00100000
00010000
00000000
00002000
00000000
00010000
00000000
,
00003200
00001000
00000310
00000110
,
00000001
00000010
00001000
00000000
00020000
00000000
00001000
00000000
,
02030000
00010000
03100000
01100000
,
00100000
00010000
01000000
00000000
00002000
00000000
00010000
00000000
,
00003020
00010000
00001030
00000101
,
00000010
00001000
00000100
00000000
00020000
00000000
00001000
00000000
,
00230000
00000000
02000000
03300000
,
00100000
00001000
00002000
00000000
00010000
00000000
00013000
00000000
,
00001000
00000020
00000100
00000031
,
00000100
00010000
00020000
00000000
00001000
00000000
00031000
00000000
,
00100000
02000000
00100000
13000000
,
10000000
02000000
00010000
00000000
03200000
00000000
00010000
00000000
,
01300000
00010000
00002000
00000000
00010000
00000000
00003100
00000000
,
00000001
00000200
00001000
00000000
00000320
00000000
00001000
00000000
,
00000130
00001000
00020000
00000000
00001000
00000000
01030000
00000000
,
20010000
00100000
30010000
01000000
,
00100000
00010000
00100000
00000000
00001000
00000000
00000000
00000000
,
00001002
00000100
00001003
00000010
,
00000100
00001000
00000100
00000000
00010000
00000000
00000000
00000000
,
00022000
00000000
00000000
00000000
,
00000000
00000000
00000000
00033000
,
;

//---------------dance-double - ----------------
#NOTES:
     dance-double:
     :
     Hard:
     12:
     0.424833,0.441771,0.152994,0.420735,0.224710,311.000000,295.000000,16.000000,44.000000,0.000000,0.000000,0.424833,0.441771,0.152994,0.420735,0.224710,311.000000,295.000000,16.000000,44.000000,0.000000,0.000000:
00000000
00000000
00000000
00000000
,
00000000
00000000
00000000
00000000
,
00000000
00000000
00000000
00000000
,
00000000
00000000
00000000
00000000
,
00000000
00000000
00000000
00000000
,
00001000
00020000
00000000
00000000
01000000
00000000
00000000
10000000
00030000
00000000
00000000
00000000
00110000
00000000
00000000
00000000
,
00001000
00000000
00010000
00000000
00000100
00000010
00000100
00000000
,
00010000
00002000
00000000
00000000
00000100
00000000
00000000
00000001
00003000
00000000
00000000
00000000
00001010
00000000
00000000
00000000
,
00011000
00000000
00000000
00000000
01000000
00000000
00000000
00000000
00100000
00000000
00000000
00110000
00000000
00101000
00000000
00000000
,
00022000
00000000
00000000
00000000
,
00000000
00000000
00000000
00033000
,
00010000
00001000
00000001
00000200
00000000
00000001
00000000
00000001
,
00000000
00000010
00000000
00000010
00000000
00001000
00001000
00001000
,
00000000
00001000
00000000
00001000
00000000
00010000
00000000
00010000
,
00000000
00001000
00000000
00001000
00000000
00000010
00000300
00000010
,
00001000
00010000
10000000
02000000
00000000
10000000
00000000
10000000
,
00000000
00100000
00000000
00100000
00000000
00010000
00010000
00010000
,
00000000
00010000
00000000
00010000
00000000
00001000
00000000
00001000
,
00000000
00010000
00000000
00010000
00000000
00100000
03000000
00100000
,
10000000
00000000
00020000
00000000
01000000
00000000
00000000
01000000
00030000
00000000
02000000
00000000
00001000
00000000
00000000
00001000
,
03000000
00000000
00002000
00000000
00010000
00000000
00000000
00010000
00003000
00000000
00010000
00000000
00000010
00000000
00000100
00000000
,
00000001
00000000
00002000
00000000
00000100
00000000
00000000
00000100
00003000
00000000
00000200
00000000
00010000
00000000
00000000
00010000
,
00000300
00000000
00020000
00000000
00001000
00000000
00000000
00001000
00030000
00000000
00001000
00000000
00100000
00000000
01000000
00000000
,
10000000
00000000
00020000
00000000
00100000
00000000
00000000
10000000
00030000
00000000
00200000
00000000
00001000
00000000
00000000
00010000
,
00300000
00000000
00002000
00000000
00010000
00000000
00000000
01000000
00003000
00000000
00010000
00000000
00000100
00000000
00000010
00000000
,
00000001
00000000
00002000
00000000
00000010
00000000
00000000
00000100
00003000
00000000
00000020
00000000
00010000
00000000
00000000
00001000
,
00000030
00000000
00020000
00000000
00001000
00000000
00000000
00000010
00030000
00000000
00001000
00000000
01000000
00010000
00000000
02200000
,
00000000
00000000
00000000
03300000
,
00100000
10000000
01000000
00010000
00001000
00000100
00000001
00000010
,
00001000
00000010
00000001
00000100
00001000
00010000
00000010
00000000
,
00000100
00000001
00000010
00001000
00010000
01000000
10000000
00100000
,
00010000
00100000
10000000
01000000
00010000
00001000
00100000
00000000
,
00001000
00010000
00000100
00001000
00010000
00100000
00001000
00010000
,
00100000
01000000
00010000
00100000
01000000
10000000
01000000
00000000
,
00010000
00001000
00100000
00010000
00001000
00000100
00010000
00001000
,
00000100
00000010
00001000
00000100
00000010
00000001
00000100
00000000
,
00000010
00000000
00002000
00000000
00000001
00000000
00000000
00000100
00003000
00000000
00000100
00000000
00001000
00000000
00000000
00000000
,
00000100
00000000
00020000
00000000
00000010
00000000
00000000
00001000
00030000
00000000
00001000
00000000
00101000
00000000
00000000
00000000
,
01000000
00000000
00200000
00000000
10000000
00000000
00000000
01000000
00300000
00000000
01000000
00000000
00001000
00000000
00000000
00000000
,
00010000
00000000
00000020
00000000
00001000
00000000
00000000
00000100
00000030
00000000
00000100
00000000
00000101
00000000
00000000
00000000
,
00000010
00000000
00020000
00000000
00000100
00000000
00000000
00001000
00030000
00000000
00001000
00000000
00100000
00000000
00000000
00000000
,
01000000
00000000
20000000
00000000
00010000
00000000
00000000
01000000
30000000
00000000
01000000
00000000
11000000
00000000
00000000
00000000
,
00100000
00000000
00002000
00000000
00010000
00000000
00000000
01000000
00003000
00000000
01000000
00000000
00010000
00000000
00000000
00000000
,
00001000
00000000
00000200
00000000
00000010
00000000
00000000
00010000
00000300
00000000
00010000
00000000
00000100
00000010
00000001
00000000
,
00000010
00000000
00000100
00000000
00000020
00000000
00000000
00000001
00000000
00000000
00000130
00000000
00020000
00000000
00000000
00000010
,
00000000
00000000
00031000
00000000
02000000
00000000
00000000
00100000
00000000
00000000
03010000
00000000
10000000
00000000
00010000
00000000
,
01000000
00000000
00100000
00000000
02000000
00000000
00000000
00010000
00000000
00000000
03001000
00000000
00020000
00000000
00000000
00001000
,
00000000
00000000
00030100
00000000
00000020
00000000
00000000
00000001
00000000
00000000
00000130
00000000
00010000
00000000
00001000
00000000
,
00100000
00000000
01000000
00000000
00200000
00000000
00000000
10000000
00000000
00000000
01300000
00000000
00020000
00000000
00000000
00001000
,
00000000
00000000
00030100
00000000
00000020
00000000
00000000
00000001
00000000
00000000
00000130
00000000
00001000
00000000
00000001
00000000
,
00000100
00000000
00000010
00000000
00000200
00000000
00000000
00000001
00000000
00000000
00001300
00000000
00020000
00000000
00000000
00001000
,
00000000
00000000
01030000
00000000
00200000
00000000
00000000
10000000
00000000
00000000
01300000
00000000
00010000
00000000
00001000
00000000
,
00001000
00020000
00000000
00000000
01000000
00000000
00000000
10000000
00030000
00000000
00000000
00000000
00110000
00000000
00000000
00000000
,
00001000
00000000
00010000
00000000
00000100
00000010
00000100
00000000
,
00010000
00002000
00000000
00000000
00000100
00000000
00000000
00000001
00003000
00000000
00000000
00000000
00001010
00000000
00000000
00000000
,
00011000
00000000
00000000
00000000
01000000
00000000
00000000
00000000
00100000
00000000
00000000
00110000
00000000
00101000
00000000
00000000
,
00022000
00000000
00000000
00000000
,
00000000
00000000
00000000
00033000
;

//---------------dance-double - ----------------
#NOTES:
     dance-double:
     :
     Challenge:
     13:
     0.383852,0.414161,0.086059,0.420735,0.224710,281.000000,272.000000,9.000000,44.000000,184.000000,0.000000,0.383852,0.414161,0.086059,0.420735,0.224710,281.000000,272.000000,9.000000,44.000000,184.000000,0.000000:
00000000
00000000
00000000
00000000
,
00000000
00000000
00000000
00000000
,
00000000
00000000
00000000
00000000
,
00000000
00000000
00000000
00000000
,
00000000
00000000
00000000
00000000
,
00001000
00020000
00000000
00000000
01000000
00000000
00000000
10000000
00030000
00000000
00000000
00000000
MMMMMMMM
00000000
00000000
00000000
,
00001000
00000000
00010000
00000000
00000100
00000010
00000100
00000000
,
00010000
00002000
00000000
00000000
00000100
00000000
00000000
00000001
00003000
00000000
00000000
00000000
MMMMMMMM
00000000
00000000
00000000
,
00011000
00000000
00000000
00000000
01000000
00000000
00000000
00000000
00100000
00000000
00000000
00110000
00000000
00101000
00000000
00000000
,
00022000
00000000
00000000
00000000
,
00000000
00000000
00000000
00033000
,
00010000
00001000
00000001
00000200
00000000
00000001
00000000
00000001
,
00000000
00000010
00000000
00000010
00000000
00001000
00001000
00001000
,
00000000
00001000
00000000
00001000
00000000
00010000
00000000
00010000
,
00000000
00001000
00000000
00001000
00000000
00000010
00000300
00000010
,
00001000
00010000
10000000
02000000
00000000
10000000
00000000
10000000
,
00000000
00100000
00000000
00100000
00000000
00010000
00010000
00010000
,
00000000
00010000
00000000
00010000
00000000
00001000
00000000
00001000
,
00000000
00010000
00000000
00010000
00000000
00100000
03000000
00100000
,
MMMMMMMM
00000000
00020000
00000000
01000000
00000000
00000000
01000000
00030000
00000000
02000000
00000000
00001000
00000000
00000000
00001000
,
03000000
00000000
00002000
00000000
00010000
00000000
00000000
00010000
00003000
00000000
00010000
00000000
00000010
00000000
00000100
00000000
,
MMMMMMMM
00000000
00002000
00000000
00000100
00000000
00000000
00000100
00003000
00000000
00000200
00000000
00010000
00000000
00000000
00010000
,
00000300
00000000
00020000
00000000
00001000
00000000
00000000
00001000
00030000
00000000
00001000
00000000
00100000
00000000
01000000
00000000
,
MMMMMMMM
00000000
00020000
00000000
00100000
00000000
00000000
10000000
00030000
00000000
00200000
00000000
00001000
00000000
00000000
00010000
,
00300000
00000000
00002000
00000000
00010000
00000000
00000000
01000000
00003000
00000000
00010000
00000000
00000100
00000000
00000010
00000000
,
MMMMMMMM
00000000
00002000
00000000
00000010
00000000
00000000
00000100
00003000
00000000
00000020
00000000
00010000
00000000
00000000
00001000
,
00000030
00000000
00020000
00000000
00001000
00000000
00000000
00000010
00030000
00000000
00001000
00000000
01000000
00010000
00000000
02200000
,
00000000
00000000
00000000
03300000
,
00100000
10000000
MMMMMMMM
00010000
00001000
00000100
00000001
00000010
,
00001000
00000010
MMMMMMMM
00000100
00001000
00010000
00000010
00000000
,
00000100
00000001
MMMMMMMM
00001000
00010000
01000000
10000000
00100000
,
00010000
00100000
MMMMMMMM
01000000
00010000
00001000
00100000
00000000
,
00001000
00010000
MMMMMMMM
00001000
00010000
00100000
00001000
00010000
,
00100000
01000000
MMMMMMMM
00100000
01000000
10000000
01000000
00000000
,
00010000
00001000
MMMMMMMM
00010000
00001000
00000100
00010000
00001000
,
00000100
00000010
MMMMMMMM
00000100
00000010
00000001
00000100
00000000
,
00000010
00000000
00002000
00000000
00000001
00000000
00000000
00000100
00003000
00000000
00000100
00000000
00001000
00000000
00000000
00000000
,
00000100
00000000
00020000
00000000
00000010
00000000
00000000
00001000
00030000
00000000
00001000
00000000
MMMMMMMM
00000000
00000000
00000000
,
01000000
00000000
00200000
00000000
10000000
00000000
00000000
01000000
00300000
00000000
01000000
00000000
00001000
00000000
00000000
00000000
,
00010000
00000000
00000020
00000000
00001000
00000000
00000000
00000100
00000030
00000000
00000100
00000000
MMMMMMMM
00000000
00000000
00000000
,
00000010
00000000
00020000
00000000
00000100
00000000
00000000
00001000
00030000
00000000
00001000
00000000
00100000
00000000
00000000
00000000
,
01000000
00000000
20000000
00000000
00010000
00000000
00000000
01000000
30000000
00000000
01000000
00000000
MMMMMMMM
00000000
00000000
00000000
,
00100000
00000000
00002000
00000000
00010000
00000000
00000000
01000000
00003000
00000000
01000000
00000000
00010000
00000000
00000000
00000000
,
00001000
00000000
00000200
00000000
00000010
00000000
00000000
00010000
00000300
00000000
00010000
00000000
00000100
00000010
00000001
00000000
,
00000010
00000000
00000100
00000000
00000020
00000000
00000000
00000001
00000000
00000000
00000130
00000000
00020000
00000000
00000000
00000010
,
00000000
00000000
00031000
00000000
02000000
00000000
00000000
00100000
00000000
00000000
03010000
00000000
MMMMMMMM
00000000
00010000
00000000
,
01000000
00000000
00100000
00000000
02000000
00000000
00000000
00010000
00000000
00000000
03001000
00000000
00020000
00000000
00000000
00001000
,
00000000
00000000
00030100
00000000
00000020
00000000
00000000
00000001
00000000
00000000
00000130
00000000
MMMMMMMM
00000000
00001000
00000000
,
00100000
00000000
01000000
00000000
00200000
00000000
00000000
10000000
00000000
00000000
01300000
00000000
00020000
00000000
00000000
00001000
,
00000000
00000000
00030100
00000000
00000020
00000000
00000000
00000001
00000000
00000000
00000130
00000000
MMMMMMMM
00000000
00000001
00000000
,
00000100
00000000
00000010
00000000
00000200
00000000
00000000
00000001
00000000
00000000
00001300
00000000
00020000
00000000
00000000
00001000
,
00000000
00000000
01030000
00000000
00200000
00000000
00000000
10000000
00000000
00000000
01300000
00000000
MMMMMMMM
00000000
00001000
00000000
,
00001000
00020000
00000000
00000000
01000000
00000000
00000000
10000000
00030000
00000000
00000000
00000000
MMMMMMMM
00000000
00000000
00000000
,
00001000
00000000
00010000
00000000
00000100
00000010
00000100
00000000
,
00010000
00002000
00000000
00000000
00000100
00000000
00000000
00000001
00003000
00000000
00000000
00000000
MMMMMMMM
00000000
00000000
00000000
,
00011000
00000000
00000000
00000000
01000000
00000000
00000000
00000000
00100000
00000000
00000000
00110000
00000000
00101000
00000000
00000000
,
00022000
00000000
00000000
00000000
,
00000000
00000000
00000000
00033000
;

//---------------dance-single - Extreme----------------
#NOTES:
     dance-single:
     :
     Edit:
     13:
     0.573729,0.681303,0.124308,0.162557,0.592853,420.000000,407.000000,13.000000,17.000000,0.000000,0.000000,0.573729,0.681303,0.124308,0.162557,0.592853,420.000000,407.000000,13.000000,17.000000,0.000000,0.000000:
// measure 0
0000
0000
0000
0000
,  // measure 1
0000
0000
0000
0000
,  // measure 2
0000
0000
0000
0000
,  // measure 3
0000
0000
0000
0000
,  // measure 4
0000
0000
0000
0000
,  // measure 5
0010
1000
0000
0010
1000
0000
0010
1000
0010
0000
0100
0001
0100
0001
0000
0000
,  // measure 6
1000
0000
0010
0100
0010
0100
0000
0000
0001
0000
0010
1000
0010
0000
0001
0000
,  // measure 7
0100
0010
0000
1000
0010
0000
0100
0001
0000
0010
0100
0010
0100
0000
0001
0000
,  // measure 8
1000
0001
1000
0001
1000
0000
0010
0000
0100
0001
0100
0001
0000
1001
0000
0000
,  // measure 9
2020
0000
0000
0000
,  // measure 10
0000
0000
0000
3030
,  // measure 11
0001
0010
1000
0010
0000
0101
0000
1100
,  // measure 12
0000
0101
0000
0011
0000
0010
1000
0010
,  // measure 13
0001
0100
0010
1000
0010
0100
0000
0001
,  // measure 14
0000
0000
0010
0000
0001
0000
0000
0010
0000
0000
0100
0000
1000
0001
1000
0000
,  // measure 15
0010
0000
0001
0000
0010
0000
1000
0000
0001
0100
0000
0010
0100
0000
0010
1000
,  // measure 16
0000
0100
0010
0000
0001
0000
0100
0000
0001
1000
0001
0000
1000
0001
1000
0000
,  // measure 17
0010
0100
0010
0000
0100
0000
0001
0100
0000
0000
1000
0000
0100
0000
0000
0000
,  // measure 18
0001
0000
0010
0000
0001
0000
0000
0000
0100
0000
0010
1000
0000
0010
0100
0000
,  // measure 19
0001
0010
0001
0000
1000
0000
0001
0100
0000
0100
0000
0100
0020
0000
0000
1000
,  // measure 20
0000
0000
1030
0000
0002
0000
0000
0100
0000
0000
0103
0000
0010
1000
0010
0000
,  // measure 21
0100
0001
0100
0000
0002
0000
0000
1000
0000
0000
1003
0000
0010
1000
0000
0010
,  // measure 22
0000
0000
0100
0000
0002
0000
0000
0010
0000
0000
0013
0000
0100
1000
0100
0000
,  // measure 23
1000
0010
1000
0000
0002
0000
0000
0100
0000
0103
0000
0010
2000
0000
0000
0001
,  // measure 24
0000
0000
3100
0000
0020
0000
0000
0001
0000
0000
1030
0000
0100
0010
0100
0000
,  // measure 25
1000
0000
0001
0000
2000
0000
0000
0010
0000
0000
3100
0000
0002
0000
0000
0010
,  // measure 26
0000
0000
0103
0000
2000
0000
0000
0010
0000
0000
3100
0000
0001
0010
0000
2002
,  // measure 27
0000
0000
0000
3003
,  // measure 28
0001
0100
0001
0000
0010
0000
0000
1000
0000
0010
0000
0001
0100
0000
0010
0000
,  // measure 29
1000
0000
0100
0000
0001
0000
0100
0000
1000
0000
0010
0000
0100
0001
0100
0000
,  // measure 30
0001
0010
0001
0000
0010
0000
0100
1000
0000
0010
0000
1000
0100
0000
0000
0010
,  // measure 31
0001
0000
0100
0000
0010
0000
0000
0010
1000
0000
0001
0000
1000
0100
1000
0000
,  // measure 32
0001
1000
0001
0000
0100
0000
0010
1000
0000
0001
1000
0000
0020
0000
0000
0000
,  // measure 33
0130
0000
0001
0000
0010
0000
0000
0000
0001
0000
1000
0000
0010
0100
0010
0000
,  // measure 34
0100
0001
0100
0000
0001
0000
0000
0011
0000
0010
0000
0100
1000
0000
0000
1001
,  // measure 35
0000
0000
0001
0000
0100
0000
0000
0000
0010
0000
1000
0000
0100
0001
0100
0000
,  // measure 36
1000
0010
1000
0000
0001
0000
0100
0010
0000
1000
0000
0010
0100
0000
0000
0100
,  // measure 37
0001
0000
0010
0000
0001
0000
0000
1000
0100
0000
1000
0000
0001
0100
0001
0000
,  // measure 38
0100
0010
0100
0000
0010
0000
1000
0100
0000
0010
0000
0001
0010
0000
0000
0001
,  // measure 39
0100
0000
0010
0000
1000
0000
0100
0000
1000
0000
0010
0000
0100
0001
0100
0000
,  // measure 40
0001
0010
0100
0000
1000
0000
0001
0000
1000
0000
0010
0000
1000
0000
0000
0000
,  // measure 41
0100
0000
0001
0000
0100
0000
0000
0000
1000
0000
0001
0000
0010
0100
0010
0000
,  // measure 42
0100
1000
0100
0000
1000
0000
0001
1000
0000
0001
0000
1000
0001
0000
0000
0000
,  // measure 43
0100
0000
0010
0000
1010
0000
0000
0000
0001
0000
0100
0000
0010
1000
0010
0000
,  // measure 44
0100
0001
0100
0000
0001
0000
0010
0100
0000
0100
0000
0100
1000
0000
0000
1000
,  // measure 45
0001
0000
0010
0000
0001
0000
0100
0000
0010
0000
1000
0000
0010
0100
0010
0000
,  // measure 46
0100
0010
0100
0000
0001
0000
0010
0001
0000
0001
0000
0010
0001
0000
0000
0000
,  // measure 47
0010
1000
0010
0000
0001
0100
1000
0100
,  // measure 48
0001
1000
0001
0000
1000
0000
0000
0010
0000
0100
0000
0010
1000
0000
0000
0000
,  // measure 49
0001
0000
0010
0000
1000
0000
0000
0000
0001
0000
0010
0000
0100
1000
0100
0000
,  // measure 50
0010
0000
0010
0000
0010
0000
0001
0100
0000
0010
0000
0100
1000
0000
0000
0000
,  // measure 51
0100
0000
0010
0000
1000
0000
0000
0000
0001
0000
0010
0000
0001
0100
0001
0000
,  // measure 52
1000
0010
0000
0010
0100
0000
0001
0010
0000
0000
0001
0000
0100
0000
0000
0000
,  // measure 53
0010
1000
0100
0000
1000
0001
0010
0001
,  // measure 54
0100
0010
0000
1000
0010
0000
1000
0010
0000
0000
0100
0000
0001
0000
0010
0000
,  // measure 55
0000
0000
0001
0000
0100
0000
0010
0000
0100
0000
0000
1001
0000
1001
0000
0000
,  // measure 56
0220
0000
0000
0000
,  // measure 57
0330
0000
0000
0000
;
