#TITLE:Fly far bounce;
#SUBTITLE:;
#ARTIST:猫叉Master;
#TITLETRANSLIT:;
#SUBTITLETRANSLIT:;
#ARTISTTRANSLIT:Nekomata Master;
#GENRE:;
#CREDIT:;
#BANNER:Fly far bounce.png;
#BACKGROUND:Fly far bounce-bg.png;
#LYRICSPATH:;
#CDTITLE:;
#MUSIC:Fly far bounce.ogg;
#OFFSET:0.000000;
#SAMPLESTART:73.251999;
#SAMPLELENGTH:15.000000;
#SELECTABLE:YES;
#DISPLAYBPM:163.000000;
#BPMS:0.000000=163.000000
,257.000000=138.000000
,258.000000=128.000000
,259.000000=100.000000
,260.000000=159.000000
;
#STOPS:
;
#BGCHANGES:;
#KEYSOUNDS:;
#ATTACKS:;

//---------------dance-single - ----------------
#NOTES:
     dance-single:
     :
     Challenge:
     15:
     0.683792,0.808538,0.240251,0.073923,0.341896,518.000000,492.000000,26.000000,8.000000,0.000000,0.000000,0.683792,0.808538,0.240251,0.073923,0.341896,518.000000,492.000000,26.000000,8.000000,0.000000,0.000000:
// measure 0
0000
0000
0000
0000
,  // measure 1
0000
0000
0000
0000
,  // measure 2
0000
0000
0000
0000
,  // measure 3
0000
0000
0000
0000
,  // measure 4
0000
0000
0000
0000
,  // measure 5
0000
0000
0000
0000
,  // measure 6
0011
0000
0010
1000
0000
0000
0010
0001
,  // measure 7
0000
0000
0000
0000
0010
0000
0100
0000
0000
0000
0000
0000
1000
0100
1000
0100
,  // measure 8
0010
0000
0001
0000
0100
0000
0010
0000
1000
0001
1000
0000
0010
0000
0000
0000
,  // measure 9
0100
0000
0000
0000
0100
0000
0000
0000
1001
0000
0000
0000
0001
0010
0001
0000
,  // measure 10
0101
0000
1000
0010
0001
0010
1000
0100
,  // measure 11
0001
0000
0000
0000
0100
0000
1000
0000
0010
0000
0001
0000
1000
0100
1000
0100
,  // measure 12
0001
0000
0010
0000
1000
0000
0010
0000
0001
0100
0001
0000
1000
0000
0000
0000
,  // measure 13
0010
0000
0100
0010
0100
0000
0001
0000
1000
0000
0100
0000
0001
0000
0100
0000
,  // measure 14
1000
0000
0001
0000
0100
0000
0001
0000
0000
0000
0010
0000
0001
0100
0001
0000
,  // measure 15
1000
0000
0010
0000
1000
0100
1000
0000
0010
0000
0100
0000
0001
0010
0100
0010
,  // measure 16
0001
0000
1000
0000
0001
0000
0100
0000
0010
1000
0100
0000
0020
0000
0000
0000
,  // measure 17
0031
0000
0000
0000
0011
0000
0000
0000
0010
0100
0010
0000
1100
0000
0000
0000
,  // measure 18
1000
0100
0010
0100
0001
0100
0010
0100
,  // measure 19
0001
0100
0010
0100
1000
0000
0001
0000
,  // measure 20
0100
0010
1000
0010
0100
0001
0010
0010
,  // measure 21
0010
0100
1000
0001
0101
0110
1010
0000
,  // measure 22
1000
1000
0010
0100
0001
0010
1000
0010
,  // measure 23
0001
0100
1000
0100
0001
0000
1001
0000
,  // measure 24
1000
0010
0001
0010
1000
0100
0001
0100
,  // measure 25
1000
0000
0100
0000
0010
0000
0001
0000
0100
0000
0000
0000
0010
1000
0010
0000
,  // measure 26
2000
0000
0000
0000
3100
0000
0010
0001
0100
0000
0010
0000
1000
0000
0010
0000
,  // measure 27
0000
0100
0001
0010
0100
0100
1000
1000
,  // measure 28
1001
0000
0001
0001
0010
1000
0010
0001
,  // measure 29
0200
0300
2001
3001
,  // measure 30
0101
0000
0000
0000
0100
0000
0010
1000
0010
0000
0100
0000
0001
0000
0000
0000
,  // measure 31
0010
0100
1000
0100
0010
0001
0100
0010
,  // measure 32
1010
0000
0000
0000
1100
0000
0100
0000
0110
0000
0010
0000
0001
0000
0100
0001
,  // measure 33
0100
0000
0000
0100
0010
0000
0000
0010
1000
0000
0000
1000
0001
0000
0000
0000
,  // measure 34
0101
0000
0000
0000
0100
0000
0010
1000
0100
0000
0010
0000
0001
0000
0000
0000
,  // measure 35
0100
0010
1000
0100
0001
0100
1000
0010
,  // measure 36
0002
0000
0013
1000
0001
0001
0100
0000
,  // measure 37
1020
0000
1030
0000
1001
1000
0010
0010
,  // measure 38
0100
0000
0100
0000
0001
0000
0010
0100
1000
0000
0010
0000
0100
0000
0001
0000
,  // measure 39
0010
0000
0010
0000
0100
0000
0100
0000
1000
0000
0100
0000
0001
0010
0001
0000
,  // measure 40
0200
0000
0000
0000
1300
0000
0010
0000
0001
0010
0001
0000
0010
0000
1000
0000
,  // measure 41
0100
0010
0000
0000
0010
0001
0000
0000
0001
1000
0000
0000
1010
0000
0000
0000
,  // measure 42
0110
0000
0000
0000
0100
0000
0001
0000
0010
0000
0100
0000
1000
0000
0001
0100
,  // measure 43
0001
0000
1000
0000
0010
0000
0100
0000
0010
0000
1000
0000
1000
0000
0001
0010
,  // measure 44
0001
0100
1000
0100
0001
0001
1000
0010
,  // measure 45
0100
0000
0000
0000
0010
0000
1000
0000
0100
0010
0001
0000
0100
0010
1000
0010
,  // measure 46
0100
0000
0000
0000
0001
0000
0010
0000
1010
0000
0000
0000
0010
0000
0001
0100
,  // measure 47
0001
0000
0010
0000
0001
0000
0100
0000
0010
0000
0010
0000
1010
0000
1000
0100
,  // measure 48
1000
0001
0010
0001
0100
0100
0100
0000
,  // measure 49
1001
0000
0001
0100
0001
0000
0100
0000
0010
1000
0010
0000
0100
0001
1000
0000
,  // measure 50
1001
0000
0000
0000
0010
0000
0100
0000
0001
0000
0010
0100
1000
0000
0001
0000
,  // measure 51
0100
0000
0010
0100
0001
0000
0010
0000
0001
0000
1000
0000
0010
0100
0001
0100
,  // measure 52
0010
0000
0010
0000
1000
0000
0100
0000
0001
0010
0001
0000
0100
0000
0100
0000
,  // measure 53
1000
0000
1000
0000
0001
0000
0100
0001
0100
0000
0010
0000
1000
0000
0100
0000
,  // measure 54
0010
0000
1000
0000
0010
0001
1000
0000
0010
0000
0100
0000
0001
1000
0001
0000
,  // measure 55
0100
0000
0010
1000
0010
0000
0100
0000
0001
0010
0001
0000
0100
0010
0100
0000
,  // measure 56
0010
0000
1000
0000
0100
0000
0010
0000
0001
0100
0001
0000
1001
0000
0000
0000
,  // measure 57
1000
0100
0010
0001
0010
1000
0010
0001
0100
1000
0100
0001
,  // measure 58
0010
0100
1000
0000
0010
0000
0100
0001
0010
0001
1000
0000
0001
0010
0001
0000
,  // measure 59
0100
0010
0100
0000
0010
1000
0010
0000
1000
0001
1000
0000
0001
0100
0001
0000
,  // measure 60
0010
0000
0000
1000
0000
0000
0010
0000
0000
0001
0000
0000
0100
0000
1000
0000
0100
0000
0001
0000
0000
0000
0000
0000
,  // measure 61
1001
0000
0000
0000
1000
0000
0001
0010
0001
0010
0001
0000
0100
0010
0100
0010
,  // measure 62
0100
0000
0001
0010
1000
0010
0001
0100
,  // measure 63
1000
0100
0001
0010
0100
1000
0100
0000
,  // measure 64
0010
0000
0000
0001
0000
0000
0100
0000
0000
0010
0000
0000
1000
0010
1000
0000
0000
0000
0001
0000
0000
0000
0000
0000
,  // measure 65
0100
0001
0100
0001
0100
0001
0100
0001
,  // measure 66
0100
0001
0100
0001
0100
0001
2000
0000
,  // measure 67
0000
0000
0000
0000
,  // measure 68
0000
0000
0000
0000
,  // measure 69
0000
0000
0000
0000
,  // measure 70
3000
0000
0000
0000
;

//---------------dance-single - ----------------
#NOTES:
     dance-single:
     :
     Beginner:
     3:
     0.126726,0.193356,0.000000,0.018481,0.000000,96.000000,96.000000,0.000000,2.000000,0.000000,0.000000,0.126726,0.193356,0.000000,0.018481,0.000000,96.000000,96.000000,0.000000,2.000000,0.000000,0.000000:
0000
0000
0000
0000
,
0000
0000
0000
0000
,
0000
0000
0000
0000
,
0000
0000
0000
0000
,
0000
0000
0000
0000
,
0000
0000
0000
0000
,
1000
0000
0001
0000
,
0010
0000
0000
0000
,
1000
0000
0010
0010
,
0000
0000
0000
0000
,
0001
0000
1000
0000
,
0010
0000
1000
0000
,
0001
0000
0010
0010
,
0000
0000
0000
0000
,
1000
0000
0001
0000
,
0010
0000
0001
0000
,
1000
0000
1000
1000
,
0000
0000
0000
0000
,
1000
0000
0001
0000
,
1000
0000
0001
0000
,
0010
0010
0010
0000
,
0100
0000
0100
0000
,
0001
0000
1000
0000
,
0001
0000
1000
0000
,
0010
0010
0010
0000
,
1000
0000
1000
0000
,
0200
0000
0000
0300
,
0000
0000
0000
0000
,
0000
0000
0000
0000
,
0000
0000
0000
0000
,
1000
0000
0000
0000
,
0010
0000
0000
0000
,
0001
0000
0000
0000
,
0010
0010
0010
0000
,
1000
0000
1000
0000
,
0001
0000
0000
0000
,
1000
0000
0100
0000
,
0010
0000
0001
0000
,
0001
0000
0001
0000
,
1000
0000
0000
0000
,
0001
0000
0100
0000
,
0010
0000
1000
0000
,
0010
0000
0000
0000
,
0100
0000
0000
0000
,
0001
0000
0000
0000
,
1000
0000
0000
0000
,
1000
0000
1000
0000
,
0001
0000
0001
0000
,
1000
0000
1000
0000
,
0010
0000
0000
0000
,
1000
0000
0001
0000
,
0010
0000
0000
0000
,
0001
0000
0100
0100
,
0000
0000
0000
0000
,
0001
0000
1000
0000
,
0010
0000
1000
0000
,
0001
0000
0010
0010
,
0000
0000
0000
0000
,
0000
0001
0000
1000
,
0000
0001
0000
1000
,
1000
0000
0010
0010
,
0000
0000
0000
0000
,
0010
0000
0010
0000
,
1000
0000
0010
0010
,
0020
0000
0000
0000
,
0000
0000
0000
0000
,
0000
0000
0000
0000
,
0000
0000
0000
0000
,
0000
0000
0000
0000
,
0000
0000
0000
0030
;

//---------------dance-single - ----------------
#NOTES:
     dance-single:
     :
     Easy:
     6:
     0.221770,0.354486,0.055443,0.036962,0.000000,168.000000,162.000000,6.000000,4.000000,0.000000,0.000000,0.221770,0.354486,0.055443,0.036962,0.000000,168.000000,162.000000,6.000000,4.000000,0.000000,0.000000:
0000
0000
0000
0000
,
0000
0000
0000
0000
,
0000
0000
0000
0000
,
0000
0000
0000
0000
,
0000
0000
0000
0000
,
0000
0000
0000
0000
,
1000
0000
0001
0000
,
0010
0000
0001
0000
,
1000
0100
0010
0100
,
0000
0000
0010
0001
,
0001
0000
1000
0000
,
0010
0000
1000
0000
,
0001
0100
0010
0100
,
0000
0000
0010
1000
,
1000
1000
0001
0000
,
0010
0010
0001
0000
,
1000
0100
0010
0100
,
0000
0000
0110
1001
,
1000
1000
0001
0001
,
1000
0001
0001
0000
,
0010
0001
0010
1000
,
0010
0001
0100
0100
,
0001
0001
1000
1000
,
0001
1000
1000
0000
,
0010
1000
0010
0001
,
0010
1000
0100
0100
,
0220
0000
0000
0330
,
0000
0000
0000
0000
,
0000
0000
0000
0000
,
0000
0000
0010
0100
,
1001
0000
0001
0000
,
1000
0000
0100
0000
,
0001
0100
0010
0000
,
0001
0100
0010
1000
,
1000
0001
1000
1000
,
0001
0010
0100
1000
,
1000
0000
0100
0000
,
0010
0000
0001
0000
,
0001
1000
0001
0000
,
1000
0100
0001
0100
,
1000
0000
0001
0000
,
1000
0100
1000
0100
,
0010
0000
0000
0000
,
0100
0000
0000
0000
,
1000
0000
0000
0000
,
0001
0000
0001
0001
,
0001
0000
1000
0000
,
0100
0000
0001
0000
,
0100
0000
1000
0000
,
0010
0000
0001
0010
,
1000
0000
0001
0001
,
0010
0010
0001
0000
,
1000
0100
0010
0100
,
0000
0000
0010
0001
,
0001
0001
1000
0000
,
0010
0010
1000
0000
,
0001
0100
0010
0100
,
0000
0000
0110
1001
,
0001
0001
1000
1000
,
0001
1000
1000
0000
,
0010
1000
0010
0001
,
0010
1000
0100
0100
,
1000
0000
0001
0000
,
1000
0000
1000
0000
,
0001
0000
0000
0020
,
0000
0000
0000
0000
,
0000
0000
0000
0230
,
0000
0000
0000
0000
,
0000
0000
0000
0000
,
0000
0000
0000
0300
;

//---------------dance-single - ----------------
#NOTES:
     dance-single:
     :
     Medium:
     10:
     0.326055,0.451164,0.101645,0.036962,0.000000,247.000000,236.000000,11.000000,4.000000,0.000000,0.000000,0.326055,0.451164,0.101645,0.036962,0.000000,247.000000,236.000000,11.000000,4.000000,0.000000,0.000000:
0000
0000
0000
0000
,
0000
0000
0000
0000
,
0000
0000
0000
0000
,
0000
0000
0000
0000
,
0000
0000
0000
0000
,
0000
0000
0000
0000
,
1000
0000
0000
0010
0000
0000
0000
0001
,
0000
0000
0000
0010
0000
0000
0000
0000
,
1000
0100
1000
0100
1000
0100
1000
0000
,
0000
0000
0110
1001
,
0001
0000
0000
0010
0000
0000
0000
1000
,
0000
0000
0000
0010
0000
0000
0000
0000
,
0001
0100
0001
0100
0001
0100
0001
0000
,
0000
0000
0000
0000
1000
0001
1000
0001
,
1000
0100
1000
0010
0000
0000
0000
0001
,
0000
0000
0000
0010
0000
0000
0000
0000
,
1000
0100
1000
0100
1000
0100
1000
0000
,
0000
0000
0001
1000
,
0001
0010
1000
0010
,
0001
0100
1000
0100
,
0001
0010
0001
0000
0100
1000
0100
0000
,
0001
0000
1000
0000
0001
0010
0001
0000
,
1000
0010
0001
0010
,
1000
0100
0001
0100
,
1000
0000
1000
0010
1000
0010
0100
0010
,
1000
0100
1000
0000
0010
0000
0010
0000
,
0220
0000
0000
0000
,
0000
0000
0000
0330
,
0000
0000
0000
0000
,
0000
0000
0000
0000
0000
0000
0000
0010
,
0110
0000
0001
0000
,
0010
0000
0100
0000
,
1000
0100
1000
0000
0100
0000
0010
0000
,
0011
0110
1100
1001
,
0001
0010
0001
0000
1000
0000
0100
0000
,
1000
0000
0100
0000
0010
0001
0010
0000
,
0001
0010
0001
0000
1000
0100
1000
0000
,
1000
1000
0001
1100
,
1000
0010
1000
0000
0001
0000
0100
0000
,
0001
0000
0100
0000
0010
1000
0010
0000
,
1000
0010
1000
0000
0001
0100
0001
0000
,
0001
1100
1000
0101
,
0001
0000
0000
0010
0000
0000
0100
0000
,
1000
0000
0000
0100
0000
0010
0001
0000
,
0100
0000
0000
1000
0000
0000
0100
0000
,
0001
0010
0100
0010
,
0001
0000
0000
0010
0000
0000
0100
0000
,
1000
0000
0000
0100
0000
0010
0001
0000
,
0100
0000
0000
1000
0000
0000
0100
0000
,
0001
0010
1000
0010
,
0001
0000
1000
0010
0000
0000
1000
0100
,
0000
0000
0100
0010
0000
0000
0001
0000
,
0001
0100
0001
0100
0001
0100
0001
0000
,
0000
0000
0000
0000
1000
0100
1000
0000
,
1000
0000
0001
0010
0000
0000
0001
0100
,
0000
0000
0100
0010
0000
0000
1000
0000
,
1000
0100
1000
0100
1000
0100
1000
0000
,
0000
0000
0000
0000
1000
0100
1000
0000
,
0001
0010
1000
0010
,
0001
0100
1000
0100
,
0001
0010
0001
0000
0100
1000
0100
0000
,
0001
0000
1000
0000
0001
0010
0001
0000
,
1000
0010
0001
0010
,
1000
0100
0001
0100
,
1000
0010
1000
0010
0100
0001
0200
0000
,
0000
0000
0000
0000
,
0000
0000
0000
0320
,
0000
0000
0000
0000
,
0000
0000
0000
0000
,
0000
0000
0000
0030
;

//---------------dance-single - ----------------
#NOTES:
     dance-single:
     :
     Hard:
     13:
     0.542546,0.676746,0.240251,0.055443,0.124746,411.000000,385.000000,26.000000,6.000000,0.000000,0.000000,0.542546,0.676746,0.240251,0.055443,0.124746,411.000000,385.000000,26.000000,6.000000,0.000000,0.000000:
// measure 0
0000
0000
0000
0000
,  // measure 1
0000
0000
0000
0000
,  // measure 2
0000
0000
0000
0000
,  // measure 3
0000
0000
0000
0000
,  // measure 4
0000
0000
0000
0000
,  // measure 5
0000
0000
0000
0000
,  // measure 6
1000
0000
1000
0001
0000
0000
0001
0010
,  // measure 7
0000
0000
0010
0001
0000
0000
0100
1000
,  // measure 8
0100
0001
0010
0100
1000
0100
0010
0000
,  // measure 9
0100
0100
0110
1001
,  // measure 10
0001
0000
0001
1000
0000
0000
1000
0010
,  // measure 11
0000
0000
0000
0000
0010
0000
1000
0000
0000
0000
0000
0000
0010
1000
0010
1000
,  // measure 12
0010
1000
0010
0100
0001
0100
0010
0000
,  // measure 13
0100
0000
0100
0000
0001
0010
0100
1000
,  // measure 14
0100
0010
1000
0010
0000
0000
0001
0010
,  // measure 15
0000
0000
0000
0000
0010
0000
0001
0000
0000
0000
0000
0000
0010
0001
0010
0001
,  // measure 16
0010
0001
0010
0100
1000
0100
0010
0000
,  // measure 17
0100
0100
0110
1001
,  // measure 18
0001
0010
0001
1000
0100
1000
0100
0010
,  // measure 19
0001
0010
0100
0010
0001
0000
1000
0000
,  // measure 20
0001
0010
0001
1000
0100
1000
0010
0001
,  // measure 21
0010
0100
0001
1000
1100
0101
1100
0000
,  // measure 22
1000
0010
1000
0001
0100
0001
0100
0010
,  // measure 23
1000
0010
0100
0010
1000
0000
0001
0000
,  // measure 24
1000
0010
1000
0001
0100
0001
0010
1000
,  // measure 25
0010
0100
1000
0000
0011
0000
1100
0000
,  // measure 26
0200
1000
0010
0001
,  // measure 27
0010
1000
0010
0310
,  // measure 28
0011
0000
1100
0000
0001
0100
0100
0000
,  // measure 29
1001
0000
0020
0130
,  // measure 30
0001
0000
0000
0000
1000
0001
1000
0000
,  // measure 31
0010
0001
0010
0000
1000
0100
0001
0000
,  // measure 32
0100
0010
0100
1000
0001
0100
0001
0010
,  // measure 33
0001
0101
1100
1010
,  // measure 34
0001
0000
1000
0100
1100
1000
0100
0000
,  // measure 35
1000
0100
0001
0100
0010
0001
0100
1000
,  // measure 36
0100
0000
0010
1000
0100
1000
1000
0100
,  // measure 37
1000
0100
0010
0001
0110
0000
1001
0000
,  // measure 38
0001
0010
1000
0010
0011
0010
0001
0100
,  // measure 39
0001
1000
0001
1000
0010
0100
0110
0000
,  // measure 40
1000
0000
0100
0010
0001
0010
0001
1000
,  // measure 41
1100
0110
0011
1001
,  // measure 42
1000
0000
0000
0000
0001
0000
0010
0000
0001
0000
0000
0000
0000
0000
0001
0010
,  // measure 43
0001
0000
0100
0000
0010
0000
0100
0000
1000
0000
0000
0000
0000
0000
0100
0010
,  // measure 44
0100
0001
0010
1000
0010
0010
0001
1000
,  // measure 45
0200
0000
0000
0000
0000
0000
0000
0000
0310
0000
0000
0000
0001
0010
0001
0010
,  // measure 46
0001
0000
0000
0000
1000
0000
0010
0000
1000
0000
0000
0000
0000
0000
1000
0010
,  // measure 47
1000
0000
0100
0000
0010
0000
0100
0000
1000
0000
0000
0000
0000
0000
0001
0010
,  // measure 48
0001
1000
0010
0001
0010
0000
1000
0000
,  // measure 49
0200
0000
0000
0310
0000
0000
0001
1000
,  // measure 50
1100
0000
0000
0000
1000
0000
0001
0000
1000
0000
0010
0100
0010
0000
0001
0000
,  // measure 51
0000
0000
0010
0100
0010
0000
1000
0000
0100
0000
0010
0000
0100
0000
1000
0000
,  // measure 52
0100
1000
0001
0100
0001
0010
0100
0000
,  // measure 53
0100
0000
0000
0000
0100
0000
1000
0100
1000
0000
0010
0000
0100
0000
0001
0000
,  // measure 54
0001
0000
0000
0000
0001
0000
1000
0000
0001
0000
0010
0100
0010
0000
1000
0000
,  // measure 55
0000
0000
0010
0100
0010
0000
0001
0000
0100
0000
0010
0000
0100
0010
0100
0000
,  // measure 56
1000
0100
0010
0001
0010
1000
1001
0000
,  // measure 57
0001
0000
0000
1000
0000
0000
0001
0010
0100
1000
0010
0100
,  // measure 58
0001
1000
0100
0000
1000
0000
0100
0000
0010
0100
1000
0000
0100
0000
0001
0000
,  // measure 59
0100
1000
0001
0100
1000
0100
0010
0001
,  // measure 60
0010
0000
0000
1000
0000
0000
0100
0000
0000
0010
0000
0000
0001
0000
1000
0000
0001
0000
0100
0000
0000
0000
0000
0000
,  // measure 61
0100
0000
0000
0000
0001
0000
1000
0100
1000
0000
0100
0000
0010
0001
0010
0001
,  // measure 62
1000
0000
0001
1000
0100
0001
0100
1000
,  // measure 63
0010
0001
0010
1000
0001
0100
1000
0000
,  // measure 64
0100
0010
0001
1000
0100
1000
0020
0000
,  // measure 65
0000
0000
0000
0000
,  // measure 66
0000
0000
0000
0000
0000
0030
0002
0000
,  // measure 67
0000
0000
0000
0000
,  // measure 68
0000
0000
0000
0000
,  // measure 69
0000
0000
0000
0003
;

//---------------dance-double - ----------------
#NOTES:
     dance-double:
     :
     Easy:
     6:
     0.224411,0.354486,0.073923,0.073923,0.000000,170.000000,162.000000,8.000000,8.000000,0.000000,0.000000,0.224411,0.354486,0.073923,0.073923,0.000000,170.000000,162.000000,8.000000,8.000000,0.000000,0.000000:
00000000
00000000
00000000
00000000
,
00000000
00000000
00000000
00000000
,
00000000
00000000
00000000
00000000
,
00000000
00000000
00000000
00000000
,
00000000
00000000
00000000
00000000
,
00000000
00000000
00000000
00000000
,
10000000
00000000
00010000
00000000
,
00001000
00000000
00000001
00000000
,
00001000
00000100
00000010
00000100
,
00000000
00000000
00000010
00001000
,
00010000
00000000
00100000
00000000
,
10000000
00000000
10000000
00000000
,
00010000
01000000
00100000
01000000
,
00000000
00000000
00100000
00010000
,
00001000
00010000
00000000
00000100
,
00001000
00000100
00000001
00000000
,
00000100
00000010
00001000
00010000
,
00000000
00000000
00110000
10010000
,
10000000
01000000
00010000
00001000
,
00000010
00000001
00000001
00000000
,
00000010
00000001
00000010
00001000
,
00000010
00000001
00000100
00001000
,
00010000
00010000
00001000
00001000
,
00010000
01000000
10000000
00000000
,
00100000
10000000
00100000
00010000
,
00100000
10000000
01000000
00010000
,
00022000
00000000
00000000
00033000
,
00000000
00000000
00000000
00000000
,
00000000
00000000
00000000
00000000
,
00000000
00000000
00001000
00000100
,
00000101
00000000
00001000
00000000
,
00010000
00000000
01000000
00000000
,
10000000
01000000
00010000
00000000
,
00001000
00000100
00000010
00001001
,
00001000
00000001
00001000
00001000
,
00000001
00000010
00001000
00010000
,
01000000
00000000
00100000
00000000
,
00001000
00000000
00010000
00000000
,
00000100
00001000
00000001
00000000
,
00001000
00000100
00000001
00000100
,
00000010
00000000
00001000
00000000
,
00010000
01000000
10000000
01000000
,
00200000
00000000
00000000
00000000
,
02300000
00000000
00000000
00000000
,
03020000
00000000
00000000
00000000
,
00032000
00000000
00000100
00003100
,
00000101
00000000
00001000
00000000
,
00000001
00000000
00000100
00000000
,
00001000
00000000
00010000
00000000
,
00100000
00000000
00010000
00100000
,
10000000
00000000
00010000
00010000
,
00100000
00100000
00001000
00000000
,
00010000
00001000
00000010
00000100
,
00000000
00000000
00000001
00000100
,
00000010
00001000
00010000
00000000
,
00100000
00100000
10000000
00000000
,
00010000
01000000
00100000
00010000
,
00000000
00000000
00011000
00000110
,
00000001
00000001
00001000
00001000
,
00000010
00000100
00001000
00000000
,
00100000
10000000
00100000
00010000
,
01000000
10000000
01000000
01000000
,
00100000
00000000
00010000
00000000
,
00001000
00000000
00000100
00000000
,
00000001
00000000
00000000
00000020
,
00000000
00000000
00000000
00000000
,
00000000
00000000
00000000
00002030
,
00000000
00000000
00000000
00000000
,
00000000
00000000
00000000
00000000
,
00000000
00000000
00000000
00003000
;

//---------------dance-double - ----------------
#NOTES:
     dance-double:
     :
     Medium:
     10:
     0.339256,0.483390,0.203290,0.036962,0.000000,257.000000,235.000000,22.000000,4.000000,0.000000,0.000000,0.339256,0.483390,0.203290,0.036962,0.000000,257.000000,235.000000,22.000000,4.000000,0.000000,0.000000:
00000000
00000000
00000000
00000000
,
00000000
00000000
00000000
00000000
,
00000000
00000000
00000000
00000000
,
00000000
00000000
00000000
00000000
,
00000000
00000000
00000000
00000000
,
00000000
00000000
00000000
00000000
,
10000000
00000000
00000000
00100000
00000000
00000000
00000000
00010000
,
00000000
00000000
00000000
00001000
00000000
00000000
00000000
00000000
,
00001000
00010000
00001000
00010000
00001000
00010000
00001000
00000000
,
00000000
00000000
00000110
00001001
,
00000001
00000000
00000000
00000010
00000000
00000000
00000000
00001000
,
00000000
00000000
00000000
00010000
00000000
00000000
00000000
00000000
,
01000000
00100000
01000000
00100000
01000000
00100000
01000000
00000000
,
00000000
00000000
01000000
10000000
,
10000000
01000000
10000000
00100000
00000000
00000000
00000000
00010000
,
00000000
00000000
00000000
00001000
00000000
00000000
00000110
00000000
,
00000001
00000100
00000001
00000100
00000001
00000100
00000001
00000000
,
00000000
00000000
00000101
00001100
,
00010000
00100000
10000000
00100000
,
00010000
00100000
10000000
01000000
,
00010000
00001000
00010000
00000000
00000100
00001000
00000100
00000000
,
00001000
00000000
00000001
00000000
00000100
00001000
00010000
00000000
,
00001000
00100000
00010000
00100000
,
10000000
00100000
00010000
01000000
,
10000000
00000000
01000000
00100000
10000000
00100000
01000000
00100000
,
10000000
01000000
00010000
00000000
00001000
00000000
00010000
00000000
,
00022000
00000000
00000000
00000000
,
00000000
00000000
00000000
00033000
,
00000000
00000000
00000000
00000000
,
00000000
00000000
00000000
00000000
00000000
00000000
00000000
00000010
,
00000110
00000000
00000001
00000000
,
00000010
00000000
00001000
00000000
,
00010000
00100000
10000000
00000000
01000000
00000000
00100000
00000000
,
01100000
00110000
00011000
00011000
,
00010000
00000010
00010000
00000000
00001000
00000000
00000100
00000000
,
00001000
00000000
00000100
00000000
00000010
00000001
00000010
00000000
,
00000100
00001000
00010000
00000000
00010000
01000000
10000000
00000000
,
10000000
10000000
00010000
11000000
,
10000000
00100000
10000000
00000000
00010000
00000000
01000000
00000000
,
00001000
00000000
00010000
00000000
00000010
00001000
00000010
00000000
,
00001000
00000010
00001000
00000000
00000001
00000100
00000001
00000000
,
00000011
00000110
00001100
00011000
,
00010000
00000000
00000000
00100000
00000000
00000000
01000000
00000000
,
10000000
00000000
00000000
01000000
00000000
00100000
00010000
00000000
,
00001000
00000000
00000000
00001000
00000000
00000000
00000100
00000000
,
00000001
00000000
00000100
00000010
,
00000001
00000000
00000000
00000010
00000000
00000000
00000100
00000000
,
00001000
00000000
00000000
00010000
00000000
00100000
10000000
00000000
,
01000000
00000000
00000000
10000000
00000000
00000000
01000000
00000000
,
00010000
01000000
10000000
00100000
,
00010000
00000000
00010000
00001000
00000000
00000000
00001000
00000100
,
00000000
00000000
00000100
00000001
00000000
00000000
00000001
00000000
,
00000001
00000100
00000001
00000100
00000001
00000100
00000001
00000000
,
00000000
00000000
00000000
00000000
00000100
00001000
00010000
00000000
,
00001000
00000000
00001000
00010000
00000000
00000000
00010000
01000000
,
00000000
00000000
01000000
10000000
00000000
00000000
10000000
00000000
,
10000000
01000000
10000000
01000000
10000000
01000000
10000000
00000000
,
01000000
00010000
00011000
00000110
,
00000001
00000010
00001000
00000010
,
00000001
00000100
00001000
00000100
,
00001000
00010000
00100000
00000000
01000000
10000000
01000000
00000000
,
00010000
00000000
10000000
00000000
00010000
00100000
00010000
00000000
,
11000000
00100000
00110000
00001000
,
00011000
00000100
00000011
00000001
,
00001000
00000010
00001000
00000010
00000100
00000001
00000200
00000000
,
00000000
00000000
00000000
00000000
,
00000000
00000000
00000000
00002300
,
00000000
00000000
00000000
00000000
,
00000000
00000000
00000000
00000000
,
00000000
00000000
00000000
00003000
;

//---------------dance-double - ----------------
#NOTES:
     dance-double:
     :
     Hard:
     13:
     0.538585,0.676746,0.194049,0.083164,0.133986,408.000000,387.000000,21.000000,9.000000,0.000000,0.000000,0.538585,0.676746,0.194049,0.083164,0.133986,408.000000,387.000000,21.000000,9.000000,0.000000,0.000000:
00000000
00000000
00000000
00000000
,
00000000
00000000
00000000
00000000
,
00000000
00000000
00000000
00000000
,
00000000
00000000
00000000
00000000
,
00000000
00000000
00000000
00000000
,
00000000
00000000
00000000
00000000
,
01000000
00000000
01000000
10000000
00000000
00000000
10000000
00100000
,
00000000
00000000
00000000
00000000
00100000
00000000
10000000
00000000
00000000
00000000
00000000
00000000
01000000
10000000
01000000
10000000
,
01000000
00010000
00001000
00000100
00001000
00000100
00000010
00000000
,
00000001
00000010
00001001
00000110
,
00001000
00000000
00001000
00000001
00000000
00000000
00000001
00000010
,
00000000
00000000
00000000
00000000
00000010
00000000
00000001
00000000
00000000
00000000
00000000
00000000
00000100
00000001
00000100
00000001
,
00000100
00001000
00010000
01000000
00010000
01000000
00100000
00000000
,
10000000
00000000
00100000
00000000
00010000
01000000
10000000
01000000
,
00010000
00100000
10000000
00100000
00000000
00000000
01000000
00010000
,
00000000
00000000
00000000
00000000
00001000
00000000
00000100
00000000
00000000
00000000
00000000
00000000
00000010
00001000
00000010
00001000
,
00000010
00010000
00000100
00010000
00001000
00010000
00100000
00000000
,
01000000
00100000
00110000
01100000
,
00010000
00100000
00010000
10000000
01000000
10000000
01000000
00100000
,
01000000
00010000
00001000
00000100
00000010
00000000
00010000
00000000
,
00001000
00000010
00000001
00000010
00000100
00001000
00000010
00001000
,
00000010
00000100
00000001
00000100
00001000
00010000
00011000
00000000
,
00010000
00000010
00010000
00000010
00000100
00000001
00000100
00000010
,
00000100
00001000
00010000
01000000
00100000
00000000
00001000
00000000
,
00010000
00100000
10000000
00100000
01000000
00010000
00100000
00010000
,
00100000
01000000
10000000
01000000
00010000
00000000
00011000
00000000
,
00002000
00100000
00023000
00100000
,
00032000
00000010
00023000
00030010
,
00001010
00000000
00000011
00000000
00000001
00000100
00000100
00000000
,
00001001
00000000
00000020
00001030
,
00010000
00000000
00000000
00000000
00001000
00010000
00001000
00000000
,
00100000
00010000
00100000
00000000
00001000
01000000
00010000
00000000
,
01000000
00100000
01000000
00010000
10000000
01000000
10000000
00100000
,
00010000
00011000
00000110
00001010
,
00000001
00000000
00001000
00000100
00000101
00001000
00000100
00000000
,
00000010
00001000
00010000
01000000
00100000
00010000
01000000
10000000
,
01000000
00000000
00100000
10000000
01000000
10000000
10000000
01000000
,
00010000
00001000
00000110
00001001
,
00000001
00000010
00001000
00000010
00000011
00000010
00000001
00000100
,
00001000
00010000
00001000
01000000
00100000
01000000
01010000
00000000
,
10000000
00000000
01000000
00100000
00010000
00100000
00010000
01000000
,
01010000
00011000
00001010
00000110
,
00001000
00000000
00000000
00000000
00000001
00000000
00000010
00000000
00000001
00000000
00000000
00000000
00000000
00000000
00000001
00000010
,
00000001
00000000
00000100
00000000
00000010
00000000
00000100
00000000
00001000
00000000
00000000
00000000
00000000
00000000
00010000
00001000
,
00010000
00001000
00010000
01000000
00100000
00100000
00010000
10000000
,
02000000
00000000
00000000
00000000
00000000
00000000
00000000
00000000
03100000
00000000
00000000
00000000
00010000
00100000
00010000
00100000
,
00010000
00000000
00000000
00000000
10000000
00000000
00100000
00000000
00010000
00000000
00000000
00000000
00000000
00000000
00001000
00010000
,
00001000
00000000
00000100
00000000
00000010
00000000
00000100
00000000
00001000
00000000
00000000
00000000
00000000
00000000
00000100
00000010
,
00000100
00001000
00000100
00000001
00000100
00000000
00001000
00000000
,
00020000
00000000
00000000
00031000
00000000
00000000
00010000
01000000
,
10000000
00000000
00000000
00000000
10000000
00000000
00010000
00000000
10000000
00000000
00100000
01000000
00100000
00000000
00010000
00000000
,
00000000
00000000
00100000
01000000
00100000
00000000
10000000
00000000
01000000
00000000
00100000
00000000
00001000
00010000
00001000
00000000
,
00010000
00001000
00000010
00000100
00001000
00000100
00000010
00000000
,
00000100
00000000
00000000
00000000
00000100
00000000
00001000
00000100
00001000
00000000
00000010
00000000
00000100
00000000
00000001
00000000
,
00000100
00000000
00000000
00000000
00001000
00000000
00010000
00000000
00001000
00000000
00100000
00001000
00100000
00000000
00010000
00000000
,
00000000
00000000
00100000
01000000
00100000
00000000
00010000
00000000
01000000
00000000
00100000
00000000
01000000
00100000
01000000
00000000
,
10000000
01000000
00100000
00010000
00001000
00010000
00001000
00000000
,
00100000
00000000
00000000
00001000
00000000
00000000
00010000
00001000
00000100
00000001
00000010
00000100
,
00001000
00000001
00000100
00000000
00000001
00000000
00000100
00000000
00000010
00000100
00000010
00000000
00000100
00000000
00001000
00000000
,
00010000
00001000
00100000
00010000
00100000
01000000
00100000
10000000
,
00100000
00000000
00000000
01000000
00000000
00000000
00010000
00000000
00000000
00001000
00000000
00000000
00000100
00000000
00000001
00000000
00001000
00000000
00000100
00000000
00000000
00000000
00000000
00000000
,
00000001
00000000
00000000
00000000
00000100
00000000
00001000
00000100
00001000
00000000
00000100
00000000
00000010
00000100
00000010
00000000
,
00000100
00001000
00000001
00000100
00001000
00010000
00100000
00010000
,
00001000
00010000
01000000
10000000
00010000
01000000
10000000
00000000
,
01000000
00100000
00010000
00001000
00000100
00000010
00020000
00000000
,
00000000
00000000
00000000
00000000
,
00000000
00000000
00000000
00032000
,
00000000
00000000
00000000
00000000
,
00000000
00000000
00000000
00000000
,
00000000
00000000
00000000
00003000
;
