#TITLE:Feelings Won't Fade(Extend Trance Mix);
#SUBTITLE:;
#ARTIST:SySF.;
#TITLETRANSLIT:;
#SUBTITLETRANSLIT:;
#ARTISTTRANSLIT:;
#GENRE:;
#CREDIT:;
#BANNER:Feelings Won't Fade (Extend Trance Mix).png;
#BACKGROUND:Feelings Won't Fade (Extend Trance Mix)-bg.png;
#LYRICSPATH:;
#CDTITLE:;
#MUSIC:Feelings Won't Fade (Extend Trance Mix).ogg;
#OFFSET:0.000000;
#SAMPLESTART:68.330002;
#SAMPLELENGTH:15.000000;
#SELECTABLE:YES;
#DISPLAYBPM:144.000000;
#BPMS:0.000000=144.000000
;
#STOPS:
;
#BGCHANGES:;
#KEYSOUNDS:;
#ATTACKS:;

//---------------dance-single - ----------------
#NOTES:
     dance-single:
     :
     Beginner:
     4:
     0.149810,0.229901,0.060500,0.050417,0.000000,104.000000,98.000000,6.000000,5.000000,0.000000,0.000000,0.149810,0.229901,0.060500,0.050417,0.000000,104.000000,98.000000,6.000000,5.000000,0.000000,0.000000:
0000
0000
0000
0000
,
0000
0000
0000
0000
,
0000
0000
0000
0000
,
1000
0000
1000
0000
,
0001
0000
0001
0000
,
0010
0000
0010
0000
,
0001
0001
0001
0000
,
1000
1000
1000
0000
,
1001
0000
0000
0000
,
0000
0001
0000
0001
,
0000
1000
0000
1000
,
1000
1000
0000
1000
,
0000
0100
0000
0100
,
0000
1000
0000
1000
,
0000
0100
0000
0100
,
0000
0100
0000
1000
,
2000
0000
0000
3000
,
1000
0000
1000
0000
,
0001
0000
0001
0000
,
1000
0000
1000
0000
,
0010
0000
0010
0000
,
0100
0000
0100
0000
,
0010
0000
0010
0000
,
1000
0000
1000
0000
,
0001
0000
0001
0000
,
2000
0000
0000
3000
,
1000
0000
0000
0000
,
0002
0000
0000
0003
,
0001
0000
0000
0000
,
0020
0000
0000
0030
,
0010
0000
0000
0000
,
0200
0000
0000
0300
,
0100
0000
0000
0000
,
1000
1000
0000
0000
,
1000
1000
0000
0000
,
0001
0001
0000
0000
,
0001
0001
0000
0000
,
0100
0100
0000
0000
,
0100
0100
0000
0000
,
0010
0010
0000
0000
,
0010
0010
0000
0000
,
1000
0000
1000
0000
,
1000
0000
0000
0000
,
0100
0000
0100
0000
,
0100
0000
0000
0000
,
0010
0000
0010
0000
,
0010
0000
0000
0000
,
0001
0000
0001
0000
,
0001
0000
0000
0000
,
1001
0000
0000
0000
,
0001
0001
0001
0000
,
1001
0000
0000
0000
,
1000
1000
1000
0000
,
0010
0010
0010
0000
,
0100
0100
0100
0000
,
0110
0000
0000
0000
,
0110
0000
0000
0000
,
1001
0000
0000
0000
,
0000
0000
0000
0000
;

//---------------dance-single - ----------------
#NOTES:
     dance-single:
     :
     Easy:
     5:
     0.280894,0.316114,0.040334,0.292418,0.000000,195.000000,191.000000,4.000000,29.000000,0.000000,0.000000,0.280894,0.316114,0.040334,0.292418,0.000000,195.000000,191.000000,4.000000,29.000000,0.000000,0.000000:
0000
0000
0000
0000
,
0000
0000
0000
0000
,
0000
0000
0000
0000
,
1000
0000
0100
0000
,
0001
0001
0100
0000
,
0010
0000
1000
0000
,
0001
0001
0010
0000
,
0010
1000
0100
0001
,
1001
0000
0000
0000
,
0001
0001
0010
0001
,
1000
0100
1000
0000
,
0010
0010
1000
0001
,
0100
1000
0100
0000
,
1000
1000
0010
1000
,
0001
0100
0001
0000
,
0100
0100
0001
1000
,
0100
0001
0010
1000
,
0200
0310
2000
3100
,
0002
0013
1000
0001
,
0200
0310
0002
0103
,
2000
3010
0001
1000
,
0002
0103
2000
3100
,
0002
0013
2000
3010
,
1000
1000
0010
0010
,
0100
0100
0001
0001
,
0200
0310
2000
3100
,
0002
0013
0001
1000
,
0200
0310
0002
0103
,
2000
3010
1000
0001
,
2000
3010
0002
0013
,
2000
3100
0002
0103
,
0020
0130
0200
0310
,
2000
3001
0002
1003
,
0010
0001
0100
0000
,
0001
0100
1000
0000
,
0100
1000
0010
0000
,
1000
0010
0001
0000
,
1000
0100
0001
0000
,
0100
0001
0010
0000
,
1000
0010
0001
0100
,
1000
0100
0001
0010
,
1000
1000
0010
0200
,
0001
0000
0301
0000
,
0001
0001
0010
0200
,
1000
0000
1300
1000
,
0010
0100
0001
0020
,
0001
0000
0031
0100
,
1000
0010
0100
0001
,
2000
0000
0002
3003
,
1000
0100
0001
0100
,
0010
0010
0100
0000
,
0001
0100
1000
0100
,
0010
0010
0100
0000
,
0110
0010
0100
0010
,
1001
0001
1000
0001
,
0010
0010
0100
0100
,
0010
0001
0100
1000
,
1001
0000
0000
0000
,
0000
0000
0000
0000
;

//---------------dance-single - ----------------
#NOTES:
     dance-single:
     :
     Medium:
     8:
     0.393252,0.402327,0.282335,0.191584,0.000000,273.000000,245.000000,28.000000,19.000000,0.000000,0.000000,0.393252,0.402327,0.282335,0.191584,0.000000,273.000000,245.000000,28.000000,19.000000,0.000000,0.000000:
0000
0000
0000
0000
,
0000
0000
0000
0000
,
0000
0000
0000
0000
,
0100
0001
0100
1000
,
0100
0001
0100
1001
,
0001
0010
0100
1000
,
0001
0010
0100
0110
,
0010
1000
0010
0001
,
0020
0000
0000
0030
,
0001
1000
0100
0000
0001
0000
0100
0000
,
0010
0100
0001
0100
,
1000
0001
0010
0000
1000
0000
0010
0000
,
0100
0010
0001
0010
,
0001
0100
0010
0000
1000
0000
0001
0000
,
1000
0010
0100
0001
,
1000
0010
0100
0000
0001
0000
1000
0000
,
0001
1010
0101
0000
,
2001
0000
3010
0000
0100
0001
0100
0010
,
0100
1000
0100
0110
,
1001
0000
0001
0000
0010
0100
0010
0000
,
1000
0011
1100
0000
,
1002
0000
0103
0000
0010
1000
0010
0100
,
0010
0001
0010
0110
,
1001
0000
1000
0000
0100
0010
0100
0000
,
0002
0003
2000
3000
,
0001
0100
0010
0200
0000
0001
0000
0302
,
0000
1000
0010
1003
,
0100
1000
0001
2000
0000
0000
0100
3100
,
0200
0010
1000
0310
,
0001
0100
0010
0200
0000
0001
0000
0302
,
0000
1000
0100
1003
,
0100
1000
0001
2000
0000
0000
0100
0100
,
3200
0010
1000
0310
,
0012
0000
0000
1000
0000
0000
0103
0000
,
1000
0001
1000
0000
1000
0010
0100
0010
,
2010
0000
0000
0001
0000
0000
3100
0000
,
0110
0000
1001
0000
0100
0010
0100
0000
,
0102
0000
0000
1000
0000
0000
0013
0000
,
1000
0001
1000
0000
1000
0100
0010
0100
,
2100
0000
0000
0001
0000
0000
3010
0000
,
0110
0000
1001
0000
0010
0100
0010
0100
,
0010
0000
0001
0100
0000
0100
0010
0000
,
0100
1010
0100
1010
,
0100
0000
0001
0100
0000
0100
1000
0000
,
0100
1001
0100
1001
,
0100
0000
0010
1000
0000
1000
0010
0000
,
0100
0101
0100
0101
,
0001
0000
0010
0100
0000
0100
0001
0000
,
2000
3000
0002
0003
,
0110
0000
1000
0010
0000
0100
0001
0000
,
1000
0000
0100
0000
0010
0001
0010
0001
,
0010
0000
0001
0100
0000
0010
1000
0000
,
0001
0000
0100
0000
0010
1000
0010
1000
,
0010
0000
0100
0010
0000
0001
1000
0000
,
0100
0000
0010
0000
0001
1000
0001
1000
,
0001
0000
0010
0100
0000
1000
0001
0000
,
0010
0000
0100
0000
1000
0001
1000
0001
,
1001
0000
0000
0000
,
0000
0000
0000
0000
;

//---------------dance-single - ----------------
#NOTES:
     dance-single:
     :
     Hard:
     12:
     0.561789,0.641934,0.342835,0.242001,0.136126,390.000000,356.000000,34.000000,24.000000,0.000000,0.000000,0.561789,0.641934,0.342835,0.242001,0.136126,390.000000,356.000000,34.000000,24.000000,0.000000,0.000000:
0000
0000
0000
0000
,
0000
0000
0000
0000
,
0000
0000
0000
0000
,
1000
0010
1000
0100
,
0001
0010
0001
0100
,
0010
1000
0001
0000
0010
1000
0100
0000
,
0001
0001
0010
0010
,
0100
0001
1000
0000
0100
0001
0010
0000
,
0102
0013
2100
3010
,
0001
0100
1000
0000
0001
0100
1000
0000
,
0001
0100
1000
0100
0001
0010
0100
0000
,
1000
0010
0001
0000
1000
0010
0001
0000
,
1000
0010
0001
0010
1000
0100
0010
0000
,
0001
0001
1100
0000
0001
0001
1010
0000
,
1000
0001
0100
0010
0001
1000
0100
0000
,
1000
1000
0101
0000
1000
1000
0011
0000
,
0010
1000
0001
0001
0010
0100
1000
1000
,
0001
0001
0101
0000
0100
1000
0100
0000
,
0100
0010
0100
0000
0100
0001
0100
1000
,
0010
0000
1001
0000
0010
0001
0010
0000
,
0010
0100
0010
0000
0010
0100
0010
1000
,
0001
0000
1100
0000
0001
0010
0100
0000
,
1000
0000
0101
0000
1000
0010
0100
0000
,
0020
0000
0000
1000
0000
0000
1030
0000
0200
0000
0000
0001
0000
0000
0301
0000
,
0020
0000
0000
1000
0000
0000
1030
0000
0200
0000
0000
0001
0000
0000
0301
0000
,
1001
0000
1001
0100
0010
0001
0100
0000
,
0010
0010
1000
0100
0010
1000
1000
0000
,
1100
0000
0101
0010
0100
1000
0010
0000
,
0011
0100
0010
0001
0100
0010
1000
0000
,
0110
1000
0001
0000
0110
0001
1000
0000
,
0101
1000
0100
0000
1100
0001
0100
0000
,
1001
0000
0000
0010
1000
0000
0100
0000
0110
0000
0000
0010
0001
0000
1000
0000
,
1100
0000
0000
0010
0100
0000
0001
0000
0101
0000
0000
0001
0010
0000
0100
0000
,
1001
0000
0000
0000
0100
0000
0000
0001
1000
0000
0010
0000
1000
0000
0001
0000
,
0100
0000
0000
0000
0101
0000
0000
1000
0100
0000
0010
0000
0001
0000
1000
0100
,
1000
0000
0000
0000
0110
0000
0000
0001
0100
0000
0010
0000
1000
0000
0010
0000
,
0100
0000
0000
0000
1100
0000
0000
0001
0010
0000
0100
0000
1000
0000
0010
0100
,
0010
0000
0000
0000
1001
0000
0000
0010
0100
0000
1000
0000
0010
0000
0100
0000
,
0001
0000
0000
0000
0011
0000
0000
1000
0001
0000
0010
0000
0100
0000
1000
0100
,
1000
0000
0000
0000
1010
0000
0000
0100
1000
0000
0010
0000
1000
0000
0100
0000
,
0010
0001
0100
1000
0100
0001
0010
0100
,
2000
0000
0000
0000
0000
0000
0000
0000
0000
0000
0000
0000
0000
0000
0000
0000
3020
0000
0000
0000
0000
0000
0000
0000
0100
0000
0000
0000
0000
0000
0000
0000
0000
0000
0000
0000
0000
0000
0000
0000
0130
0000
0000
0000
0000
0000
0000
0000
0002
0000
0000
0000
0000
0000
0000
0000
0000
0000
0000
0000
0000
0000
0000
0003
,
1000
0000
0100
0000
0001
0000
0100
0000
1000
0100
0000
0010
0001
0000
0100
0000
,
0002
0000
0023
0100
0000
0130
2000
0000
,
3001
0000
0100
0000
1000
0000
0100
0000
0001
0100
0000
1000
0100
0000
0100
0010
,
0200
0000
0320
1000
0000
1030
0200
0000
,
0310
0000
0001
0000
1000
0000
0100
0000
0010
0100
0000
0100
0010
0000
0001
0000
,
2000
0000
3200
0010
0000
0310
0002
0000
,
0203
0010
0320
0000
2030
0001
3001
0000
,
0001
0010
0001
0100
0010
1000
0100
1000
,
0001
0000
0100
0000
0001
0000
1000
0000
0010
0000
1000
0000
0100
0000
0010
0100
,
0010
0001
1000
0100
0010
0001
0100
0000
,
0010
0000
1000
0000
0010
0000
0100
0000
0001
0000
1000
0000
0010
0000
0100
0010
,
0100
0001
1000
0001
0000
0001
1000
0000
,
1001
0010
0100
0000
0001
1000
0110
0000
,
0010
0001
1000
0210
0000
0301
0100
0000
,
0100
0001
0010
0100
1000
0010
0100
0001
,
2002
0000
0000
0000
0000
0000
0000
3003
;

//---------------dance-double - ----------------
#NOTES:
     dance-double:
     :
     Easy:
     5:
     0.280894,0.316114,0.040334,0.292418,0.000000,195.000000,191.000000,4.000000,29.000000,0.000000,0.000000,0.280894,0.316114,0.040334,0.292418,0.000000,195.000000,191.000000,4.000000,29.000000,0.000000,0.000000:
00000000
00000000
00000000
00000000
,
00000000
00000000
00000000
00000000
,
00000000
00000000
00000000
00000000
,
10000000
00000000
01000000
00000000
,
00010000
00010000
00001000
00000000
,
00000100
00000000
00000100
00000000
,
00000010
00000010
00001000
00000000
,
00001000
00000100
00000001
00000010
,
00001001
00000000
00000000
00000000
,
00001000
00001000
00000010
00000100
,
00000001
00000100
00001000
00000000
,
00010000
00010000
01000000
10000000
,
00100000
10000000
01000000
00000000
,
00010000
00010000
00001000
00100000
,
00010000
01000000
00010000
00000000
,
00001000
00001000
00010000
00000100
,
00000010
00000001
00000100
00000010
,
00002000
00003100
00000002
00000013
,
00002000
00003100
00010000
00001000
,
02000000
03100000
00020000
10030000
,
00200000
01300000
00010000
01000000
,
00002000
00013000
00000200
00001300
,
00000002
00000013
00002000
00003100
,
00000001
00000001
00000100
00000100
,
00001000
00001000
00010000
00010000
,
00002000
00103000
00020000
01030000
,
00200000
10300000
01000000
00010000
,
00002000
00013000
00000020
00001030
,
00000002
00000103
00000001
00001000
,
00000200
00001300
00020000
00031000
,
00002000
01003000
00020000
00130000
,
20000000
30010000
02000000
03100000
,
20000000
30010000
02000000
03100000
,
10000000
01000000
00010000
00000000
,
00001000
00000100
00000001
00000000
,
00000010
00000001
00000100
00000000
,
00000010
00001000
00000100
00000000
,
00010000
00001000
00100000
00000000
,
00001000
00010000
00000010
00000000
,
00001000
01000000
00010000
00100000
,
01000000
10000000
00100000
10000000
,
01000000
00010000
00001000
00002000
,
00010000
00000000
00013000
00000000
,
00000010
00000010
00001000
00000002
,
00001000
00000000
00001003
00001000
,
00000001
00000100
00001000
00020000
,
00001000
00000000
00031000
00010000
,
00100000
00010000
01000000
00010000
,
20000000
00000000
00020000
30030000
,
00010000
10000000
01000000
00010000
,
00001000
00001000
00010000
00000000
,
00001000
00010000
00001000
00000100
,
00000001
00000001
00001000
00000000
,
00000110
00000010
00000100
00000010
,
00001001
00001000
00000001
00001000
,
00000100
00000100
00010000
00010000
,
00001000
00010000
01000000
10000000
,
10010000
00000000
00000000
00000000
,
00000000
00000000
00000000
00000000
;

//---------------dance-double - ----------------
#NOTES:
     dance-double:
     :
     Medium:
     9:
     0.388931,0.402327,0.121001,0.020167,0.000000,270.000000,258.000000,12.000000,2.000000,0.000000,0.000000,0.388931,0.402327,0.121001,0.020167,0.000000,270.000000,258.000000,12.000000,2.000000,0.000000,0.000000:
00000000
00000000
00000000
00000000
,
00000000
00000000
00000000
00000000
,
00000000
00000000
00000000
00000000
,
01000000
00010000
00100000
00010000
,
10000000
00100000
01000000
00001000
,
00001000
00000100
00000001
00000010
,
00000001
00001000
00000100
00010000
,
00010000
01000000
10000000
01000000
,
20020000
00000000
00000000
30030000
,
00100000
01000000
00100000
01000000
00100000
00000000
10000000
01000000
,
00010000
00010000
00001000
00001000
,
00000100
00000010
00000100
00000010
00000100
00000000
00000001
00000100
,
00001000
00001000
00010000
00010000
,
01000000
00100000
01000000
00100000
01000000
00000000
10000000
01000000
,
00010000
00010000
00001000
00001000
,
00000100
00000010
00000100
00000010
00000100
00000000
00000001
00000100
,
00001000
00001000
00010000
00010000
,
00001000
00000100
00000010
00000000
00001000
00000000
00000001
00000000
,
00000100
00001000
00010000
00001000
,
00010000
01000000
00100000
00000000
00010000
00000000
10000000
00000000
,
01010000
00000000
00000000
00000000
10000000
01000000
00010000
01000000
,
00010000
00001000
00010000
00000000
00001000
00000000
00000100
00000000
,
00000001
00001000
00000001
00001000
,
00000100
00001000
00000100
00000000
00010000
00000000
00010000
00000000
,
00011000
00000000
00000000
00000000
00010000
01000000
00100000
01000000
,
10000000
01000000
00000000
01000000
00000000
00010000
00000000
00010000
,
00000000
00001000
00000000
00001000
00000000
00000100
00000000
00000100
,
00000001
00000100
00000000
00000100
00000000
00001000
00000000
00001000
,
00000000
00010000
00000000
00010000
00000000
01000000
00100000
01000000
,
10000000
01000000
00000000
01000000
00000000
00010000
00000000
00010000
,
00000000
00001000
00000000
00001000
00000000
00000100
00000000
00000100
,
00000001
00000100
00000000
00000100
00000000
00001000
00000000
00001000
,
00010000
00001000
00000000
01000000
00100000
01000000
00000000
01000000
,
00010000
00000000
10000000
00000000
00100000
10000000
01000000
00000000
,
00100000
10000000
01000000
00000000
00010000
00000000
00001000
00000000
,
00000100
00000000
00000001
00000000
00000010
00000001
00000100
00000000
,
00000010
00000001
00000100
00000000
00001000
00000000
00010000
00000000
,
01000000
00000000
10000000
00000000
00010000
00100000
01000000
00000000
,
00010000
00100000
01000000
00000000
00010000
00000000
00001000
00000000
,
00000100
00000000
00000001
00000000
00001000
00000100
00000010
00000000
,
00001000
00000100
00000010
00000001
00000100
00000000
00001000
00000000
,
00011000
00000000
00010000
01000000
00000000
00000000
01000000
00000000
,
10100000
00000000
00100000
10000000
00000000
00000000
10000000
00000000
,
01100000
00000000
01000000
00010000
00000000
00000000
00010000
00000000
,
00011000
00000000
00001000
00000100
00000000
00000100
00001000
00000000
,
00001100
00000000
00000100
00000010
00000000
00000000
00000010
00000000
,
00001001
00000000
00000001
00000100
00000000
00000000
00000100
00000000
,
00001010
00000000
00001000
00000100
00000000
00000000
00000100
00000000
,
00011000
00000000
00010000
01000000
00000000
01000000
00010000
00000000
,
00001000
00000100
00001000
00000000
00010000
00000000
01000000
00000000
,
10000000
00100000
00010000
00001000
,
00010000
01000000
00010000
00000000
00001000
00000000
00000100
00000000
,
00000001
00000010
00001000
00010000
,
00001000
00000100
00001000
00000000
00010000
00000000
01000000
00000000
,
10000000
01000000
10000000
00000000
01000000
00000000
00100000
00000000
,
00001000
00010000
00001000
00000000
00001000
00010000
00001000
00000000
,
00001000
00000100
00000001
00000010
00000100
00000000
00001000
00000000
,
00011000
00000000
00000000
00000000
,
00000000
00000000
00000000
00000000
;

//---------------dance-double - ----------------
#NOTES:
     dance-double:
     :
     Hard:
     12:
     0.576194,0.574753,0.050417,0.090751,0.267210,400.000000,395.000000,5.000000,9.000000,0.000000,0.000000,0.576194,0.574753,0.050417,0.090751,0.267210,400.000000,395.000000,5.000000,9.000000,0.000000,0.000000:
00000000
00000000
00000000
00000000
,
00000000
00000000
00000000
00000000
,
00000000
00000000
00000000
00000000
,
00000000
10000000
00000000
00010000
00000000
10000000
00000000
01000000
,
00000000
00010000
00000000
00001000
00000000
00010000
00000000
00001000
,
00000100
00000001
00001000
00000000
00000001
00000000
00001000
00000000
,
00000010
00000100
00000001
00000000
00000001
00000100
00001000
00000000
,
00010000
00001000
00010000
00000000
00010000
01000000
10000000
00010000
,
10000000
00000000
00000000
00000000
00000000
00000000
00000000
00000000
00000000
00000000
00000000
00000000
00001000
00010000
00001000
00010000
,
00001000
00000000
00010000
00000000
01000000
00000000
00000000
00100000
00000000
00100000
00000000
00100000
00000000
00001000
00010000
00000000
,
00100000
00000000
00010000
00000000
00001000
00000000
00000000
00000100
00000000
00000100
00000000
00000100
00000000
00000100
00000010
00000000
,
00001000
00000000
00000100
00000000
00010000
00000000
00000000
00001000
00000000
00001000
00000000
00001000
00000000
00001000
00010000
00000000
,
00100000
00000000
01000000
00000000
00100000
00000000
00000000
00010000
00000000
00001000
00000000
00010000
00000000
01000000
00100000
01000000
,
00100000
00000000
00001000
00000000
00010000
00000000
00000000
00000100
00000000
00000010
00000000
00001000
00000000
00010000
00001000
00000000
,
00000100
00000000
00000010
00000000
00000100
00000000
00000000
00001000
00000000
00010000
00000000
00001000
00000000
00100000
00000000
01000000
,
00010000
00000000
00001000
00000000
00010000
00000000
00000000
00000010
00000000
00000100
00000000
00001000
00000000
00010000
00001000
00010000
,
00001000
01000000
00010000
01000000
00100000
00000000
10010000
00000000
,
00100000
10000000
01000000
10000000
00100000
10000000
01000000
00010000
,
00001000
00010000
00100000
10000000
00000000
01010000
00000000
00001000
,
00010000
00001000
00000100
00000001
00000010
00000001
00000100
00000001
,
00000010
00001000
00010000
00001000
00000000
00101000
00000000
00010000
,
10000000
01000000
10000000
00100000
00010000
00001000
00000100
00000010
,
00001000
00000001
00000100
00000010
00000000
00001001
00000000
00000001
,
00000100
00001000
00010000
00001000
00010000
00001000
00100000
00010000
,
00100000
00000000
00010000
00000000
01000000
00000000
00100000
00000000
00000000
00000000
10000000
00000000
00100000
10000000
00100000
10000000
,
00100000
01000000
00010000
00000000
00100000
00001000
00010000
00000000
,
00010000
00001000
00000100
00000001
00000100
00001000
00010000
00000000
,
00010000
00000010
00000100
00000000
00001000
00000100
00000001
00000000
,
00000010
00000100
00001000
00000001
00000100
00001000
00010000
00100000
,
01000000
00100000
10000000
00000000
00010000
10000000
01000000
00000000
,
00010000
01000000
10000000
00100000
00010000
00001000
00010000
00000000
,
00010000
00001000
00100000
00000000
00001000
00010000
00000010
00000000
,
00001000
00000100
00000010
00000100
00001000
00000001
00000010
00000100
,
00000010
00000001
00000100
00001000
00010000
01000000
00000000
10000000
,
00010000
00000000
00010000
00000000
01000000
00100000
00000000
10000000
00000000
10000000
00000000
00100000
01000000
00000000
00010000
00000000
,
10000000
01000000
00010000
01000000
00100000
00001000
00000000
00010000
,
00001000
00000000
00001000
00000000
00000100
00000010
00000000
00001000
00000000
00001000
00000000
00000010
00000100
00000000
00001000
00000000
,
00000100
00000001
00001000
00000100
00000010
00000100
00000000
00010000
,
00001000
00000000
00001000
00000000
00100000
00010000
00000000
01000000
00000000
01000000
00000000
00010000
00100000
00000000
00001000
00000000
,
01000000
00010000
01000000
00100000
10000000
00010000
00000000
10000000
,
01000000
00000000
10000000
00000000
01000000
00010000
00000000
00001000
00000000
00010000
00000000
00001000
00010000
00001000
00010000
00001000
,
00010000
00000100
00001000
00000001
00000010
00000001
00001000
00000100
,
00000001
00000100
00000010
00001000
00010000
00002000
00000000
01000000
,
01000000
00000000
00100000
00100000
00000000
00010000
00013000
00001000
,
00100000
00010000
10000000
01000000
10000000
00100000
00010000
00100000
,
20000000
00000000
00010000
00010000
00000000
01000000
31000000
10000000
,
00010000
01000000
00100000
01000000
00001000
00020000
00000000
00001000
,
00001000
00000000
00000100
00000100
00000000
00000010
00030010
00001000
,
00000001
00000100
00001000
00010000
00100000
10000000
00100000
01000000
,
00010000
10000000
01000000
10000000
00010000
00100000
10000000
00100000
,
00010000
01000000
00100000
00010000
00001000
00000100
00000010
00000100
,
00000002
00000010
00000013
00000020
00000100
00000130
00000200
00001000
,
00001300
00000010
00001000
00000100
00010000
00001000
01000000
00010000
,
20000000
00100000
30100000
00200000
01000000
01300000
02000000
00010000
,
03010000
00100000
00010000
01000000
00001000
00010000
00000100
00001000
,
00000001
00001000
00000010
00000100
00001000
00010000
01000000
00100000
,
00010000
10000000
00010000
01000000
00100000
00010000
00001000
00010000
,
00011000
00000000
00000000
00000000
,
00000000
00000000
00000000
00000000
;

//---------------dance-single - ----------------
#NOTES:
     dance-single:
     :
     Challenge:
     14:
     0.692873,0.700291,0.121001,0.060500,0.539461,481.000000,469.000000,12.000000,6.000000,0.000000,0.000000,0.692873,0.700291,0.121001,0.060500,0.539461,481.000000,469.000000,12.000000,6.000000,0.000000,0.000000:
// measure 0
0000
0000
0000
0000
,  // measure 1
0000
0000
0000
0000
,  // measure 2
0000
0000
0000
0000
,  // measure 3
0001
1000
0001
0000
1000
0010
0000
0000
0100
0000
0000
0100
0001
0000
1000
0000
,  // measure 4
0001
0000
0000
0001
0100
0000
0001
0000
0100
0010
0000
0000
1000
0000
0000
0000
,  // measure 5
0010
0000
0100
0000
0010
0000
1000
0000
0100
1000
0000
0000
1001
0000
0000
0001
,  // measure 6
0100
0000
0000
0110
0000
0000
0010
0000
1000
0010
0000
0000
0101
0000
0000
0000
,  // measure 7
0001
0000
1000
0000
0010
1000
0000
0000
0010
0000
0100
0000
0001
0000
0100
0000
,  // measure 8
0020
2030
3200
0320
,  // measure 9
0031
0000
0100
0000
0010
0000
0100
0001
0000
0100
0000
0010
1000
0000
0010
0000
,  // measure 10
0100
0000
0001
0000
0010
0000
0000
0001
0000
0100
0000
1000
0000
0100
0001
1000
,  // measure 11
0001
0100
1000
0010
0100
0001
0100
0010
,  // measure 12
1000
0000
1000
0000
0001
0000
0100
0010
0000
0010
0000
0100
0001
0000
1000
0000
,  // measure 13
0001
0000
0100
0000
1000
0000
0010
1000
0000
0100
0000
0001
1000
0000
0010
1000
,  // measure 14
0010
0000
0100
0000
0001
0000
0100
0000
0010
0000
1000
0000
0010
0100
0010
0000
,  // measure 15
1000
0000
0100
0000
0010
0000
0001
0010
0000
0001
0000
0100
0010
0000
0000
0000
,  // measure 16
1000
0001
1000
0000
0001
0100
0010
0010
,  // measure 17
1000
0000
0100
0000
0001
0000
0100
0000
1000
0010
1000
0000
0100
0000
0001
0000
,  // measure 18
0100
0000
1000
0000
0010
0000
0001
0000
0010
1000
0000
0000
0100
0000
0010
0000
,  // measure 19
0001
1000
0001
0000
0010
0000
0100
0000
1000
0010
1000
0000
0001
0000
0100
0000
,  // measure 20
0001
0010
0001
0010
0001
0000
0010
0000
0100
0000
0001
0000
0100
0000
1000
0000
,  // measure 21
0010
1000
0010
1000
0010
0000
0100
0000
0001
0000
1000
0000
0010
1000
0010
1000
,  // measure 22
0001
0000
0100
0000
0010
0000
0100
0000
0001
1000
0000
0010
0000
0000
1000
0000
,  // measure 23
0001
0000
0000
0100
0001
0000
0000
1000
0001
0000
0000
1000
0100
0000
1000
0000
,  // measure 24
0100
0010
0001
0100
0001
1000
0001
1000
,  // measure 25
0010
0100
1000
0100
0010
1000
0001
0100
,  // measure 26
0010
0100
0010
0000
1000
0000
0001
0000
1000
0100
0000
0100
0010
0000
1000
0000
,  // measure 27
0100
0010
0100
0000
0010
0000
0001
0000
1000
0000
0001
0000
0100
0000
0001
0000
,  // measure 28
1010
0000
0100
0000
0001
0000
0100
0000
0010
1000
0000
1000
0001
0100
0010
0100
,  // measure 29
0001
1000
0001
0100
0010
0100
0001
0000
,  // measure 30
1000
0010
0100
0010
1000
0001
1000
0000
,  // measure 31
0101
0010
0100
0001
1000
0001
0100
0010
,  // measure 32
0100
0001
0010
0100
1000
0001
1001
0000
,  // measure 33
0100
0000
0010
0000
1000
0000
0000
1000
0001
0000
0100
0000
0001
0000
1000
0000
,  // measure 34
0010
0000
0000
0000
0110
0000
0000
0100
0001
0000
0010
0000
1000
0000
0010
0000
,  // measure 35
0001
0000
0000
0000
1001
0000
0000
1000
0010
0000
0100
0000
0010
0000
1000
0000
,  // measure 36
0001
0000
0000
0000
0101
0000
0000
0100
0010
0000
1000
0000
0010
0100
0010
0000
,  // measure 37
1000
0000
0000
0000
1001
0000
0000
0001
0100
0000
0010
0000
0100
0000
0001
0000
,  // measure 38
1000
0000
0000
0000
1010
0000
0000
0010
0100
0000
0001
0000
0100
0000
0010
1000
,  // measure 39
0010
0100
0001
0100
0010
0100
0001
0010
,  // measure 40
0100
0010
0001
0010
1000
0010
0001
0100
,  // measure 41
0010
1000
0010
0000
0100
0000
0010
1000
0000
0001
1000
0000
0001
0100
0000
0100
,  // measure 42
0010
1000
0000
1000
0001
0010
0000
0010
0100
1000
0000
1000
0001
0000
0100
0010
,  // measure 43
0000
0010
1000
0000
0001
0000
0100
0010
1000
0000
0001
0000
1000
0001
0100
0001
,  // measure 44
1000
0000
0001
0000
0100
0000
0010
0000
0100
0001
0000
1000
0010
0000
0100
0001
,  // measure 45
0100
0000
0010
0000
1000
0000
0010
0100
0010
0000
1000
0000
0001
0100
0001
0000
,  // measure 46
0100
0000
0010
0000
1000
0000
0100
0000
0010
0001
0000
1000
0001
0000
0100
0000
,  // measure 47
0010
1000
0010
0000
0100
0000
0001
0000
1000
0000
0010
0000
0100
0010
1000
0000
,  // measure 48
0010
0000
0100
0000
0001
0000
1000
0000
0001
0100
0000
0010
0100
0000
0010
0000
,  // measure 49
1000
0000
0100
0000
1000
0001
0000
0100
0001
0000
0100
0000
0010
1000
0000
0000
,  // measure 50
0010
0100
0001
0100
0010
1000
0100
1000
,  // measure 51
0001
0100
0000
0100
0010
0000
1000
0000
0001
0010
0000
0010
0100
0000
1000
0001
,  // measure 52
1000
0000
0001
0000
0100
0000
0010
0000
0100
0001
0000
1000
0001
0000
0100
0001
,  // measure 53
0000
1000
0001
0000
0100
0000
0010
0000
0100
0000
0001
0000
1000
0000
0001
0000
,  // measure 54
0100
0010
0000
0010
1000
0000
0010
0000
0100
0001
0000
0001
1000
0000
0010
0000
,  // measure 55
0100
0001
0100
0000
0001
0000
0010
0100
1000
0000
0001
0000
1000
0000
0000
0000
,  // measure 56
0010
0000
0100
0000
0001
0000
0100
0000
0010
1000
0000
0001
0100
0000
0010
0000
,  // measure 57
2002
0000
0000
0000
0000
0000
0000
3003
;

//---------------dance-single - ----------------
#NOTES:
     dance-single:
     :
     Edit:
     15:
     0.855648,0.875364,0.110917,0.060500,1.078923,594.000000,583.000000,11.000000,6.000000,0.000000,0.000000,0.855648,0.875364,0.110917,0.060500,1.078923,594.000000,583.000000,11.000000,6.000000,0.000000,0.000000:
// measure 0
0000
0000
0000
0000
,  // measure 1
0000
0000
0000
0000
,  // measure 2
0000
0000
0000
0000
,  // measure 3
0001
1000
0001
0000
1000
0010
0000
0000
0110
0000
0000
0100
0001
0000
1000
0000
,  // measure 4
0001
0000
0000
0001
0100
0000
0001
0000
0100
0010
0000
0000
1010
0000
0000
0000
,  // measure 5
0010
0100
0000
0010
0100
0000
0001
0000
1000
0100
0000
1000
0100
0000
0001
0100
,  // measure 6
1000
0000
0000
1001
0000
0000
0001
0000
0100
0010
0100
0000
0101
0000
0000
0000
,  // measure 7
0001
0000
1000
0000
0010
1000
0001
0000
0010
0000
0100
0001
0000
1000
0001
0000
,  // measure 8
0020
2030
3200
0320
,  // measure 9
0031
0000
0100
0000
1000
0000
0100
0001
0100
0001
1000
0010
1000
0000
0010
0000
,  // measure 10
0100
0000
0001
0000
0010
0000
0000
0001
0000
0101
0000
1000
0000
0100
0001
1000
,  // measure 11
0001
0000
0100
0000
1000
0000
0010
0000
0100
0001
0100
0001
0100
0010
1000
0000
,  // measure 12
0001
0000
1000
0000
0001
0000
0100
0010
0000
0010
0000
0100
0001
0000
1000
0000
,  // measure 13
0001
0000
0100
0000
1000
0000
0010
1000
0000
0100
0000
0001
1000
0000
0010
1000
,  // measure 14
0010
0000
0100
0000
0001
0000
0100
0000
0010
0000
1000
0000
0010
0100
0010
0000
,  // measure 15
1000
0000
0100
0000
0010
0000
0001
0010
0000
0001
0000
0100
0010
0000
0000
0000
,  // measure 16
1000
0001
1000
0001
0001
0100
0110
0010
,  // measure 17
1000
0000
0100
0000
0001
0000
0100
0000
1000
0010
1000
0010
1000
0001
1000
0001
,  // measure 18
1000
0100
1000
0100
0010
0000
0001
0000
0100
0010
0100
0000
0010
0000
1000
0001
,  // measure 19
1000
0001
0100
0010
0100
0010
0000
0001
0010
0100
0010
0001
1000
0100
0000
1000
,  // measure 20
0001
0010
0001
0100
0001
1000
0010
1000
0100
0010
0000
0001
0100
0000
1000
0000
,  // measure 21
0100
0001
0010
0100
1000
0000
0010
0100
0000
0001
0100
0000
0010
1000
0010
1000
,  // measure 22
0001
0100
0001
0100
0010
0100
0001
0010
0001
1000
0100
0010
0001
0000
1000
0000
,  // measure 23
0001
0010
0001
0100
0010
0000
1000
0100
0000
0010
0001
0000
1000
0100
1000
0001
,  // measure 24
0100
0001
0010
0100
0010
0100
1000
0001
1000
0010
0000
0100
0010
0000
1000
0000
,  // measure 25
0001
0100
0001
0100
0010
1000
0010
1000
0100
0000
1000
0000
0001
0000
0100
0000
,  // measure 26
0010
0100
0010
0100
0001
0100
0001
0000
1000
0100
0000
0001
0100
0000
1000
0000
,  // measure 27
0010
0001
0010
1000
0100
0000
0001
0000
1000
0010
0001
0000
0010
0000
1000
0000
,  // measure 28
0010
0100
0001
0100
0010
1000
0010
0100
0010
1000
0000
1000
0001
0100
0010
0100
,  // measure 29
0001
0010
0001
0010
0100
1000
0100
1000
0010
0100
0000
0001
0100
0000
0010
0000
,  // measure 30
1000
0100
1000
0100
0001
0010
0001
0010
0100
0001
0100
0001
1000
0000
0010
0000
,  // measure 31
0100
0001
0100
0001
1000
0010
0000
0110
0000
0000
0001
0000
0100
0010
1000
0010
,  // measure 32
0100
0001
0010
0100
1000
0010
0100
0010
1000
0000
0001
0000
0101
0000
0100
0000
,  // measure 33
0010
1000
0010
1000
0100
0000
0000
1000
0001
0000
0100
0000
0001
0000
1000
0000
,  // measure 34
0010
0100
0000
0100
0010
0000
1000
0100
0000
0100
0010
0000
0001
0000
0010
0000
,  // measure 35
0001
0100
1000
0100
0001
0000
0000
1000
0010
0000
0100
0000
0010
0000
1000
0000
,  // measure 36
0001
0010
0000
0010
0100
0000
1000
0100
0000
0100
1000
0000
0010
0100
0010
0000
,  // measure 37
1000
0000
0000
0000
1001
0000
0000
0001
0100
0000
0010
0000
0100
0000
0001
0000
,  // measure 38
1000
0100
0000
0010
0001
0000
0100
0010
0000
1000
0010
0000
0100
0000
0010
1000
,  // measure 39
0010
0100
0001
0100
0010
0000
0100
0000
0001
0010
0001
0000
1000
0000
0010
0000
,  // measure 40
0100
0001
1000
0000
0001
0000
0010
0000
1000
0010
0001
0000
0100
0010
0100
0000
,  // measure 41
0010
1000
0010
0000
0100
0000
0010
1000
0000
0001
1000
0000
0001
0100
0000
0100
,  // measure 42
0010
1000
0000
1000
0001
0010
0000
0010
0100
1000
0000
1000
0001
0000
0100
0010
,  // measure 43
0000
0010
1000
0000
0001
0000
0100
0010
1000
0000
0001
0000
1000
0001
0100
0001
,  // measure 44
1000
0000
0001
0000
0100
0000
0010
0000
0100
0001
0000
1000
0010
0000
0100
0001
,  // measure 45
0100
0000
0010
0000
1000
0000
0010
0100
0010
0000
1000
0000
0001
0100
0001
0000
,  // measure 46
0100
0000
0010
0000
1000
0000
0100
0000
0010
0001
0000
1000
0001
0000
0100
0000
,  // measure 47
0010
1000
0010
0100
0001
1000
0001
0000
0010
0000
0010
0000
0100
0010
1000
0000
,  // measure 48
0010
0000
0100
0000
0001
0000
1000
0000
0001
0100
0000
0010
0100
0000
0010
0000
,  // measure 49
1000
0100
0010
0000
0001
1000
0000
0100
0001
0000
0100
0000
0010
0001
0010
1000
,  // measure 50
0001
0010
0001
0010
0100
1000
0100
1000
0010
0100
0000
0001
0100
0000
0010
1000
,  // measure 51
0100
1000
0100
0000
0010
0000
0001
0100
0001
0000
0010
0000
0100
1000
0001
0010
,  // measure 52
0001
0100
0000
0100
0010
0000
0010
0000
0100
0001
0000
1000
0001
0000
0100
0000
,  // measure 53
0001
1000
0001
0100
0010
0000
1000
0010
0100
0000
1001
0000
1000
0001
0100
0000
,  // measure 54
0100
0010
0000
0010
1000
0000
0010
0000
0100
0001
0000
0001
1000
0000
0010
0000
,  // measure 55
0100
0001
0100
0001
0010
0000
0010
0100
1000
0000
0001
0000
1000
0000
0000
0000
,  // measure 56
0010
0000
0100
0000
0001
0000
0100
0000
0010
1000
0000
0001
0100
0000
0010
0000
,  // measure 57
2002
0000
0000
0000
0000
0000
0000
3003
;
