#TITLE:Far east nightbird kors k Remix -DDR edit ver-;
#SUBTITLE:;
#ARTIST:猫叉Master;
#TITLETRANSLIT:;
#SUBTITLETRANSLIT:;
#ARTISTTRANSLIT:Nekomata Master;
#GENRE:;
#CREDIT:;
#BANNER:Far east nightbird kors k Remix -DDR edit ver-.png;
#BACKGROUND:Far east nightbird kors k Remix -DDR edit ver--bg.png;
#LYRICSPATH:;
#CDTITLE:;
#MUSIC:Far east nightbird kors k Remix -DDR edit ver-.ogg;
#OFFSET:0.000000;
#SAMPLESTART:68.400002;
#SAMPLELENGTH:15.000000;
#SELECTABLE:YES;
#BPMS:0.000000=175.000000
;
#STOPS:
;
#BGCHANGES:;
#KEYSOUNDS:;
#ATTACKS:;

//---------------dance-single - ----------------
#NOTES:
     dance-single:
     :
     Beginner:
     3:
     0.101687,0.215497,0.043403,0.017361,0.000000,82.000000,77.000000,5.000000,2.000000,0.000000,0.000000,0.101687,0.215497,0.043403,0.017361,0.000000,82.000000,77.000000,5.000000,2.000000,0.000000,0.000000:
0000
0000
0000
0000
,
0000
0000
0000
0000
,
0000
0000
0000
0000
,
0000
0000
0000
0000
,
0001
0000
0000
0000
,
0000
0000
0000
0000
,
0010
0000
0000
0000
,
0100
0000
0000
0000
,
1000
0000
0000
0000
,
0001
0000
1000
0000
,
0001
0000
0000
0000
,
0000
0000
0000
0000
,
1000
0000
0000
0000
,
0000
0000
0000
0000
,
0010
0000
0000
0000
,
0100
0000
0000
0000
,
0001
0000
0000
0000
,
0000
0000
0000
0000
,
1000
0000
0000
0000
,
0010
0000
0000
0000
,
0100
0000
0000
0000
,
0001
0000
0000
0000
,
0010
0000
0000
0000
,
0100
0000
0000
0000
,
1001
0000
0000
0000
,
0000
0000
0000
0000
,
1000
1000
0000
0000
,
0000
0000
0000
0000
,
0010
0010
0000
0000
,
0000
0000
0000
0000
,
0001
0001
0000
0000
,
0000
0000
0000
0000
,
0100
0000
0000
0000
,
0010
0000
0000
0000
,
0001
0001
0000
0000
,
0000
0000
0000
0000
,
0010
0010
0000
0000
,
0000
0000
0000
0000
,
1000
1000
0000
0000
,
0001
0000
0000
0000
,
0100
0100
0000
0000
,
0010
0000
0000
0000
,
1000
1000
0000
0000
,
0000
0000
0000
0000
,
0010
0010
0000
0000
,
0000
0000
0000
0000
,
1000
0000
0001
0000
,
1000
0000
0001
0000
,
1001
0000
0000
0000
,
0000
0000
0000
0000
,
0001
0000
0000
0000
,
0100
0000
0000
0000
,
0010
0000
0000
0000
,
1000
0000
0000
0000
,
0100
0000
0000
0000
,
1000
0000
0000
0000
,
0010
0000
0100
0000
,
0001
0000
0000
0000
,
1000
0000
0000
0000
,
0100
0000
0000
0000
,
0010
0000
0000
0000
,
0001
0000
0000
0000
,
0100
0000
0000
0000
,
0001
0000
0000
0000
,
0010
0010
0010
0000
,
0000
0000
1000
0000
,
1001
0000
0000
0000
,
0000
0000
0000
0000
,
0001
0000
0000
0000
,
0000
0000
0000
0000
,
1000
0000
0000
0000
,
0010
0000
0000
0000
,
0100
0000
0000
0000
,
0001
0000
0000
0000
,
1001
0000
0000
0000
,
0000
0000
0000
0000
,
1000
0000
0000
0000
,
0000
0000
0000
0000
,
0001
0000
0000
0000
,
0010
0000
0000
0000
,
0100
0000
0000
0000
,
1000
0000
0000
0000
,
2002
0000
0000
3003
;

//---------------dance-single - ----------------
#NOTES:
     dance-single:
     :
     Easy:
     7:
     0.279020,0.359161,0.104168,0.173613,0.000000,225.000000,213.000000,12.000000,20.000000,0.000000,0.000000,0.279020,0.359161,0.104168,0.173613,0.000000,225.000000,213.000000,12.000000,20.000000,0.000000,0.000000:
0000
0000
0000
0000
,
0000
0000
0000
0000
,
0000
0000
0000
0000
,
0000
0000
0000
0000
,
0002
0000
0000
0010
,
0013
0000
0001
0020
,
0000
0000
0030
0000
,
0002
1000
1003
0200
,
0000
0000
0300
1000
,
0000
0000
0001
0010
,
0002
0000
0000
0103
,
0000
0000
0000
0001
,
2000
0000
0000
3001
,
0001
0000
1000
0020
,
0000
0000
0030
0200
,
0000
0301
0000
2000
,
0000
0000
0000
3000
,
0000
0000
0000
0000
,
1000
0010
0100
0001
,
0010
0001
0100
0000
,
0001
0010
0100
1000
,
0010
1000
0100
0000
,
1000
0100
0001
0100
,
1000
0010
0001
0010
,
1000
0100
0001
1000
,
0000
0000
0000
0000
,
1001
0001
0100
0000
,
0001
0000
0100
1000
,
1000
0100
0001
0000
,
0010
0000
0100
0100
,
0000
0010
0100
1000
,
0010
0000
0100
0001
,
0001
0000
0110
0000
,
1001
0000
0000
0010
,
1001
1000
0100
0100
,
1000
0000
0100
0001
,
0001
0100
1000
1000
,
0010
0000
0100
0100
,
0000
0010
0100
0001
,
0010
0100
0100
1000
,
1000
0000
0110
0000
,
1000
0001
1000
0001
,
1000
0010
0001
0000
,
0001
0010
1000
0100
,
0001
0100
0110
0000
,
0100
1000
1001
0000
,
0001
0010
1000
0000
,
1000
0010
0001
0100
,
0001
0010
0100
1000
,
0010
0100
0001
0000
,
1000
1000
0010
0100
,
0000
0001
0010
0100
,
1000
1000
0010
0100
,
0000
0001
0010
0001
,
2000
0000
3010
1000
,
0000
0001
0010
0100
,
1000
0100
0001
0100
,
1000
0100
1001
0000
,
0001
0001
0010
0100
,
0000
1000
0010
0100
,
0001
0010
0100
0100
,
0000
1000
0010
1000
,
0001
0000
0010
0001
,
0000
1000
0010
0000
,
1000
0010
0001
0010
,
1000
0100
0001
0000
,
1001
0000
0000
0000
,
0000
0000
0000
0000
,
0020
0000
0000
0030
,
0000
0000
0000
0200
,
0000
0300
0000
0000
,
0220
0330
0000
2000
,
3002
0003
0000
2002
,
0000
3003
0000
0000
,
1000
0010
0100
0001
,
1000
0100
1000
0000
,
0001
0010
0100
1000
,
0001
0100
0001
0000
,
0001
0000
0100
0001
,
1000
0100
1000
0000
,
0010
1000
0100
0001
,
0010
1000
0100
0000
,
2002
0000
0000
3003
;

//---------------dance-single - ----------------
#NOTES:
     dance-single:
     :
     Medium:
     11:
     0.403029,0.538742,0.112848,0.104168,0.013021,325.000000,312.000000,13.000000,12.000000,0.000000,0.000000,0.403029,0.538742,0.112848,0.104168,0.013021,325.000000,312.000000,13.000000,12.000000,0.000000,0.000000:
// measure 0
0000
0000
0000
0000
,  // measure 1
0000
0000
0000
0000
,  // measure 2
0000
0000
0000
0000
,  // measure 3
0000
0000
0000
0000
,  // measure 4
0200
0000
0000
1000
,  // measure 5
1300
0100
1000
0002
,  // measure 6
0000
0000
0000
0000
0003
0000
0000
0010
,  // measure 7
0020
0001
0130
0200
,  // measure 8
0000
0000
0300
2000
,  // measure 9
0000
0000
3001
0010
,  // measure 10
0002
0000
0000
0000
0000
0000
0100
0103
,  // measure 11
0000
0000
0000
0000
0000
0000
0001
0200
,  // measure 12
0000
0000
0000
0001
,  // measure 13
0310
0000
0100
0000
0001
0100
2000
0000
,  // measure 14
0000
0000
0000
0000
3000
0000
0100
0001
,  // measure 15
0000
0000
1000
0100
0000
0000
2000
0002
,  // measure 16
0000
0000
0000
3003
,  // measure 17
0000
0000
0000
0000
0000
1000
0010
0100
,  // measure 18
0010
1000
0010
0100
,  // measure 19
0001
0010
0001
0100
,  // measure 20
0010
1000
0100
1000
,  // measure 21
0001
0100
0001
1000
,  // measure 22
0010
0100
1000
0000
0100
0010
0100
0000
,  // measure 23
0010
0001
0100
0000
0100
0010
1000
0000
,  // measure 24
1000
0010
1000
0010
1000
0001
0100
0000
,  // measure 25
0000
0000
0000
0000
,  // measure 26
0001
0000
0010
0000
1000
0000
0000
1000
,  // measure 27
0000
0000
0010
0100
1000
0000
0001
0000
,  // measure 28
0001
0000
0100
0000
1000
0000
0000
1000
,  // measure 29
0000
0000
0100
0010
0001
0010
1000
0000
,  // measure 30
1000
0000
0010
0000
0100
0000
0000
0001
,  // measure 31
0000
0000
0010
1000
0010
0000
0001
0000
,  // measure 32
1000
0000
0010
0100
0001
0010
0001
0010
,  // measure 33
0001
0000
0000
0000
0000
0000
1000
0010
,  // measure 34
1000
0000
0010
0000
0001
0000
0000
0001
,  // measure 35
0000
0000
0010
0100
0001
0000
1000
0000
,  // measure 36
1000
0000
0100
0000
0001
0000
0000
0001
,  // measure 37
0000
0000
0100
0010
1000
0010
0001
0000
,  // measure 38
0001
0000
0010
0000
0100
0000
0000
1000
,  // measure 39
0000
0000
0010
0001
0010
0000
1000
0000
,  // measure 40
0001
0000
0010
0100
1000
0010
1000
0010
,  // measure 41
0000
1000
0000
0100
0000
0000
0000
0000
,  // measure 42
1000
0000
0010
0000
1000
0100
0010
0100
,  // measure 43
0000
0000
0010
0100
1100
0000
0011
0000
,  // measure 44
0001
0000
0100
0000
1000
0100
0010
1000
,  // measure 45
0000
1000
0100
0010
0001
0010
0001
0000
,  // measure 46
1000
0100
0000
1000
0100
0000
0001
0001
,  // measure 47
0100
0000
0010
1000
0010
0000
0001
0000
,  // measure 48
1000
0100
1000
0100
0010
0000
0001
0010
,  // measure 49
0001
0010
0001
1000
0100
0000
1000
0000
,  // measure 50
0001
0000
0010
0000
0100
1000
0100
0000
,  // measure 51
0000
1000
0000
0010
0001
0010
1000
0000
,  // measure 52
0001
0000
0100
0000
0001
0010
1000
0000
,  // measure 53
0000
0000
1000
0000
0000
0000
0010
0000
0100
0000
0000
0100
0000
0000
0100
0000
,  // measure 54
0000
0100
0010
0100
0010
0000
0001
0000
,  // measure 55
0000
0000
0010
0001
0010
0000
0100
0000
,  // measure 56
1000
0100
0010
0100
0000
0000
1000
0010
,  // measure 57
0100
0010
0000
0000
1000
0001
1000
0010
,  // measure 58
0001
0000
0010
0000
0100
1000
0100
0000
,  // measure 59
0000
0010
0000
0100
0010
0100
0001
0000
,  // measure 60
1000
0000
0010
0000
0100
0010
1000
0000
,  // measure 61
1001
0000
0000
1001
0000
0000
1001
0000
1000
0000
0000
0001
0000
0000
1000
0000
,  // measure 62
0100
0000
0000
1000
0000
0000
1100
0000
,  // measure 63
0000
0000
1000
0010
0100
0001
0010
0001
,  // measure 64
1000
0000
1100
0000
0101
0000
1000
0010
,  // measure 65
0000
0100
0001
0000
0010
0001
0100
0001
,  // measure 66
0101
0000
0000
0000
,  // measure 67
0000
0000
0000
0000
,  // measure 68
1010
0000
0000
0000
,  // measure 69
0000
0000
0000
0001
,  // measure 70
0100
0000
0000
0000
,  // measure 71
0101
0000
0000
0100
,  // measure 72
0010
0000
0000
1001
,  // measure 73
0000
0000
0000
0000
,  // measure 74
1000
0010
0100
0001
,  // measure 75
0010
0000
0001
0100
1000
0000
0100
0000
,  // measure 76
0001
0010
0100
1000
,  // measure 77
0010
0000
1000
0100
0001
0000
0100
0000
,  // measure 78
1000
0010
0100
0001
,  // measure 79
0010
0000
0001
0100
0001
0000
0100
0000
,  // measure 80
0001
0010
0100
1000
,  // measure 81
1000
0010
0001
0000
1000
0100
0001
0000
,  // measure 82
2002
0000
0000
3003
;

//---------------dance-single - ----------------
#NOTES:
     dance-single:
     :
     Hard:
     13:
     0.513397,0.718322,0.182293,0.104168,0.112848,414.000000,393.000000,21.000000,12.000000,0.000000,0.000000,0.513397,0.718322,0.182293,0.104168,0.112848,414.000000,393.000000,21.000000,12.000000,0.000000,0.000000:
// measure 0
0000
0000
0000
0000
,  // measure 1
0000
0000
0000
0000
,  // measure 2
0000
0000
0000
0000
,  // measure 3
0000
0000
0000
0000
,  // measure 4
0200
0000
0000
0010
,  // measure 5
0301
0000
0100
0000
0001
0010
0002
0000
,  // measure 6
0000
0000
0000
0000
0000
0000
0000
0000
0003
0000
0000
0000
0000
0000
0010
0001
,  // measure 7
0020
0001
0130
0200
,  // measure 8
0000
0000
0300
2000
,  // measure 9
0000
0000
3001
0010
,  // measure 10
0002
0000
0000
0000
0000
0000
0000
0000
0000
0000
0000
0000
0100
0000
0100
0003
,  // measure 11
0000
0000
0000
0000
0000
0000
0001
0010
,  // measure 12
0200
0000
0000
0010
,  // measure 13
1300
0000
0100
0000
1000
0010
2000
0000
,  // measure 14
0000
0000
0000
0000
3000
0000
0010
1000
,  // measure 15
0000
0000
1000
0100
0000
0000
2000
0002
,  // measure 16
0000
0000
0000
3003
,  // measure 17
0000
0000
0000
0000
0000
0001
0100
1000
,  // measure 18
0001
0010
0100
0001
,  // measure 19
1000
0100
0001
0000
0100
0000
0010
0000
,  // measure 20
1000
0010
0001
0100
,  // measure 21
0001
0100
1000
0000
0100
0000
0010
0000
,  // measure 22
1000
0100
0010
0001
0100
0001
0010
0100
,  // measure 23
1000
0010
0100
0001
0010
1000
0010
0001
,  // measure 24
1000
0000
0010
0000
0100
0000
0001
0000
0100
0001
0100
0001
0100
0000
0000
0000
,  // measure 25
0000
0000
0000
0000
,  // measure 26
0001
0000
0000
0000
0010
0000
0000
0000
0100
0000
1000
0100
1000
0000
0001
0000
,  // measure 27
0100
0001
0100
0000
0001
0000
0010
0000
0100
0000
0000
0000
0100
0000
0000
0000
,  // measure 28
1000
0000
0000
0000
0010
0000
0000
0000
0100
0000
0001
0100
0001
0000
1000
0000
,  // measure 29
0100
1000
0100
0000
1000
0000
0010
0000
0100
0000
0001
0000
0100
0000
0010
0000
,  // measure 30
1000
0000
0000
0000
0010
0000
0000
0000
0100
0000
0001
0100
0001
0000
1000
0000
,  // measure 31
0100
1000
0100
0000
1000
0000
0010
0000
0100
0000
1000
0000
0100
0000
0000
0000
,  // measure 32
0001
0000
0010
0100
1000
0010
1000
0100
,  // measure 33
1000
0000
0000
0000
0000
0000
1000
0010
,  // measure 34
1000
0000
0000
0000
0010
0000
0000
0000
0100
0000
0001
0100
0001
0000
1000
0000
,  // measure 35
0100
1000
0100
0000
1000
0000
0010
0000
0100
0000
0000
0000
0100
0000
0000
0000
,  // measure 36
0001
0000
0000
0000
0010
0000
0000
0000
0100
0000
1000
0100
1000
0000
0001
0000
,  // measure 37
0100
0001
0100
0000
0001
0000
0010
0000
0100
0000
1000
0000
0100
0000
0010
0000
,  // measure 38
0001
0000
0000
0000
0010
0000
0000
0000
0100
0000
1000
0100
1000
0000
0001
0000
,  // measure 39
0100
0001
0100
0000
0001
0000
0010
0000
0100
0000
1000
0000
0100
0000
0000
0000
,  // measure 40
1000
0000
0010
0100
0001
0010
0001
0100
,  // measure 41
0001
0010
0100
1000
0010
1000
0100
0000
,  // measure 42
1000
0000
0000
0000
0010
0000
0100
0000
0001
0000
0010
0001
0010
0000
0100
0000
,  // measure 43
1000
0100
1000
0000
0100
0000
1000
0000
0010
0000
0000
0000
0100
0000
0000
0000
,  // measure 44
0001
0000
0010
0000
0100
0000
1000
0000
0100
0000
1000
0100
1000
0000
0001
0000
,  // measure 45
0100
0001
0100
0000
0001
0000
0010
0000
0100
0000
1000
0000
0010
0000
0100
0000
,  // measure 46
0000
0010
0000
1000
0100
0000
0001
0100
,  // measure 47
1000
0000
0001
0010
0001
0000
0010
0000
,  // measure 48
0001
0100
0010
1000
0100
0010
0001
0100
,  // measure 49
0010
0000
1000
0000
0100
1000
0100
0000
1000
0000
0010
0000
0100
0000
0001
0000
,  // measure 50
1000
0000
0010
0000
0001
0010
0100
0000
,  // measure 51
0000
1000
0000
0100
0010
0001
0010
0100
,  // measure 52
1000
0000
0100
0000
0001
0100
0001
0000
,  // measure 53
0000
0001
0000
0100
0010
1000
0010
0100
,  // measure 54
0001
0000
0000
0000
0001
0010
0001
0000
0100
0000
0000
0000
0101
0000
0000
0000
,  // measure 55
0000
0000
0001
0010
0100
1000
0010
1000
,  // measure 56
0001
0000
0010
0000
0100
1000
0100
0000
1000
0000
0010
0000
1000
0000
0100
0000
,  // measure 57
0010
0001
0010
0000
0001
0000
0100
0000
0101
0000
0000
0000
1100
0000
0000
0000
,  // measure 58
0001
0000
0010
0000
1000
0010
0100
0000
,  // measure 59
0000
0001
0000
0100
0010
1000
0010
0100
,  // measure 60
0001
0000
0100
0000
1000
0100
1000
0000
,  // measure 61
0001
0000
0000
0100
0000
0000
0010
0100
0010
0000
0000
1000
0000
0000
0100
0000
,  // measure 62
0001
0000
0100
1000
0100
0000
1100
0000
,  // measure 63
0000
0000
1000
0010
0100
0001
0010
0001
,  // measure 64
1100
0000
0101
0000
0001
0000
1000
0100
,  // measure 65
0000
0110
0010
0001
0011
0000
1010
0000
,  // measure 66
0110
0000
0000
0000
,  // measure 67
0000
0000
0000
0000
,  // measure 68
1010
0000
0000
0000
,  // measure 69
0000
0000
0000
0011
,  // measure 70
1100
0000
0000
0000
,  // measure 71
0101
0000
0000
1100
,  // measure 72
1010
0000
0000
1001
,  // measure 73
0000
0000
0000
0000
,  // measure 74
1000
0010
0101
0001
,  // measure 75
0100
0000
0001
0010
1000
0000
0001
0000
,  // measure 76
0100
1000
1100
1000
,  // measure 77
0100
0000
1000
0010
0001
0000
1000
0000
,  // measure 78
0100
0001
0001
0100
,  // measure 79
1000
0000
0100
0010
0001
0000
0010
0000
,  // measure 80
0100
1000
1100
1000
,  // measure 81
0100
0000
0001
0100
0010
0000
0100
0000
,  // measure 82
2002
0000
0000
3003
;

//---------------dance-double - ----------------
#NOTES:
     dance-double:
     :
     Easy:
     7:
     0.281500,0.359161,0.060764,0.121529,0.000000,227.000000,220.000000,7.000000,14.000000,0.000000,0.000000,0.281500,0.359161,0.060764,0.121529,0.000000,227.000000,220.000000,7.000000,14.000000,0.000000,0.000000:
00000000
00000000
00000000
00000000
,
00000000
00000000
00000000
00000000
,
00000000
00000000
00000000
00000000
,
00000000
00000000
00000000
00000000
,
00002000
00000000
00000000
00000010
,
00000010
00000000
00003001
00000200
,
00000000
00000000
00000300
00000000
,
00002000
00013000
00100000
02000000
,
00000000
00000000
03000000
20000000
,
00000000
00000000
31000000
00100000
,
00020000
00000000
00000000
00031000
,
00000100
00000000
00000000
00000001
,
00000200
00000000
00000000
00000000
00000000
00000000
00000000
00000000
00000000
00000000
00000000
00000000
00000010
00000000
00000000
00000300
,
00001000
00000000
00010000
02000000
,
00000000
00000000
03000000
20000000
,
00000000
30200000
00000000
00320000
,
00000000
00000000
00000000
00000000
,
00030000
00000000
00000000
00000000
,
00001000
00000010
00000001
00000100
,
00000001
00000010
00001000
00000000
,
00010000
00100000
10000000
01000000
,
10000000
00100000
01000000
00000000
,
00100000
00010000
00001000
00000000
,
00000010
00001000
00010000
00000000
,
00100000
10000000
01000000
00010000
,
00000000
00000000
00000000
00000000
,
00001000
00000000
00000010
00000000
00000001
00000000
00000000
00000001
,
00000000
00000001
00000100
00001000
,
00010000
00000000
00100000
00000000
10000000
00000000
00000000
10000000
,
00000000
10000000
01000000
00010000
,
00001000
00000000
00000010
00000000
00000001
00000000
00000000
00000001
,
00000000
00000001
00000100
00001000
,
00010000
00100000
10000000
01000000
,
00100000
00000000
00000000
00001000
,
00010000
00000010
00001000
00000100
,
00000010
00000001
00000100
00000000
,
00001000
00100000
00010000
01000000
,
00100000
10000000
01000000
00000000
,
00010000
00001000
00010000
00000100
,
00000010
00000001
00000100
00000000
,
00001000
00100000
00010000
00100000
,
10000000
00100000
00010000
00000000
,
00010000
00000000
00100000
00000000
10000000
00000000
00000000
10000000
,
00000000
10000000
00100000
00010000
,
00100000
00000000
00001000
00000000
00010000
00000000
00000000
00001000
,
00000000
00010000
00001000
00001000
,
00010000
00100000
10000000
10000000
,
01000000
10000000
01000000
00000000
,
00010000
01000000
10000000
01000000
,
00100000
00001000
00010000
00000000
,
00001000
00000010
00000001
00000100
,
00000000
00000001
00000010
00001000
,
00010000
00100000
10000000
01000000
,
00000000
10000000
00100000
00010000
,
00001000
00000000
00010000
00001000
,
00000000
00000100
00001000
00010000
,
01000000
10000000
01000000
00010000
,
01000000
00010000
00011000
00000000
,
00010000
00100000
10000000
01000000
,
00000000
10000000
00100000
00010000
,
00001000
00000010
00000001
00000100
,
00000101
00000000
00001010
00000000
,
00011000
00000000
00100000
10000000
,
00000000
01000000
00010000
00001000
,
00000100
00000001
00000100
00001000
,
00000100
00001000
00011000
00000000
,
00011000
00000000
00000000
00000000
,
00000000
00000000
00000000
00000000
,
00100000
00000000
00000000
00000000
,
00000000
00000000
00000000
00001000
,
00010000
00000000
00000000
00000000
,
00000010
00000000
00000000
00010000
,
00001000
00000000
00000000
00200000
,
00000000
00000000
00000000
00300000
,
00001000
00000010
00000001
00000100
,
00000001
00000010
00001000
00000000
,
00010000
00100000
10000000
00100000
,
00010000
00001000
00010000
00000000
,
00001000
00000010
00000001
00000000
,
00000001
00000010
00001000
00000000
,
00010000
00100000
10000000
01000000
,
00010000
00001000
00000100
00000000
,
00022000
00000000
00000000
00033000
;

//---------------dance-double - ----------------
#NOTES:
     dance-double:
     :
     Medium:
     11:
     0.393109,0.502826,0.069445,0.147571,0.008681,317.000000,309.000000,8.000000,17.000000,0.000000,0.000000,0.393109,0.502826,0.069445,0.147571,0.008681,317.000000,309.000000,8.000000,17.000000,0.000000,0.000000:
00000000
00000000
00000000
00000000
,
00000000
00000000
00000000
00000000
,
00000000
00000000
00000000
00000000
,
00000000
00000000
00000000
00000000
,
00020000
00000000
00000000
00030100
,
00000010
00000001
00000100
00002000
,
00000000
00000000
00000000
00000000
00003000
00000000
00000000
00010000
,
00100000
10000000
01000000
00020000
,
00000000
00000000
00030000
00002000
,
00000000
00000000
00003100
00000001
,
00000020
00000000
00000000
00001030
,
00010000
00000000
00000000
00010000
,
00200000
00000000
00000000
10000000
,
01300000
00100000
00010000
00002000
,
00000000
00000000
00000000
00000000
00003000
00000000
00000010
00000001
,
00000000
00000000
00000100
00000001
00000000
00000000
00002000
00000002
,
00000000
00000000
00000000
00000000
,
00003003
00000000
00000000
00000000
00000000
00000001
00000010
00001000
,
00010000
00100000
10000000
01000000
,
10000000
00100000
00010000
00001000
,
00000010
00000001
00000100
00000001
,
00000010
00000000
00000100
00000000
00010000
00000000
00000000
00001000
,
00010000
01000000
10000000
00000000
01000000
00100000
01000000
00000000
,
00100000
01000000
00010000
00000000
00001000
00000100
00000010
00000000
,
00000001
00000010
00000001
00000010
00000100
00001000
00010000
00000000
,
00000000
00000000
00000000
00000000
,
00001000
00000000
00000100
00000000
00000001
00000000
00000000
00000010
,
00000000
00000000
00000001
00000100
00000001
00000000
00000010
00000000
,
00001000
00000000
00010000
00000000
01000000
00000000
00000000
00100000
,
00000000
00000000
00010000
01000000
10000000
01000000
00010000
00000000
,
01000000
00000000
00001000
00000000
00010000
00000000
00000000
00000010
,
00000000
00000000
00001000
00000100
00000010
00000000
00001000
00000000
,
00010000
00000000
00100000
10000000
00100000
10000000
00100000
10000000
,
01000000
00000000
00000000
00000000
00000000
00000000
10000000
00100000
,
00010000
00000000
00001000
00000000
00010000
00000000
00000000
00100000
,
00000000
00000000
10000000
01000000
10000000
00000000
00100000
00000000
,
00010000
00000000
00001000
00000000
00000100
00000000
00000000
00000010
,
00000000
00000000
00001000
00000100
00000001
00000100
00001000
00000000
,
00000100
00000000
00010000
00000000
00001000
00000000
00000000
00100000
,
00000000
00000000
00010000
01000000
00100000
00000000
00010000
00000000
,
00001000
00000000
00000010
00000001
00000010
00000001
00000010
00000001
,
00000000
00000100
00000000
00001000
00010000
00100000
01000000
00100000
,
10000000
00000000
00100000
10000000
01000000
10000000
00000000
00100000
,
01000000
00000000
00010000
00100000
01000000
00000000
00010000
00000000
,
00001000
00000000
00000010
00000001
00000100
00000001
00000000
00000010
,
00000100
00000000
00001000
00000010
00000100
00000000
00001000
00000000
,
00010000
00100000
00000000
10000000
01000000
00000000
00100000
01000000
,
10000000
01000000
00100000
00001000
,
00010000
00000000
00001000
00000100
00000001
00000000
00000001
00000010
,
00000100
00000000
00000010
00000000
00000001
00000010
00000100
00001000
,
00000100
00000000
00010000
00000000
00001000
00010000
01000000
00000000
,
00000000
00100000
00000000
00010000
00100000
01000000
00010000
00000000
,
00001000
00000000
00000100
00000000
00000001
00000010
00000001
00000000
,
00000000
00000000
00000010
00000000
00000000
00000000
00001000
00000000
00010000
00000000
00000000
00001000
00000000
00000000
00010000
00000000
,
00001000
00010000
00100000
01000000
10000000
00000000
01000000
00000000
,
00000000
00000000
00100000
00010000
00001000
00000000
00000010
00000000
,
00000001
00000010
00000100
00000000
00001000
00000000
00000010
00001000
,
00000100
00000000
00000010
00000000
00000001
00000100
00001000
00000000
,
00010000
00000000
00001000
00000000
00010000
00001000
00000100
00000000
,
00000000
00000010
00000000
00001000
00000010
00000100
00001000
00000000
,
00010000
00000000
01000000
00000000
10000000
00100000
10000000
00000000
,
00000000
00000000
00100000
00000000
00000000
00000000
00010000
00000000
00001000
00000000
00000000
00010000
00000000
00000000
00001000
00000000
,
00000100
00000000
00000000
00000001
00000000
00000000
00000100
00000000
,
00000010
00000000
00000100
00001000
00010000
00000000
00100000
00000000
,
10000000
00000000
01100000
00000000
00110000
00000000
00001000
00010000
,
00000000
00000100
00001000
00000000
00000110
00000000
00000001
00000000
,
00002002
00000000
00000000
00003003
,
00000000
00000000
00000000
00000000
,
00020020
00000000
00000000
00030030
,
00000000
00000000
00000000
00002000
,
00103000
00000000
00000000
00000000
,
00010100
00000000
00000000
00002000
,
00013000
00000000
00000000
01100000
,
00000000
00000000
00000000
00000000
,
10000000
00100000
01000000
00010000
,
00100000
00000000
00010000
01000000
10000000
00000000
01000000
00000000
,
00100000
00010000
00001000
00000100
,
00000010
00000000
00001000
00000100
00000001
00000000
00000100
00000000
,
00001000
00000010
00000100
00000001
,
00000100
00000000
00001000
00010000
00100000
00000000
01000000
00000000
,
10000000
01000000
00100000
00010000
,
00001000
00000010
00000001
00000000
00001000
00000100
00000001
00000000
,
00000220
00000000
00000000
00000330
;

//---------------dance-double - ----------------
#NOTES:
     dance-double:
     :
     Hard:
     13:
     0.510917,0.682406,0.138890,0.190974,0.108508,412.000000,396.000000,16.000000,22.000000,0.000000,0.000000,0.510917,0.682406,0.138890,0.190974,0.108508,412.000000,396.000000,16.000000,22.000000,0.000000,0.000000:
00000000
00000000
00000000
00000000
,
00000000
00000000
00000000
00000000
,
00000000
00000000
00000000
00000000
,
00000000
00000000
00000000
00000000
,
00002000
00000000
00000000
00103000
,
00010000
00000000
01000000
00000000
00010000
00100000
00002000
00000000
,
00000000
00000000
00000000
00000000
00000000
00000000
00000000
00000000
00003000
00000000
00000000
00000000
00000000
00000000
00100000
00010000
,
00200000
00301000
00010000
00000200
,
00000000
00000000
00000300
00000020
,
00000000
00000000
00000031
00000100
,
00002000
00000000
00000000
00000000
00000000
00000000
00013000
00020000
,
00000000
00000000
00000000
00000000
00030000
00000000
00001000
00100000
,
02000000
00000000
00000000
03100000
,
00010000
00000000
00100000
00000000
10000000
00100000
00020000
00000000
,
00000000
00000000
00000000
00000000
00030000
00000000
10000000
01000000
,
00000000
00000000
00010000
00001000
00000000
00000000
00000020
00000200
,
00000000
00000000
00000000
00000330
,
00000000
00000000
00000000
00000000
00000000
00000001
00000100
00001000
,
00000001
00000010
00000100
00000001
,
00001000
00000100
00000001
00000000
00000100
00000000
00000010
00000000
,
00001000
00010000
00100000
01000000
,
00010000
01000000
10000000
00000000
01000000
00000000
00100000
00000000
,
00010000
00001000
00010000
00001000
00010000
00000100
00010000
00000100
,
00001000
00000010
00001000
00000010
00000100
00000001
00000010
00000001
,
00001000
00000000
00000010
00000000
00000100
00000000
00000001
00000000
00000100
00000001
00000100
00000001
00000100
00000000
00000000
00000000
,
00000000
00000000
00000000
00000000
,
10000000
00000000
00000000
00000000
00100000
00000000
00000000
00000000
01000000
00000000
00010000
01000000
00010000
00000000
00100000
00000000
,
01000000
10000000
01000000
00000000
10000000
00000000
00000000
00000000
01000000
00000000
00000000
00000000
00010000
00000000
00000000
00000000
,
00001000
00000000
00000000
00000000
00000010
00000000
00000000
00000000
00000001
00000000
00000100
00000001
00000100
00000000
00000010
00000000
,
00001000
00000010
00001000
00000000
00000010
00000000
00000100
00000000
00000001
00000000
00000000
00000000
00000100
00000000
00000000
00000000
,
00001000
00000000
00000000
00000000
00010000
00000000
00000000
00000000
00100000
00000000
01000000
10000000
01000000
00000000
00100000
00000000
,
00010000
00100000
00010000
00000000
00100000
00000000
00000000
00000000
00110000
00000000
00000000
00000000
00011000
00000000
00000000
00000000
,
00001000
00000000
00000010
00000001
00000100
00000001
00000010
00000001
,
00000100
00000000
00000000
00000000
00000000
00000000
00000001
00000010
,
00000001
00000000
00000100
00000000
00000010
00000000
00001000
00000000
00000100
00000000
00001000
00000100
00001000
00000000
00000010
00000000
,
00000100
00000001
00000100
00000000
00000001
00000000
00000010
00000000
00000100
00000000
00010000
00000000
00001000
00000000
00000000
00000000
,
00010000
00000000
01000000
00000000
10000000
00000000
00100000
00000000
10000000
00000000
01000000
10000000
01000000
00000000
00100000
00000000
,
00010000
00100000
00010000
00000000
00100000
00000000
01000000
00000000
00010000
00000000
00001000
00000000
00010000
00000000
00001000
00000000
,
00010000
00000000
00000000
00000000
00000010
00000000
00000000
00000000
00010000
00000000
00000100
00001000
00000100
00000000
00010000
00000000
,
00001000
00010000
00001000
00000000
00010000
00000000
00000100
00000000
00001000
00000000
00000000
00000000
00000100
00000000
00000000
00000000
,
00000001
00000000
00000100
00001000
00000100
00010000
00001000
01000000
,
00010000
01000000
10000000
01000000
00100000
10000000
01000000
00000000
,
10000000
00000000
01000000
00000000
00100000
00000000
00010000
00000000
01000000
00000000
00010000
01000000
00010000
00000000
00100000
00000000
,
01000000
10000000
01000000
00000000
10000000
00000000
00100000
00000000
01000000
00000000
00001000
00000000
00010000
00000000
00000000
00000000
,
00001000
00000000
00000100
00000000
00000001
00000000
00000010
00000000
00000001
00000000
00000100
00000001
00000100
00000000
00000010
00000000
,
00001000
00000010
00001000
00000000
00000010
00000000
00000100
00000000
00001000
00000000
00010000
00000000
00001000
00000000
00010000
00000000
,
00001000
00100000
00000000
10000000
00100000
00000000
00010000
01000000
,
10000000
00000000
01000000
00010000
00100000
00000000
00010000
00000000
,
10000000
01000000
00100000
00010000
00110000
00000000
00010000
00000100
,
00001000
00000000
00000100
00000000
00001000
00000010
00001000
00000000
00000010
00000000
00001000
00000000
00000100
00000000
00000000
00000000
,
00000001
00000000
00000100
00000000
00001000
00000010
00001000
00000000
,
00000000
00000100
00000000
00010000
00001000
00010000
00100000
00010000
,
00001000
00000000
00000010
00000000
00000001
00000100
00000001
00000000
,
00000000
00000100
00000000
00000001
00000010
00000001
00000010
00001000
,
00010000
00000000
00000000
00000000
00100000
10000000
00100000
00000000
10000000
00000000
00000000
00000000
10100000
00000000
00000000
00000000
,
00000000
00000000
00100000
01000000
00001000
00010000
00001000
00000100
,
00000010
00000000
00001000
00000000
00000100
00001000
00000100
00000000
00001000
00000000
00000010
00000000
00001000
00000000
00000100
00000000
,
00000010
00000001
00000010
00000000
00000001
00000000
00000100
00000000
00000001
00000000
00000000
00000000
00000100
00000000
00001000
00000000
,
00010000
00000000
01000000
00000000
10000000
01000000
00010000
00000000
,
00000000
01000000
00000000
10000000
01000000
10000000
01000000
00100000
,
00010000
00000000
00100000
00000000
01000000
10000000
01000000
00000000
,
00100000
00000000
00000000
01000000
00000000
00000000
00010000
00000000
00001000
00000000
00000000
00000100
00000000
00000000
00000010
00000000
,
00000100
00000000
00000000
00000001
00000000
00000000
00000010
00000000
,
00001000
00000000
00000010
00000100
00000001
00000100
00001000
00010000
,
00011000
00000000
01100000
00000000
11000000
00000000
10000000
01000000
,
00000000
00100000
00110000
00000000
11000000
00000000
01000000
00100000
,
02000000
00000000
00000000
00000000
,
00000000
00000000
00000000
00000000
,
03020000
00000000
00000000
00000000
,
00000000
00000000
00000000
00031000
,
00002200
00003300
00000000
00000000
,
00000202
00000303
00000000
00001100
,
00020200
00030300
00000000
00202000
,
00000000
00003000
00000000
00000000
,
00310000
00000000
00100000
00000000
10000000
00000000
00100000
01000000
,
10000000
00000000
01000000
00010000
01000000
00000000
00010000
00000000
,
00001000
00000000
00000010
00000000
00000011
00000000
00000001
00000100
,
00001000
00000000
00000100
00001000
00000100
00000000
00001000
00000000
,
00010000
00000000
00100000
00000000
10100000
00000000
10000000
01000000
,
00010000
00000000
10000000
00100000
00010000
00000000
01000000
00000000
,
00100000
00010000
00001000
00000100
,
00000001
00000100
00001000
00000001
00000010
00000000
00001000
00000000
,
02000000
00000000
00000000
03000000
;

//---------------dance-single - ----------------
#NOTES:
     dance-single:
     :
     Challenge:
     1:
     0.124009,0.225588,0.069445,0.199655,0.043403,100.000000,92.000000,8.000000,23.000000,0.000000,0.000000,0.124009,0.225588,0.069445,0.199655,0.043403,100.000000,92.000000,8.000000,23.000000,0.000000,0.000000:
// measure 0
0000
0000
0000
0000
,  // measure 1
0000
0000
0000
0000
,  // measure 2
0000
0000
0000
0000
,  // measure 3
0000
0000
0000
0000
,  // measure 4
1002
0000
0000
2003
,  // measure 5
3200
0000
0320
0000
0031
1000
0002
0000
,  // measure 6
0000
0000
0000
0000
0000
0000
0000
0000
0003
0000
0000
0000
0000
0000
1000
0010
,  // measure 7
0200
0000
0302
0000
0013
1000
0020
0000
,  // measure 8
0000
0000
0030
1002
,  // measure 9
0000
0000
0000
0000
0000
0000
0000
0000
0203
0000
0000
0000
0310
1000
0010
0000
,  // measure 10
2000
0000
0000
0000
0000
0000
3001
0201
,  // measure 11
0000
0000
0000
0000
0000
0000
0310
1000
,  // measure 12
1002
0000
0000
0203
,  // measure 13
0320
0000
2030
0000
3001
0010
2000
0000
,  // measure 14
0000
0000
0000
0000
3000
0000
0010
0022
,  // measure 15
0000
0033
0100
0202
0000
0303
1000
2002
,  // measure 16
0000
0000
0000
3003
,  // measure 17
0000
0000
0000
0000
0000
0000
0000
0001
0010
0100
1000
0001
,  // measure 18
1000
0000
1010
0000
0100
0001
0010
0000
,  // measure 19
0100
1000
0001
0000
1000
0001
0100
0000
,  // measure 20
0001
0010
1000
0000
1000
0010
0001
0000
,  // measure 21
0001
0100
1000
0000
1000
0100
0001
0000
,  // measure 22
1000
0010
1000
0001
1000
0100
1000
0010
,  // measure 23
0100
0001
0100
0010
0100
0001
0100
0010
,  // measure 24
1000
0001
1000
0001
1000
0000
0010
0000
0100
0001
0100
0001
0100
0000
0000
0000
;
