#TITLE:Every Day, Every Night (NM STYLE);
#SUBTITLE:;
#ARTIST:LEA DROP feat. Ant Johnston;
#TITLETRANSLIT:;
#SUBTITLETRANSLIT:;
#ARTISTTRANSLIT:;
#GENRE:;
#CREDIT:;
#BANNER:Every Day, Every Night (NM STYLE).png;
#BACKGROUND:Every Day, Every Night (NM STYLE)-bg.png;
#LYRICSPATH:;
#CDTITLE:;
#MUSIC:Every Day, Every Night (NM STYLE).ogg;
#OFFSET:0.000000;
#SAMPLESTART:56.009998;
#SAMPLELENGTH:15.000000;
#SELECTABLE:YES;
#DISPLAYBPM:90.000000;
#BPMS:0.000000=90.000000
;
#STOPS:
;
#BGCHANGES:;
#KEYSOUNDS:;
#ATTACKS:;

//---------------dance-single - ----------------
#NOTES:
     dance-single:
     :
     Beginner:
     3:
     0.104949,0.121970,0.018837,0.009419,0.000000,78.000000,76.000000,2.000000,1.000000,0.000000,0.000000,0.104949,0.121970,0.018837,0.009419,0.000000,78.000000,76.000000,2.000000,1.000000,0.000000,0.000000:
0000
0000
0000
0000
,
0000
0000
0000
0000
,
0000
0000
0000
0000
,
0000
0000
0000
0000
,
0000
0000
0000
0000
,
0010
0010
0010
0000
,
0100
0100
0100
0000
,
0001
0000
0001
0000
,
1000
0000
0000
0000
,
0010
0010
0010
0000
,
0100
0100
0100
0000
,
0001
0000
0001
0000
,
1000
0000
1000
0000
,
0100
0100
0100
0000
,
0010
0010
0010
0000
,
0001
0000
0001
0000
,
1000
0000
1000
0000
,
0100
0100
0100
0100
,
0000
0010
0010
0010
,
0000
0001
0001
0001
,
0002
0000
0000
0003
,
0001
0000
1000
0000
,
1000
0000
0001
0000
,
0010
0000
0100
0000
,
0100
0000
0010
0000
,
1000
1000
0000
1000
,
0000
0100
0000
0100
,
0100
0000
0010
0000
,
0110
0000
0000
0000
,
0001
0001
0001
0000
,
1000
1000
1000
0000
,
0010
0010
0010
0000
,
0010
0000
0010
0000
,
0100
0000
0100
0000
,
1000
1000
0000
0000
,
0001
0001
0000
0000
,
0100
0000
0010
0000
,
0110
0000
0000
0000
,
0000
0000
0000
0000
;

//---------------dance-single - ----------------
#NOTES:
     dance-single:
     :
     Easy:
     4:
     0.143969,0.174242,0.037674,0.000000,0.000000,107.000000,103.000000,4.000000,0.000000,0.000000,0.000000,0.143969,0.174242,0.037674,0.000000,0.000000,107.000000,103.000000,4.000000,0.000000,0.000000,0.000000:
0000
0000
0000
0000
,
0000
0000
0000
0000
,
0000
0000
0000
0000
,
0000
0000
0000
0000
,
0000
0000
0000
0000
,
1000
1000
0100
0100
,
0001
0001
0010
0000
,
0001
0001
0100
0100
,
0110
0000
1001
0000
,
0010
0000
1000
0000
,
0100
0000
0010
0000
,
0001
0000
0010
0000
,
0100
1000
0010
0001
,
0100
0000
0010
0000
,
1000
0000
0001
0000
,
0010
0000
0100
0000
,
1000
0100
0001
0010
,
0100
0010
0100
0000
,
1000
0010
1000
0000
,
0001
0010
0001
0000
,
0010
0100
0000
0000
,
1000
0001
1000
0001
,
0010
0100
0010
0000
,
0100
0010
0100
1000
,
0001
1000
0010
0000
,
0100
0010
0100
0001
,
0010
0001
1000
0000
,
0001
0100
0001
0010
,
0100
0010
0000
0110
,
1000
1000
0100
0010
,
0001
0001
0100
0010
,
1000
1000
0001
0001
,
0010
0000
0100
0000
,
0010
0100
1000
0010
,
0100
0001
0010
0100
,
0010
0001
0100
0010
,
1000
0010
0100
0001
,
1001
0000
0000
0000
,
0000
0000
0000
0000
;

//---------------dance-single - ----------------
#NOTES:
     dance-single:
     :
     Medium:
     6:
     0.213935,0.243939,0.131859,0.084767,0.000000,159.000000,145.000000,14.000000,9.000000,0.000000,0.000000,0.213935,0.243939,0.131859,0.084767,0.000000,159.000000,145.000000,14.000000,9.000000,0.000000,0.000000:
0000
0000
0000
0000
,
0000
0000
0000
0000
,
0000
0000
0000
0000
,
0000
0000
0000
0000
,
0000
0000
0000
0000
,
1000
0100
1000
0100
,
0010
0100
0010
0100
,
0001
0010
0001
0010
,
2002
0000
0000
3003
,
0010
0000
0100
0000
0001
0001
0001
0000
,
1000
0000
0010
0000
1000
1000
1000
0000
,
0001
0100
1000
0010
,
0002
1000
1003
0110
,
0001
0000
0010
0000
0100
0100
0010
0000
,
0100
0000
1000
0000
0010
0010
1000
0000
,
0001
0000
0100
0000
0010
0010
0100
0000
,
1000
1000
0100
0000
0001
0001
0100
0000
,
0010
1000
0100
0110
,
0001
0100
0010
1001
,
0010
0100
1000
0001
,
0220
0000
0000
0330
,
1000
0100
1000
0000
0001
0000
0100
0000
,
0010
1000
0010
0000
0100
0000
0001
0000
,
0010
0001
0010
0000
0100
1000
0100
0000
,
0110
0110
2002
3003
,
0001
0010
0001
0000
1000
0100
1000
0000
,
0001
0100
0001
0000
1000
0010
1000
0000
,
0010
1000
0100
0001
,
2002
0000
0000
3003
,
0010
1000
0010
1000
0010
0000
0100
0000
,
0001
0010
0001
0010
0001
0000
1000
0000
,
0001
0010
0100
0000
1000
0010
0100
0000
,
0110
0100
0010
1000
,
0001
0100
0001
0000
1000
0000
1001
0000
,
0010
0100
0010
0000
1000
0000
1001
0000
,
0010
0001
0100
0000
0010
0000
1001
0000
,
0010
1000
0100
0000
1000
0001
0100
0000
,
0110
0000
0000
0000
,
0000
0000
0000
0000
;

//---------------dance-single - ----------------
#NOTES:
     dance-single:
     :
     Hard:
     9:
     0.335030,0.373326,0.103604,0.047093,0.061220,249.000000,238.000000,11.000000,5.000000,0.000000,0.000000,0.335030,0.373326,0.103604,0.047093,0.061220,249.000000,238.000000,11.000000,5.000000,0.000000,0.000000:
// measure 0
0000
0000
0000
0000
,  // measure 1
0000
0000
0000
0000
,  // measure 2
0000
0000
0000
0000
,  // measure 3
0000
0000
0000
0000
,  // measure 4
0000
0000
0000
0000
,  // measure 5
1000
1000
0100
0000
0010
0010
0001
0000
,  // measure 6
1000
0000
1010
0000
0001
0010
0001
0100
,  // measure 7
0010
0010
1000
0000
0100
0100
0001
0000
,  // measure 8
0220
0000
0330
0000
0100
0010
0100
0010
,  // measure 9
1000
0001
0100
1000
0001
1000
0010
0000
,  // measure 10
0010
1000
0100
1000
0001
0001
0010
0000
,  // measure 11
0010
0001
1000
0001
0100
1000
0010
0000
,  // measure 12
0001
0100
1000
0100
0001
0010
0110
0000
,  // measure 13
1100
1000
0001
0010
0100
1000
0001
0000
,  // measure 14
0100
0010
1000
0001
0100
0010
1000
0000
,  // measure 15
0001
1000
0100
0001
0100
1000
0010
0100
,  // measure 16
0001
0100
0001
0010
0100
0010
0100
1000
,  // measure 17
0010
0100
0001
0010
0100
1000
0001
0110
,  // measure 18
0000
1000
0010
0100
0001
1000
0100
1001
,  // measure 19
0000
0010
0001
0100
0010
1000
0100
1001
,  // measure 20
0220
0000
0000
0330
,  // measure 21
1000
0100
0010
0100
1000
0010
0100
0001
,  // measure 22
1000
0100
0010
1000
0010
0001
1000
0000
,  // measure 23
0100
0010
1000
0001
0010
0100
1000
0010
,  // measure 24
1000
0001
0010
0100
1000
0001
1001
0000
,  // measure 25
1000
0100
1000
0000
0100
0000
0010
0000
0001
0000
0100
0000
0010
0000
0100
0000
,  // measure 26
0001
1000
0100
1000
0001
0010
0100
1000
,  // measure 27
0001
0100
0001
0000
0100
0000
0010
0000
0001
0000
0010
0000
1000
0000
0001
0000
,  // measure 28
0100
0000
0000
0000
0000
0000
0101
1100
,  // measure 29
1000
0000
0100
1000
0001
0000
0010
0000
0001
0000
0100
0000
0010
0000
1000
0001
,  // measure 30
0100
0000
0010
0000
1000
0000
0001
0000
0100
0000
1000
0000
0100
0000
0010
1000
,  // measure 31
0001
0100
0001
0010
0100
1000
0010
0100
,  // measure 32
0001
0001
1000
1000
0001
0001
1000
0000
,  // measure 33
0010
0000
0100
0000
0001
0000
0100
0000
0010
0000
1000
0000
0100
1000
0100
1000
,  // measure 34
0010
0000
0100
0000
0001
0000
1000
0000
0100
0000
1000
0000
0001
0010
0100
0010
,  // measure 35
0001
0000
0001
0000
0100
0000
1000
0000
0100
0000
0001
0000
1000
0100
0010
0100
,  // measure 36
1000
0000
1000
0000
0001
0000
0100
0000
0010
0000
1000
0000
0001
0010
0001
1000
,  // measure 37
0200
0000
0000
0300
;

//---------------dance-double - ----------------
#NOTES:
     dance-double:
     :
     Easy:
     4:
     0.143969,0.174242,0.037674,0.000000,0.000000,107.000000,103.000000,4.000000,0.000000,0.000000,0.000000,0.143969,0.174242,0.037674,0.000000,0.000000,107.000000,103.000000,4.000000,0.000000,0.000000,0.000000:
00000000
00000000
00000000
00000000
,
00000000
00000000
00000000
00000000
,
00000000
00000000
00000000
00000000
,
00000000
00000000
00000000
00000000
,
00000000
00000000
00000000
00000000
,
10000000
10000000
00100000
00100000
,
00010000
00001000
00010000
00000000
,
00001000
00001000
00000100
00000100
,
00000110
00000000
00001001
00000000
,
00000100
00000000
00000001
00000000
,
00000010
00000000
00001000
00000000
,
00010000
00000000
01000000
00000000
,
10000000
00010000
01000000
00100000
,
10000000
00000000
01000000
00000000
,
00010000
00000000
00001000
00000000
,
00000100
00000000
00000001
00000000
,
00000010
00000100
00001000
00000001
,
00000100
00001000
00000100
00000000
,
00000010
00010000
00001000
00000000
,
01000000
00010000
00100000
00000000
,
01000000
10000000
00000000
00000000
,
00100000
00010000
01000000
00001000
,
00010000
00000100
00001000
00000000
,
00000010
00001000
00000100
00010000
,
00001000
01000000
00010000
00000000
,
00100000
00001000
00010000
00000100
,
00001000
00000001
00000010
00000000
,
00000100
00010000
00001000
00100000
,
00010000
01000000
00000000
10010000
,
00010000
00010000
00100000
00001000
,
00010000
00010000
00000100
00001000
,
00000001
00000001
00001000
00001000
,
00000010
00000000
00000100
00000000
,
00001000
00001000
00010000
00100000
,
01000000
01000000
00010000
10000000
,
01000000
01000000
00010000
00001000
,
00000100
00000100
00000001
00001000
,
00001001
00000000
00000000
00000000
,
00000000
00000000
00000000
00000000
;

//---------------dance-double - ----------------
#NOTES:
     dance-double:
     :
     Medium:
     7:
     0.213935,0.243939,0.131859,0.084767,0.000000,159.000000,145.000000,14.000000,9.000000,0.000000,0.000000,0.213935,0.243939,0.131859,0.084767,0.000000,159.000000,145.000000,14.000000,9.000000,0.000000,0.000000:
00000000
00000000
00000000
00000000
,
00000000
00000000
00000000
00000000
,
00000000
00000000
00000000
00000000
,
00000000
00000000
00000000
00000000
,
00000000
00000000
00000000
00000000
,
00001000
00010000
00001000
00010000
,
01000000
00100000
01000000
00100000
,
10000000
01000000
10000000
01000000
,
02200000
00000000
00000000
03300000
,
01000000
00000000
00010000
00000000
00001000
00001000
00001000
00000000
,
00000100
00000000
00000001
00000000
00000010
00000010
00000010
00000000
,
00000001
00001000
00000100
00010000
,
00020000
00001000
00031000
00011000
,
00010000
00000000
00100000
00000000
01000000
01000000
00100000
00000000
,
10000000
00000000
00010000
00000000
01000000
01000000
00010000
00000000
,
00100000
00000000
00001000
00000000
00010000
00010000
00001000
00000000
,
00000100
00000100
00000010
00000000
00001000
00001000
00000001
00000000
,
00001000
00000100
00000010
00001001
,
00000100
00001000
00010000
00011000
,
00010000
01000000
10000000
00100000
,
20020000
00000000
00000000
30030000
,
10000000
00100000
10000000
00000000
00010000
00000000
01000000
00000000
,
00001000
00010000
00001000
00000000
00010000
00000000
00000100
00000000
,
00000010
00000001
00000010
00000000
00000100
00001000
00000100
00000000
,
00001001
00001001
00000220
00000330
,
00000100
00000010
00000100
00000000
00001000
00000100
00001000
00000000
,
00010000
00001000
00010000
00000000
00100000
00010000
00100000
00000000
,
00100000
00010000
01000000
10000000
,
20020000
00000000
00000000
30030000
,
00100000
10000000
01000000
10000000
00010000
00000000
01000000
00000000
,
00001000
00010000
00001000
00010000
00000100
00000000
00000010
00000000
,
00000001
00001000
00000010
00000000
00001000
00000001
00000100
00000000
,
00001001
00000001
00000100
00001000
,
00010000
00001000
00010000
00000000
01000000
00000000
01100000
00000000
,
00010000
10000000
01000000
00000000
00010000
00000000
00011000
00000000
,
00001000
00000100
00000010
00000000
00001000
00000000
00001001
00000000
,
00001000
00000100
00000010
00000000
00000001
00000100
00001000
00000000
,
00011000
00000000
00000000
00000000
,
00000000
00000000
00000000
00000000
;

//---------------dance-double - ----------------
#NOTES:
     dance-double:
     :
     Hard:
     10:
     0.361940,0.407527,0.075348,0.047093,0.141278,269.000000,261.000000,8.000000,5.000000,0.000000,0.000000,0.361940,0.407527,0.075348,0.047093,0.141278,269.000000,261.000000,8.000000,5.000000,0.000000,0.000000:
00000000
00000000
00000000
00000000
,
00000000
00000000
00000000
00000000
,
00000000
00000000
00000000
00000000
,
00000000
00000000
00000000
00000000
,
00000000
00000000
00000000
00000000
,
10000000
10000000
01000000
00000000
00010000
00010000
00100000
00000000
,
00001000
00001000
00010000
00000000
00000100
00000100
00001000
00000010
,
00000100
00000100
00000001
00000000
00001000
00001000
00000100
00000000
,
00020100
00000000
00031000
00000000
00100000
00010000
00100000
00010000
,
01000000
00100000
10000000
01000000
00100000
01000000
00010000
00000000
,
00001000
00010000
00000100
00001000
00000001
00000010
00000100
00000000
,
00001000
00000001
00000100
00001000
00010000
01000000
00100000
00000000
,
00010000
10000000
01000000
00010000
00001000
00000010
00000100
00000000
,
00001001
00000100
00000010
00001000
00000100
00010000
00001000
00000000
,
00010000
00001000
00100000
00010000
01000000
00100000
10000000
00000000
,
00010000
01000000
00001000
00010000
00000010
00001000
00000100
00010000
,
00001000
00100000
00010000
01000000
00001000
00010000
00000100
00001000
,
00000010
00000000
00000100
00000001
00000100
00000000
00000010
00000100
00000010
00000000
00001000
00000010
00001000
00000000
00000100
00000000
,
00000000
00000000
00000100
00001000
00000100
00000000
00010000
00001000
00010000
00000000
00001000
00010000
00001000
00000000
00100000
00000000
,
00000000
00000000
00010000
01000000
00010000
00000000
01000000
00100000
01000000
00000000
00100000
10000000
00100000
00000000
10000000
00000000
,
01000000
00000000
00000000
00020000
00000000
00000000
00002000
00000000
00000000
00000000
00000000
00000000
00033000
00000000
00000000
00000000
,
00000010
00000000
00001000
00000000
00000100
00000000
00000010
00000000
00000001
00001000
00000001
00000000
00000100
00000000
00000000
00000000
,
00001000
00000000
00100000
00000000
00010000
00000000
01000000
00000000
00100000
10000000
00100000
00000000
01000000
00000000
00000000
00000000
,
00010000
10000000
00100000
00010000
00001000
00000010
00000001
00000100
,
00000001
00001000
00000001
00000000
00000110
00000000
00000000
00000000
00001000
00000100
00001000
00000000
00011000
00000000
00000000
00000000
,
00100000
00000000
00010000
00000000
01000000
00000000
00100000
00000000
10000000
00100000
10000000
00000000
01000000
00000000
00010000
00000000
,
00001000
00000000
00000100
00000000
00000010
00000000
00001000
00000000
00000001
00000010
00000001
00000000
00000100
00000000
00001000
00000000
,
00011000
00010000
00001000
00100000
00010000
01000000
00100000
01000000
,
00010000
01000000
00010000
00000000
10000000
00100000
10000000
00000000
01000000
00000000
00100000
00000000
00101000
00000000
00000000
00000000
,
00011000
00000000
00010000
00001000
00000100
00000000
00000010
00000100
00000001
00000000
00001000
00000000
00000100
00000000
00010000
00001000
,
00100000
00000000
00010000
00100000
01000000
00000000
10000000
00000000
00010000
00000000
00100000
00000000
00010000
00000000
10000000
01000000
,
10000000
00000000
01000000
00100000
01000000
00000000
00100000
00010000
00100000
00000000
00001000
00010000
00001000
00000000
00010000
00000000
,
00000010
00001000
00000001
00000100
00001000
00010000
00100000
00010000
,
00001000
00000010
00000001
00001000
00000100
00010000
00001000
00100000
,
00010000
00000000
01000000
00000000
10000000
00000000
00100000
00000000
10000000
00000000
01000000
00000000
00010000
00001000
00010000
00000100
,
00001000
00000001
00000100
00001000
00010000
00001000
00000010
00000001
,
00000100
00000000
00001000
00000000
00010000
00000000
01000000
00000000
10000000
00000000
00100000
00000000
10000000
00100000
10000000
01000000
,
02200000
00000000
00000000
00000000
00000000
03300000
00000000
00000000
,
00000000
00000000
00000000
00000000
;

//---------------dance-single - ----------------
#NOTES:
     dance-single:
     :
     Challenge:
     11:
     0.528782,0.551100,0.301392,0.009419,0.569819,393.000000,361.000000,32.000000,1.000000,0.000000,0.000000,0.528782,0.551100,0.301392,0.009419,0.569819,393.000000,361.000000,32.000000,1.000000,0.000000,0.000000:
// measure 0
0000
0000
0000
0000
,  // measure 1
0000
0000
0000
0000
,  // measure 2
0000
0000
0000
0000
,  // measure 3
0000
0000
0000
0000
,  // measure 4
0000
0000
0000
0000
,  // measure 5
0001
0000
0100
0010
0100
0000
0001
0010
0100
0000
1000
0100
0001
0000
0100
1000
,  // measure 6
0010
0001
0010
1000
0000
0001
0010
0100
1000
0010
1000
0001
0000
0100
0010
1000
,  // measure 7
0010
0100
0001
0010
0000
1001
0000
1010
0000
0000
0010
0100
0000
0001
0100
0010
,  // measure 8
1000
1000
0000
1001
0000
0001
0100
0000
0100
0010
1000
0010
0100
0001
0010
0000
,  // measure 9
1100
0000
1000
0000
0010
0000
0100
0001
0100
0000
0001
0010
0001
0000
1000
0000
,  // measure 10
0100
0000
1000
0010
0001
0010
1000
0000
0001
0000
0100
0001
0100
0000
0010
0000
,  // measure 11
1000
0000
0100
0010
0100
0000
0010
0001
0100
0000
0010
1000
0100
0000
0011
0000
,  // measure 12
0101
0110
1010
1100
0110
0011
1001
0110
,  // measure 13
1001
0000
0001
0100
0001
0100
0010
0100
0000
0010
1000
0010
0000
1000
0100
0010
,  // measure 14
0001
1000
0100
0001
0100
1000
0010
0100
,  // measure 15
0001
0000
0010
0000
0110
0000
0100
0000
1100
0000
0001
1000
0001
0000
0101
0000
,  // measure 16
0110
1010
1100
0110
0011
1001
1001
0110
,  // measure 17
0010
0000
1000
0100
1000
0000
0001
0010
0001
0000
0100
0010
1000
0000
1001
0000
,  // measure 18
0001
0000
0100
1000
0100
0000
0001
0010
0001
0000
0010
0100
1000
0000
1001
0000
,  // measure 19
0000
0000
0010
0100
1000
0000
0100
0001
0100
0000
1000
0010
0001
0000
0010
0000
,  // measure 20
1001
0000
0000
0000
0000
0000
0000
0000
1000
0100
1000
0100
0010
0001
0010
0001
,  // measure 21
0100
0010
1000
0010
0100
0000
0001
0000
0010
0100
1000
0100
0010
0000
0001
0000
,  // measure 22
0100
1000
0100
0001
0010
0000
0100
0000
1000
0010
0001
0010
1000
0000
0010
0000
,  // measure 23
0100
0001
0010
1000
0001
0000
0100
0000
1000
0001
0100
0010
0100
0000
0001
0000
,  // measure 24
1001
0000
1000
0000
0010
0000
0100
0000
0010
0000
1000
0100
1000
0000
0001
0000
,  // measure 25
0010
0001
0010
0100
1000
0000
0001
0000
1000
0100
0001
0100
1000
0000
0010
0000
,  // measure 26
0100
0001
0010
0001
0100
0000
0010
0000
1000
0001
0010
0001
1000
0000
1010
0000
,  // measure 27
0010
0100
0001
0100
0010
0000
0100
0000
0001
0010
0100
0010
0001
0000
1001
0000
,  // measure 28
1000
0100
0010
0001
1000
0100
0010
0001
1000
0100
0010
0001
1000
0000
1010
0000
,  // measure 29
0010
0000
0100
0001
0100
0000
0001
0000
0010
0100
1000
0100
0010
0000
0001
0100
,  // measure 30
0001
0000
1000
0010
1000
0000
0100
0000
0010
0001
1000
0001
0100
0000
0010
1000
,  // measure 31
0100
0000
0010
0001
0100
0000
0010
1000
0100
0010
0001
0100
0001
0000
1000
0100
,  // measure 32
0001
0000
0100
0000
1000
0000
0010
0001
0010
1000
0100
0001
0100
0000
1000
0000
,  // measure 33
0010
0000
0010
0000
0100
0000
0001
0100
0000
0100
0000
0010
1000
0100
1000
0001
,  // measure 34
1000
0000
0010
0000
0100
0001
0100
0000
0001
0000
0010
0000
0100
1000
0010
1000
,  // measure 35
0001
0000
0100
0000
0010
1000
0100
1000
0001
0100
0010
0100
0001
1000
0001
0100
,  // measure 36
0000
0000
0010
0000
1000
0100
0001
0100
1000
0010
0001
0010
1000
0100
0010
0001
,  // measure 37
0200
0000
0000
0300
;
