#TITLE:エンドルフィン;
#SUBTITLE:;
#ARTIST:U1 overground;
#TITLETRANSLIT:Endorphin;
#SUBTITLETRANSLIT:;
#ARTISTTRANSLIT:;
#GENRE:;
#CREDIT:;
#BANNER:Endorphin.png;
#BACKGROUND:Endorphin-bg.png;
#LYRICSPATH:;
#CDTITLE:;
#MUSIC:Endorphin.ogg;
#OFFSET:0.000000;
#SAMPLESTART:39.000000;
#SAMPLELENGTH:15.000000;
#SELECTABLE:YES;
#BPMS:0.000000=160.000000
;
#STOPS:38.000000=0.375000,
181.000000=0.375000
;
#BGCHANGES:;
#KEYSOUNDS:;
#ATTACKS:;

//---------------dance-single - ----------------
#NOTES:
     dance-single:
     :
     Beginner:
     4:
     0.227608,0.310354,0.061960,0.070812,0.000000,180.000000,173.000000,7.000000,8.000000,0.000000,0.000000,0.227608,0.310354,0.061960,0.070812,0.000000,180.000000,173.000000,7.000000,8.000000,0.000000,0.000000:
0000
0000
0000
0000
,
0000
0000
0000
0000
,
0000
0000
0000
0000
,
0000
0000
0000
0000
,
0000
0000
0000
0000
,
0000
0000
0000
0000
,
1000
0000
0001
0000
,
1000
0100
0001
0000
,
0001
0000
1000
0000
,
0001
0100
1000
1000
,
0010
0100
0000
1000
,
0000
0001
0000
1000
,
0100
0010
0000
0100
,
1000
0100
0000
0001
,
0010
0100
0000
0001
,
0000
0100
0000
0001
,
0100
1000
0000
0001
,
0000
1001
0000
0001
,
0010
0100
0000
0001
,
0100
0001
0000
0200
,
0000
0300
0000
0100
,
0001
0100
0000
0010
,
0010
0010
0000
1000
,
0100
1000
0000
0002
,
0003
2000
3000
0200
,
0300
1001
0000
0000
,
0000
0000
0000
1000
,
0001
0100
0000
0001
,
0000
1000
0000
0001
,
1000
0200
0300
1000
,
0010
0100
0000
1000
,
0100
1000
0000
2002
,
0000
0000
3003
1000
,
0001
1000
0000
0001
,
0010
0100
1000
0001
,
0000
0000
0000
0000
,
0010
0000
0001
0000
,
0100
0000
1000
0010
,
0010
0010
0000
0001
,
0001
0001
0000
0100
,
0100
0100
0000
1000
,
1000
1000
0000
0010
,
0010
0001
0001
0100
,
0100
1000
1000
0010
,
0010
0001
0001
0100
,
0100
1000
1000
0000
,
0100
0000
0001
0010
,
0100
0000
0010
0000
,
1001
0000
0100
0100
,
0100
0000
0010
0001
,
0100
0000
0001
1000
,
0100
0000
1001
1001
,
1001
0000
0010
0000
,
0100
0000
1000
0001
,
0000
0000
1000
0001
,
1000
0000
0001
0010
,
0100
0000
0010
0000
,
1000
0000
0010
0001
,
0100
0000
0001
0010
,
0100
0000
0010
0000
,
0010
0000
0010
1000
,
0010
0000
1000
0000
,
0001
0000
1000
0100
,
0001
0000
0000
0001
,
0000
1000
0001
0100
,
0001
0000
0010
0010
,
0001
0001
0100
0100
,
1000
1000
0010
0001
,
0100
1000
0010
0001
,
0100
2000
0000
0000
,
0000
3000
0000
0000
0000
0000
0000
0000
,
0000
0000
0000
0000
;

//---------------dance-single - ----------------
#NOTES:
     dance-single:
     :
     Easy:
     8:
     0.369231,0.429848,0.283246,0.053109,0.000000,292.000000,260.000000,32.000000,6.000000,0.000000,0.000000,0.369231,0.429848,0.283246,0.053109,0.000000,292.000000,260.000000,32.000000,6.000000,0.000000,0.000000:
0000
0000
0000
0000
,
0000
0000
0000
0000
,
0000
0000
0000
0000
,
0000
0000
0000
0000
,
0000
0000
0000
0000
,
0000
0000
0000
0000
,
1000
0011
1000
0100
,
0001
0100
0001
0000
1000
0000
0100
0000
,
0001
1010
0001
0100
,
1000
0100
1000
0000
0110
0000
0010
0000
,
0100
0000
0001
1000
0100
0000
1000
0000
,
0101
0100
1000
0100
,
1000
0000
0000
0001
0100
0000
0100
0000
,
0001
1000
1001
0010
,
0100
0000
1000
0001
0100
0000
0001
0000
,
1100
0100
0100
0010
,
1001
0000
0010
0001
1000
0000
0001
0000
,
1000
0011
1100
0001
,
0001
0000
1000
0001
0100
0000
0001
0000
,
1100
0100
0100
0200
,
0301
0000
0100
1000
,
0010
1000
0100
0001
,
1001
0110
1000
0010
,
0001
0000
0100
0000
1000
0000
0001
1000
,
0000
0100
0000
0010
0000
0100
0000
0010
,
0000
1100
0101
0010
,
0001
0000
1000
0000
0010
0100
0010
0000
,
0100
2000
0000
3010
,
0001
0000
0001
0000
0010
0000
0001
1000
,
0001
0002
0003
0001
,
1000
0000
0001
1000
0100
0000
1000
0000
,
0101
0100
0010
1001
,
1100
0000
0101
0000
0000
0000
0010
0100
,
0010
0010
1001
0010
,
1000
0000
0001
0000
0010
0100
0010
0000
,
0100
0000
2000
0000
0000
0000
3000
0010
,
0000
1000
0000
0100
0000
0001
0000
0010
,
0000
0100
0000
1000
0000
0000
1000
0000
,
1000
0100
0100
1000
,
0001
0000
1000
0001
0100
0000
0100
0000
,
0100
0001
0100
0010
,
0001
0000
0010
0100
0010
0000
0001
0000
,
0001
1000
0100
0001
,
0010
0000
1000
0001
0100
0000
0010
0000
,
0001
0100
1000
0010
,
0001
0100
1000
0001
,
1000
1000
0100
1000
,
0100
1000
0100
0000
1000
0000
0011
0000
,
0000
1100
0000
1001
,
0100
1000
0001
1000
,
0001
1000
0100
0000
1000
0000
0100
0000
,
0001
0010
0001
1001
,
1000
0100
1000
0000
0001
0000
1000
0000
,
0001
0000
1000
0000
0001
0100
0001
0000
,
0100
1000
0001
0001
,
1000
0000
0011
0101
,
1100
0000
2000
3000
,
0010
0000
0100
0001
,
1000
0001
1000
0001
,
0100
0000
1000
0000
1100
0000
0001
0100
,
0000
0000
1000
0100
0000
0000
0001
0100
,
0000
1001
0010
0001
,
1000
0000
0010
0100
0010
0000
0100
0000
,
0002
0000
0000
0000
0003
0010
0000
1000
,
0000
0100
0000
0001
0000
0100
0000
0010
,
0000
0100
0000
0000
1000
0100
1000
0000
,
0001
0001
1000
1000
,
0100
0100
1100
0011
,
1010
0101
1000
0010
,
0001
0000
0000
0100
0000
0000
0000
0000
,
0000
0000
0000
0000
;

//---------------dance-single - ----------------
#NOTES:
     dance-single:
     :
     Medium:
     12:
     0.505796,0.558636,0.123920,0.061960,0.314226,400.000000,386.000000,14.000000,7.000000,0.000000,0.000000,0.505796,0.558636,0.123920,0.061960,0.314226,400.000000,386.000000,14.000000,7.000000,0.000000,0.000000:
0000
0000
0000
0000
,
0000
0000
0000
0000
,
0000
0000
0000
0000
,
0000
0000
0000
0000
,
0000
0000
0000
0000
,
0000
0000
0000
0000
,
1000
0000
0011
0000
1000
0001
0100
0000
,
0001
0010
0001
0000
1000
0000
0100
0000
,
0001
0000
1010
0000
0001
1000
0100
0000
,
1000
0010
1000
0000
0110
0000
0100
0000
,
1000
0000
0010
0000
1000
0000
0001
0000
0000
0000
0000
0000
0100
0000
0000
0000
0000
0000
1000
0000
0000
0100
0000
0000
,
0001
0000
0100
0000
0100
1000
0100
0000
,
1000
0000
0010
0000
1000
0000
0000
0000
0000
0001
0000
0000
0100
0000
0000
0000
0000
0000
0100
0000
0010
0000
0100
0000
,
0001
0000
1000
0001
1000
0100
1000
0000
,
0001
0000
0010
0000
0001
0000
1000
0000
0000
0000
0000
0000
0100
0000
0000
0000
0000
0000
0001
0000
0000
0100
0000
0000
,
1000
0100
0100
0110
,
1001
0000
0000
0000
0000
0000
1000
0000
0000
0001
0000
0000
0100
0000
0000
0000
0000
0000
0001
0000
0010
0000
0100
0000
,
1000
0000
0001
1000
0001
0100
0001
0000
,
0001
0000
0010
0000
0001
0000
1000
0000
0000
0000
0000
0000
0100
0000
0000
0000
0000
0000
0001
0000
0000
0100
0000
0000
,
1000
0000
0100
0000
0100
0001
0200
0000
,
0301
0000
0000
0000
0000
0000
0000
0000
0000
1000
0000
0000
0100
0000
0000
0000
0000
0000
1000
0000
0010
0000
0100
0000
,
0010
0000
1000
0001
1000
0100
1000
0000
,
1001
0000
0000
0000
0000
0000
0000
0000
0000
0000
0000
0000
0110
0000
0000
0000
0000
0000
0000
0000
0000
0000
0000
0000
0100
0000
0000
0000
0000
0000
0000
0000
0000
0000
0000
0000
1000
0000
0000
0000
0100
0000
0000
0010
0000
0000
0000
0000
,
0001
0000
0100
0000
0001
1000
0001
1000
,
0000
0110
0000
0011
0000
0110
0000
1000
,
0001
0000
0010
0000
0001
0000
1000
0000
0000
0001
0000
0000
1000
0000
0000
0100
0000
0000
0010
0000
0000
0000
0000
0000
,
0001
0000
1000
0100
0010
0001
0010
0001
,
0000
0002
0000
0000
0000
0000
0013
0000
,
0001
0000
0001
0100
0010
1000
0100
0010
,
0001
0010
0002
0000
0003
0000
0001
0000
,
1000
0000
0010
0000
1000
0000
0001
0000
0000
0000
0000
0000
0100
0000
0000
0000
0000
0000
1000
0000
0000
0100
0000
0000
,
0001
0000
0000
0000
0000
0000
0100
0000
0000
0000
0000
0000
0100
0000
0000
1000
0000
0000
0001
0000
0000
0000
0100
0000
,
0000
1000
0000
0100
0000
0001
0000
0100
0000
0001
0000
0000
,
0100
0000
1000
0001
1000
0100
0010
0000
,
0001
0000
0001
0100
0010
1000
0010
1000
,
0001
2000
0000
0000
0001
0000
3000
0001
,
0000
1000
0000
0100
0000
0001
0000
0010
,
0000
0100
0000
1000
0000
0001
1000
0100
,
1000
0001
1000
0100
0010
0100
1000
0001
,
1000
0100
0010
0100
1000
0001
0010
0100
,
0010
0100
1000
0010
1000
0100
1000
0010
,
1000
0100
0010
0001
1000
0100
0010
0100
,
1000
0100
0010
0001
0010
0100
0010
0100
,
0010
0100
1000
0100
0010
0001
0010
0100
,
1000
0100
0010
0100
1000
0100
0001
0100
,
1000
0000
0000
0100
0000
0000
0000
0000
0000
0000
0000
0000
1000
0000
0000
0000
0000
0000
0001
0000
0010
0000
0001
0000
,
1000
0100
0010
1000
0000
0000
0100
0000
0000
1000
0000
0000
,
0100
0000
0000
0010
0000
0000
0000
0000
0000
0000
0000
0000
1000
0000
0000
0000
0000
0000
0001
0000
0010
0000
0001
0000
,
0000
0000
0000
1000
0100
1000
0000
0000
0000
1000
0001
1000
,
0000
0000
0000
1000
0010
0100
0001
0000
0000
1000
0010
0100
,
0001
0010
0001
0000
1000
0000
0100
0000
,
0001
0000
0000
0010
0000
0100
0001
0000
0000
1001
0000
0000
,
1000
0000
0000
0100
0000
0000
1000
0000
0000
0000
0000
0000
0001
0000
1000
0000
0001
0000
1000
0000
0100
0000
0010
0000
,
0001
0000
0000
1000
0000
0000
0001
0010
0001
1000
0100
1000
,
0001
0000
0000
0100
0000
0000
0001
0000
0100
0001
0000
0000
,
1000
0000
0011
0101
,
1100
0000
0000
0000
0000
0000
0000
0000
0000
0000
0000
0000
1000
0000
0010
0000
0100
0000
0001
0000
0000
1000
0000
0000
,
0010
0000
0000
0001
0100
1000
0100
0000
0000
0001
0010
0001
,
1000
0100
1000
0001
0000
0000
1000
0000
0000
0001
0000
0000
,
0100
0000
0000
1000
0000
0010
1000
0000
0000
0001
0010
0001
,
0000
0000
0000
1000
0100
1000
0000
0000
0000
0010
0100
0010
,
0000
0000
0000
1000
0001
0100
0010
0000
0000
1000
0000
0000
,
1000
0100
0010
0001
0010
0001
0000
0002
,
0000
0000
0000
0000
0003
0010
0000
0001
,
0000
0100
0000
1000
0000
0010
0100
0010
,
0001
0000
0000
0000
1000
0001
1000
0001
,
1000
0100
1000
0100
1000
0010
1000
0010
,
1000
0000
0000
0001
0000
0000
1000
0000
0000
0001
0000
0000
1000
0000
0000
0000
0001
0000
0000
0000
0010
0000
0000
0000
,
0100
0000
1000
0000
0100
0000
1000
0000
0001
0000
0100
0000
,
0001
1000
0002
0200
0000
0000
0000
0000
,
0000
0303
0000
0000
0000
0000
0000
0000
;

//---------------dance-single - ----------------
#NOTES:
     dance-single:
     :
     Hard:
     15:
     0.785249,0.993131,0.345206,0.088514,0.827609,621.000000,582.000000,39.000000,10.000000,0.000000,0.000000,0.785249,0.993131,0.345206,0.088514,0.827609,621.000000,582.000000,39.000000,10.000000,0.000000,0.000000:
0000
0000
0000
0000
,
0000
0000
0000
0000
,
0000
0000
0000
0000
,
0000
0000
0000
0000
,
0000
0000
0000
0000
,
0000
0000
0000
0000
,
0010
1000
0001
0000
0010
0000
0001
0000
1000
0000
0001
0000
0100
0000
0001
0000
,
0010
0001
0010
0000
0000
0000
0012
0000
0000
0000
0100
0000
0003
0000
0100
0000
,
0010
0001
1000
0000
0010
0000
1000
0000
0001
0000
1000
0000
0100
0000
1000
0000
,
0010
0000
0000
0000
1000
0000
0000
0000
0010
0000
0000
0000
0000
0000
0000
0000
0000
0000
0000
0000
0000
0000
0000
0000
0220
0000
0000
0000
0000
0000
0000
0000
0000
0330
0000
0000
0000
0000
0000
0000
0000
0000
0000
0000
0000
0000
0000
0000
1001
0000
0000
0000
0000
0000
0000
0000
0000
0000
0000
0000
0000
0000
0000
0000
,
1000
0000
0000
0000
0010
0000
0000
0000
1000
0000
0000
0000
0001
0000
0000
0000
0000
0000
1000
0000
0000
0000
0000
0000
0100
0000
0000
0000
0000
0000
1000
0000
0000
0000
0000
0000
0001
0000
0000
1000
0000
0000
0001
0000
0000
0000
0000
0000
,
0010
0000
0001
0000
1000
0000
0100
1000
0001
0000
0100
0000
1100
0000
0000
0000
,
0001
0000
0010
0000
0001
0000
0000
0000
0000
1000
0000
0000
0110
0000
0000
0000
0000
0000
0100
0000
0010
0000
0100
0000
,
1000
0001
1000
0001
1000
0000
0100
0000
0001
0000
0100
0000
0101
0000
0000
0000
,
1000
0000
0000
0000
0010
0000
0000
0000
1000
0000
0000
0000
0001
0000
0000
0000
0000
0000
1000
0000
0000
0001
0000
0000
0100
0000
0000
0000
0000
0000
0001
0000
0000
0000
0000
0000
1000
0000
0000
0000
0100
0000
0000
0000
0010
0000
0000
0000
,
0001
0000
0100
0000
0000
0000
0001
1000
0100
0000
1000
0000
0110
0000
0000
0000
,
1001
0000
0000
0000
0000
0000
1000
0000
0000
0100
0000
0000
1000
0000
0000
0000
0000
0000
0001
0000
0000
0000
0000
0000
0100
0000
0000
0001
0000
0000
0000
0000
0000
0000
0000
0000
1000
0000
0000
0000
0010
0000
0000
0000
0100
0000
0000
0000
,
0001
0010
0100
1000
0100
0010
0101
0000
,
1000
0000
0010
0000
1000
0000
0001
0000
0000
1000
0000
0000
0100
0000
0000
1000
0000
0000
0001
0000
0000
1000
0000
0000
,
0100
0000
0001
0000
0100
0000
1000
0001
0100
0000
0001
0000
1000
0100
1000
0100
,
0010
0000
0000
0001
0000
0000
0010
0000
0000
0001
0000
0000
0010
0000
0000
0000
0000
0000
0200
0000
0000
0000
0000
0000
1300
0000
0000
0000
0000
0000
0000
0000
0000
0000
0000
0000
0001
0000
0000
0000
0010
0000
0000
0000
0100
0000
0000
0000
,
1000
0010
1000
0010
0100
0000
1000
0000
0100
0000
0001
0000
0101
0000
0000
0000
,
1000
0000
0000
0100
0000
0000
0010
0000
0000
0001
0000
0000
0000
0000
0000
0000
0000
0000
1000
0000
0000
0100
0000
0000
1000
0000
0000
0000
0000
0000
0001
0000
0000
0000
0000
0000
1000
0000
0000
0000
0100
0000
0000
0000
0010
0000
0000
0000
,
0001
0000
0100
0000
1000
0000
0100
0010
0100
0000
0010
0000
0101
0000
1100
0000
,
0000
0000
0110
0000
0000
0000
1010
0000
0001
1000
0010
0000
0100
0000
0001
0000
,
1000
0000
0000
0000
0010
0000
0000
0000
1000
0000
0000
0000
0001
0000
0000
0000
0000
0000
1000
0000
0000
0000
0000
0000
0001
0000
0000
0000
0000
0000
0100
0000
0000
0000
0000
0000
0010
0000
0000
1000
0000
0000
0001
0000
0000
0000
0000
0000
,
1000
0000
0001
0000
1000
0000
0100
0000
0010
0001
0100
0000
0010
0000
1000
0000
,
0001
0000
2000
0000
0000
0000
0100
0000
0000
0000
3001
0000
0001
1000
0010
0000
,
1000
0000
0001
0000
1000
0000
0100
0000
0010
0000
0001
0000
0100
0001
0010
0000
,
0001
0010
0002
0010
0000
0103
0101
0000
,
1000
0000
0010
0000
1000
0000
0001
0000
0000
1000
0000
0000
0100
0000
0000
1000
0000
0000
0001
0000
0000
1000
0000
0000
,
0100
0000
0000
0000
0000
0000
0001
0000
0000
0000
0000
0000
0100
0000
0000
0000
0000
0000
1000
0000
0000
0001
0000
0000
0100
0000
0000
0000
0000
0000
0001
0000
0000
0000
0000
0000
1000
0000
0000
0000
0100
0000
0000
0000
0010
0000
0000
0000
,
0001
0000
0010
0000
0100
0000
1000
0000
0001
0000
0010
0000
0001
0000
0000
0000
0000
0000
0001
0000
0000
0010
0000
0000
,
0001
0000
0100
0000
0001
0000
0000
0000
0100
0000
0001
0000
0010
0001
1000
0000
,
0001
0000
1000
0000
0001
0000
0100
0000
0010
1000
0010
0000
1000
0000
0010
0000
,
1000
2000
0000
0001
0000
0100
3000
1010
,
0000
0101
0000
0110
0000
1010
0000
0110
,
0000
0000
0100
0000
0001
0000
1000
0000
0001
0000
0100
0000
0001
0000
1000
0001
,
1000
0000
0001
1000
0001
0000
0010
0000
0001
0000
1000
0000
0001
0000
0100
0010
,
0100
0000
0001
0010
0100
0000
0010
0000
0001
0000
0100
0000
0001
0000
1000
0010
,
1000
0000
0001
0010
0001
0000
0010
0000
0001
0100
0001
0100
0001
0000
1000
0010
,
1000
0000
0100
0010
0100
0000
0010
0000
0001
0100
0001
0100
0001
0000
1000
0001
,
0100
0000
0001
0010
0100
0000
1000
0000
0010
1000
0010
1000
0010
0000
0100
0010
,
0100
0000
0001
0010
0001
0000
0010
0000
0001
0010
0001
0010
0100
0010
0100
0010
,
0100
1000
0100
1000
0001
0010
0001
0010
0001
0100
0001
0100
0010
1000
0100
0010
,
0001
0000
0000
0100
0000
0000
0010
0000
0000
0000
0000
0000
0000
0000
0000
0000
0000
0000
0000
0000
0000
0000
0000
0000
1100
0000
0000
0000
0000
0000
0000
0000
0000
0000
0000
0000
1000
0000
0000
0000
0010
0000
0000
0000
1000
0000
0000
0000
,
0001
0100
0010
1000
0000
1000
0100
0000
0010
0001
0000
0001
,
0100
0000
0000
0000
0000
0000
0001
0000
0000
1000
0000
0000
0001
0000
0000
0000
0000
0000
0000
0000
0000
0000
0000
0000
1100
0000
0000
0000
0000
0000
0000
0000
0000
0000
0000
0000
1000
0000
0000
0000
0010
0000
0000
0000
1000
0000
0000
0000
,
0001
0000
0000
1000
0000
0000
0001
0000
0100
0000
0001
0000
0010
0000
0100
0000
0010
0000
0001
0000
1000
0000
0001
0000
,
0100
0000
0000
0001
0000
0000
1000
0000
0010
0000
0100
0000
0101
0000
0000
0000
0000
0000
0001
0000
0010
0000
0100
0000
,
1000
0000
0000
0010
0000
0000
1000
0000
0000
0010
0000
0000
1000
0000
0000
0000
0000
0000
0001
0000
0000
0100
0000
0000
0001
0000
0000
0000
0000
0000
0000
0000
1000
0000
0000
0000
0100
0000
0000
0000
0000
0000
0000
0000
0010
0000
0000
0000
,
1000
0000
0000
0100
0000
0000
0010
0000
0000
0001
0000
0000
0010
0000
0000
0000
0000
0000
0000
0000
0100
0000
0000
0000
1100
0000
0000
0000
0000
0000
0000
0000
0000
0000
0000
0000
0001
0000
0000
1000
0000
0000
0001
0000
0000
1000
0000
0000
,
0001
0000
0000
0100
0000
0000
0011
0000
0000
0000
0000
0000
1000
0000
0010
0000
0100
0000
0001
0000
0100
0000
0010
0000
,
1000
0000
0000
0100
0000
0000
0010
0000
0000
0001
0000
0000
1000
0000
0010
0000
1000
0000
0001
0000
0100
0000
0001
0000
,
1000
0000
0010
0100
0000
0001
1000
0000
0100
1000
0000
0001
,
1000
0000
0000
0000
0000
0000
0100
0000
0000
1000
0000
0000
0000
0000
0000
0000
0000
0000
0000
0000
0001
0000
0000
0000
0010
0000
0000
0000
0001
0000
0000
0000
0000
0000
0000
0000
0001
0000
0000
0000
0100
0000
0000
0000
0000
0000
0000
0000
,
0100
0000
0000
0000
1000
0000
0000
0000
0000
0000
0000
0000
0010
0000
0000
0001
0000
0000
0010
0000
0000
0001
0000
0000
1000
0000
0000
0000
0100
0000
0000
0000
1000
0000
0000
0000
0010
0000
0000
0100
0000
0000
0010
0000
0000
0100
0000
0000
,
0001
0000
0000
1000
0000
0000
0001
0000
0100
0000
1000
0000
0100
0000
0000
0001
0000
0000
1000
0000
0010
0000
1000
0000
,
0001
0100
0001
1000
0001
0100
0001
0000
0100
0001
0000
0010
,
0100
0000
0000
0000
0000
0000
0010
0000
0000
0001
0000
0000
1000
0000
0000
0000
0000
0000
0000
0000
0100
0000
0000
0000
0101
0000
0000
0000
0000
0000
0000
0000
0000
0000
0000
0000
1000
0000
0000
0000
0010
0000
0000
0000
1000
0000
0000
0000
,
0001
0000
0000
0010
0000
0000
0001
0000
0100
0000
0001
0000
1000
0000
0001
0000
1000
0000
0010
0000
0100
0000
0010
0000
,
1000
0000
0000
0000
0000
0000
0001
0000
0000
0000
0000
0000
1000
0000
0000
0000
0001
0000
0000
0000
0100
0000
0000
0000
0010
0000
0000
1000
0000
0000
0001
0000
0000
0000
0000
0000
0001
0000
0000
0000
0000
0000
0010
0000
0000
0000
0000
0000
,
0001
0000
0100
0010
1000
0000
0010
0000
1000
0000
0001
0000
0010
0000
0002
0000
,
0000
1000
0000
0010
0003
1010
0000
0101
,
0000
0110
0000
1010
0000
0010
0100
0010
,
1000
0000
0100
0000
0010
0000
0001
0000
1000
0010
1000
0010
0100
0001
0100
0001
,
1000
0100
1000
0100
0001
0100
0001
0100
1000
0010
1000
0010
0001
0010
0001
0010
,
1000
0000
0000
0001
0000
0000
1000
0000
0000
0001
0000
0000
0010
0000
0000
0000
0000
0000
1000
0000
0000
0000
0000
0000
1100
0000
0000
0000
0000
0000
0000
0000
0011
0000
0000
0000
0000
0000
0000
0000
0110
0000
0000
0000
0000
0000
0000
0000
,
1100
0000
1001
0000
0110
0000
1010
0000
0011
0000
0110
0000
,
0001
1000
0002
0200
0000
0000
0000
0000
,
0000
0303
0000
0000
0000
0000
0000
0000
;

//---------------dance-double - ----------------
#NOTES:
     dance-double:
     :
     Easy:
     8:
     0.356586,0.399145,0.088514,0.256692,0.026554,282.000000,272.000000,10.000000,29.000000,0.000000,0.000000,0.356586,0.399145,0.088514,0.256692,0.026554,282.000000,272.000000,10.000000,29.000000,0.000000,0.000000:
00000000
00000000
00000000
00000000
,
00000000
00000000
00000000
00000000
,
00000000
00000000
00000000
00000000
,
00000000
00000000
00000000
00000000
,
00000000
00000000
00000000
00000000
,
00000000
00000000
00000000
00000000
,
00000001
00001000
00000100
00000010
,
00000001
00000010
00001000
00010000
,
00001000
00010000
00100000
10000000
,
01000000
00100000
10010000
00000000
,
20000000
00000000
30010000
00100000
01000000
00000000
01000000
00000000
,
00010000
00001000
00000010
00000000
,
00000002
00000000
00001003
00000000
00001000
00000000
00000010
00000100
,
00000010
00000000
00001000
00000001
00001000
00000000
00000000
00000000
,
00000020
00000130
00001000
00010000
,
00001000
00011000
00000000
00000000
,
00200000
00000000
10300000
00010000
10000000
00000000
01000000
00000000
,
00100000
00000000
00010000
10000000
00010000
00000000
00000000
00000000
,
02000000
00000000
03010000
10000000
01000000
00000000
00100000
00000000
,
00010000
00001000
00000100
00000020
,
00000032
00000000
00001003
00000000
00001000
00000000
00000010
00000100
,
00000010
00001001
00000000
00000000
,
00000200
00001300
00010000
00001000
,
00010000
00000000
00100000
00000000
10000000
00000000
00010000
10000000
,
00000000
01000000
00000000
00010000
00000000
00001000
00000000
00000010
,
00000001
00001000
00001001
00000001
,
00000001
00000000
00000100
00000001
00000100
00000000
00000010
00000000
,
00000010
00000000
00001000
00000100
00001000
00000000
00000001
00000000
,
00000100
00000000
00001000
00010000
00001000
00000000
00100000
00000000
,
00100000
00000000
00001000
00010000
00001000
00000000
00000000
00000000
,
00020000
00000000
01030000
00000000
10000000
00000000
00010000
10000000
,
00010000
00000000
01000000
00100000
01000000
00000000
00020000
00000000
,
20030000
32000000
03100000
00010000
,
00100000
00010000
00001000
00000100
,
00000010
00000000
00000001
00001000
00000001
00000000
00000100
00000000
,
00000010
00000000
00001000
00000001
00001000
00000000
00000001
00000100
,
00000000
00001000
00000000
00010000
00000000
00100000
00000000
10000000
,
10000000
00010000
10010000
10000000
,
01000000
00000000
00010000
00001000
00010000
00000000
00000100
00000000
,
00000010
00000000
00000001
00000010
00000100
00000000
00001000
00000000
,
00000001
00000000
00000100
00000010
00001000
00000000
00010000
00000000
,
00100000
00000000
01000000
00100000
00010000
00000000
10000000
01000000
,
10000000
00000000
01000000
00100000
01000000
00000000
00100000
00010000
,
00100000
00000000
00010000
01000000
00010000
00000000
00100000
00000000
,
01000000
10000000
01000000
00010000
,
00001000
00011000
00000000
00002000
,
00003020
00000000
00000031
00000000
00000100
00000000
00000010
00000100
,
00000010
00000000
00000000
00000002
,
00001003
00002000
00003010
00000020
,
00000130
00001001
00000000
00000020
,
00001030
00010000
01000000
00100000
,
10010000
00000000
20000000
30020000
,
00130000
01000000
00100000
00000000
00020000
00000000
20030000
00000000
,
30010000
00000000
20000000
32000000
,
03010000
00001000
00000010
00000001
,
00001001
00000000
00000010
00000100
,
00000010
00000000
00000000
00000000
00001001
00000000
00000100
00000010
,
00000100
00000000
00000000
00000002
,
00000203
00001300
00010000
00100000
,
01000000
00000000
00000000
20000000
,
30100000
00020000
01030000
02000000
,
03100000
00000000
01000000
00100000
,
10000000
00010000
10000000
00000000
01000000
00000000
00100000
00000000
,
00010000
10000000
00010000
00000000
10000000
01000000
00000000
00010000
,
00000000
00001000
00000000
00000010
00000000
00000001
00000000
00000100
,
00000000
00001000
00000000
00010000
00100000
10000000
00100000
00000000
,
01000000
00010000
01000000
00000000
00010000
10000000
00010000
00000000
,
00100000
00000000
00000000
01000000
00000000
00000000
00100000
00000000
00000000
00000000
00000000
00000000
10000000
00000000
00000000
00000000
01000000
00000000
00000000
00000000
10000000
00000000
00000000
00000000
,
01000000
00100000
01000000
00010000
00001000
00010000
,
00001000
00000100
00000010
00000001
00000000
00000000
00000000
00000000
,
00000000
00000000
00000000
00000000
;

//---------------dance-double - ----------------
#NOTES:
     dance-double:
     :
     Medium:
     12:
     0.534880,0.558636,0.203583,0.185880,0.212435,423.000000,400.000000,23.000000,21.000000,0.000000,0.000000,0.534880,0.558636,0.203583,0.185880,0.212435,423.000000,400.000000,23.000000,21.000000,0.000000,0.000000:
00000000
00000000
00000000
00000000
,
00000000
00000000
00000000
00000000
,
00000000
00000000
00000000
00000000
,
00000000
00000000
00000000
00000000
,
00000000
00000000
00000000
00000000
,
00000000
00000000
00000000
00000000
,
00000001
00001000
00000010
00000100
00000001
00001000
00000100
00000000
,
00000010
00001000
00010000
01000000
10000000
01000000
00100000
00000000
,
00010000
10000000
00100000
01000000
00010000
10000000
01000000
00010000
,
00001000
00000010
00000001
00000100
00000000
00000000
00001001
00000000
,
00001000
00000000
00000010
00000000
00001000
00000000
00000002
00000000
00000000
00000000
00000000
00000000
00000103
00000000
00000000
00000000
00000000
00000000
00000001
00000000
00000000
00000010
00000000
00000000
,
00000100
00001000
00011000
01100000
,
10000000
00000000
00010000
00000000
10000000
00000000
02000000
00000000
00000000
00000000
00000000
00000000
03100000
00000000
00000000
00000000
00000000
00000000
10000000
00000000
00000000
01000000
00000000
00000000
,
00100000
00000000
00010000
00001000
00010000
00000000
00000110
00000000
,
00001000
00000001
00001000
00000200
00000000
00000000
00000310
00000000
00000000
00000001
00001000
00000001
,
00001000
00000000
00000010
00001000
00010000
01000000
01100000
00000000
,
10010000
00000000
00000000
00000000
00000000
00000000
10000000
00000000
00000000
01000000
00000000
00000000
00010000
00000000
00000000
00000000
00000000
00000000
10000000
00000000
00010000
00000000
10000000
00000000
,
01000000
00000000
00010000
00001000
00000010
00000001
00001001
00000000
,
00000200
00000000
00000301
00000010
00000001
00000000
00000010
00001000
,
00010000
00000000
00100000
10000000
00010000
01000000
00200000
00000000
,
02300000
00000000
03010000
10000000
00010000
00000000
00200000
00000000
,
01300000
00000000
10000000
01000000
00010000
00000000
00001000
00010000
,
00001000
00000000
00000000
00000000
00000000
00000000
00000010
00000000
00000000
00000001
00000000
00000000
00001000
00000000
00000000
00000000
00000000
00000000
00000001
00000000
00001000
00000000
00000001
00000000
,
00000010
00000100
00001000
00000100
00000010
00000000
00001000
00000001
,
00000000
00000010
00000000
00001000
00000000
00010000
00000000
00100000
,
10000000
00000000
01100000
00000000
10010000
00000000
10000000
01000000
,
10000000
00000000
01000000
00010000
01000000
00000000
00010000
00001000
,
00010000
00000000
00001000
00000010
00001000
00000010
00000001
00000100
,
00000001
00000000
00000100
00001000
00000100
00000000
00001000
00010000
,
00001000
00000000
00010000
01000000
00010000
01000000
01100000
00000000
,
10000000
00000000
00010000
00000000
10000000
00000000
00200000
00000000
00000000
00000000
00000000
00000000
01300000
00000000
00000000
00000000
00000000
00000000
10000000
00000000
00000000
01000000
00000000
00000000
,
00010000
00000000
00001000
00000010
00000100
00000000
00002000
00000000
,
00003002
00000000
00000203
00000000
00000310
00000000
00001000
00000100
,
00000010
00000000
00000001
00000100
00001000
00000000
00000001
00000100
,
00000001
00000000
00000100
00001000
00000100
00000000
00001000
00010000
,
00001000
00000000
00010000
00100000
00010000
00100000
10000000
01000000
,
00000000
00010000
00000000
00001000
00000000
00000010
00000000
00000001
,
00001000
00000000
00000010
00000000
00000100
00000000
00000001
00000010
,
00001000
00010000
00000010
00001000
00010000
01000000
00100000
10000000
,
00010000
01000000
00100000
10000000
01000000
00010000
00001000
00010000
,
01000000
10000000
00010000
01000000
00100000
10000000
01000000
00010000
,
00001000
00010000
00001000
00000010
00000001
00000100
00000001
00000010
,
00001000
00010000
00000100
00000001
00000100
00001000
00000010
00000100
,
00000001
00001000
00000010
00000100
00001000
00010000
00100000
10000000
,
00100000
01000000
00010000
10000000
01000000
00100000
00010000
00001000
,
00000100
00000000
00000000
00000010
00000000
00000000
00000000
00000000
00000000
00000000
00000000
00000000
00000110
00000000
00000000
00000000
00000000
00000000
00000001
00000000
00001000
00000000
00000001
00000000
,
00001000
00000000
00000001
00000000
00001000
00000000
00000001
00000000
00000000
00000000
00000000
00000000
00000100
00000000
00000000
00001000
00000000
00000000
00001100
00000000
00000000
00000000
00000000
00000000
,
00020000
00000000
00000000
01030000
00000000
00000000
01100000
00000000
00000000
10000000
00010000
10000000
,
00000000
00000000
00000000
00010000
10000000
00010000
00000000
00000000
00000000
10000000
00010000
10000000
,
01000000
00000000
00000000
00010000
00000000
00000000
00001000
00000000
00000000
00000000
00000000
00000000
00000110
00000000
00000000
00000000
00000000
00000000
00000001
00000000
00001000
00000000
00000001
00000000
,
00000200
00000320
00002030
00003001
,
00000010
00001000
00010000
00000000
01100000
00000000
01100000
00000000
,
10000000
00000000
00000000
00010000
00000000
00000000
10010000
00000000
00000000
00000000
00000000
00000000
01000000
00000000
00010000
00000000
01000000
00000000
00001000
00000000
00010000
00000000
00001000
00000000
,
00000100
00000001
00001000
00000000
00000020
00000000
00000230
00000000
,
00000301
00000000
00001001
00000000
00000001
00000100
00001000
00000000
,
00010000
00001000
00010000
00000000
01100000
00000000
10010000
00000000
,
01100000
00000000
00000000
00020000
00000000
00000000
10030000
01000000
10000000
01000000
00000000
00000000
,
00100000
00000000
00000000
00010000
00000000
00000000
00001000
00000000
00000000
00000000
00000000
00000000
00000110
00000000
00000000
00000000
00000000
00000000
00000001
00000000
00001000
00000000
00000001
00000000
,
00001000
00000000
00000001
00000000
00001000
00000000
00000001
00000000
00000000
00000000
00000000
00000000
00000100
00000000
00000000
00001000
00000000
00000000
00010000
00000000
00000000
00000000
00000000
00000000
,
00100000
00000000
00000000
01000000
00000000
00000000
00100000
00000000
00000000
00000000
00000000
00000000
10010000
00000000
00000000
00000000
00000000
00000000
00100000
00000000
01000000
00000000
00100000
00000000
,
00000000
00000000
00000000
10000000
00010000
10000000
00000000
00000000
00000000
01000000
00100000
01000000
,
20000000
00000000
30010000
00000000
10000000
01000000
10000000
00000000
,
01000000
00010000
01000000
00000000
00010000
00001000
00010000
00000000
,
00001000
00000010
00001000
00000010
00000001
00000100
00000000
00001000
,
00000000
00010000
00000000
00100000
00000000
10000000
00000000
01000000
,
00000000
00010000
00000000
00001000
00000010
00000001
00000010
00000100
,
00001000
00000001
00000100
00001000
00010000
00001000
00010000
00100000
,
10000000
00000000
00000000
01000000
00000000
00000000
00100000
00000000
00000000
00010000
00000000
00000000
10000000
00000000
00000000
00000000
01000000
00000000
00000000
00000000
00010000
00000000
00000000
00000000
,
00001000
00000010
00000001
00000100
00001000
00010000
,
00100000
10000000
02000000
00200000
00000000
00000000
00000000
00000000
,
00000000
03300000
00000000
00000000
00000000
00000000
00000000
00000000
,
00000000
00000000
00000000
00000000
;

//---------------dance-double - ----------------
#NOTES:
     dance-double:
     :
     Hard:
     15:
     0.703057,0.868990,0.495681,0.584195,0.610749,556.000000,500.000000,56.000000,66.000000,0.000000,0.000000,0.703057,0.868990,0.495681,0.584195,0.610749,556.000000,500.000000,56.000000,66.000000,0.000000,0.000000:
00000000
00000000
00000000
00000000
,
00000000
00000000
00000000
00000000
,
00000000
00000000
00000000
00000000
,
00000000
00000000
00000000
00000000
,
00000000
00000000
00000000
00000000
,
00000000
00000000
00000000
00000000
,
00000001
00000000
00001000
00000000
00000010
00000100
00000010
00000000
00001000
00000000
00000100
00000000
00000010
00000001
00000100
00000000
,
00001000
00000000
00010000
00000000
01000000
00100000
01000000
00000000
10000000
00000000
00100000
00000000
01000000
00010000
00100000
00000000
,
00001000
00000000
00010000
00000000
01000000
10000000
00010000
00000000
00100000
00000000
01000000
00000000
10000000
01000000
00010000
00000000
,
00001000
00000000
00000010
00000000
00000001
00000010
00000100
00001000
00000000
00000000
00000000
00000000
00002002
00000000
00003003
00000000
,
00001000
00000000
00000000
00000000
00000010
00000000
00000000
00000000
00001000
00000000
00000000
00000000
00000001
00000000
00000000
00000000
00000000
00000000
00000010
00000000
00000000
00000000
00000000
00000000
00000100
00000000
00000000
00000000
00000000
00000000
00000000
00000000
00000000
00000000
00000000
00000000
00000001
00000000
00000000
00001000
00000000
00000000
00000001
00000000
00000000
00000000
00000000
00000000
,
00000200
00000000
00000301
00002000
00003100
00000010
00000220
00000330
,
00000001
00000000
00000010
00000000
00001000
00000000
00010000
00000000
00000000
00100000
00000000
00000000
00110000
00000000
00000000
00000000
00000000
00000000
10000000
00000000
00010000
00000000
10000000
00000000
,
01000000
00000000
00100000
00010000
10000000
00000000
00100000
00000000
00010000
00000000
00000000
00000000
02200000
00000000
03300000
00000000
,
10000000
00000000
01000000
00000000
00010000
00000000
00001000
00000000
00000000
00000020
00000000
00000000
00000031
00000000
00000000
00000000
00000000
00000000
00001000
00000000
00000100
00000000
00000010
00000000
,
00000001
00000000
00000000
00000000
00001000
00000000
00000010
00000100
00000010
00000000
00001000
00000000
00002002
00000000
00003003
00000000
,
00000200
00000000
00000000
00000301
00000000
00000000
00001000
00000000
00000000
00000200
00000000
00000000
00000310
00000000
00000000
00000000
00000000
00000000
00000001
00000000
00000010
00000000
00001000
00000000
,
00010000
00000000
00200000
10300000
02000000
03010000
02200000
03300000
,
10000000
00000000
00000000
00000000
01000000
00000000
00000000
00000000
10000000
00000000
00000000
00000000
00100000
00000000
00000000
00000000
00000000
00000000
02000000
00000000
00000000
00000000
00000000
00000000
03010000
00000000
00000000
00000000
00000000
00000000
00000000
00000000
00000000
00000000
00000000
00000000
00010000
00000000
00000000
00100000
00000000
00000000
00010000
00000000
00000000
00000000
00000000
00000000
,
01000000
00000000
00000000
00000000
00001000
00000000
00010000
00000000
00100000
00000000
10000000
00000000
00010000
01000000
00010000
01000000
,
00100000
00000000
00000000
10000000
00000000
00000000
00100000
00000000
00000000
10000000
00000000
00000000
01000000
00000000
00000000
00000000
00000000
00000000
00100000
00000000
00000000
00000000
00000000
00000000
10010000
00000000
00000000
00000000
00000000
00000000
00000000
00000000
00000000
00000000
00000000
00000000
10000000
00000000
00000000
00000000
01000000
00000000
00000000
00000000
00010000
00000000
00000000
00000000
,
00001000
00000020
00000130
00001000
00000001
00000000
00002002
00003003
,
00000001
00000000
00000000
00000010
00000000
00000000
00000100
00000000
00000000
00001000
00000000
00000000
00000001
00000000
00000000
00000000
00000000
00000000
00000200
00000000
00000000
00000000
00000000
00000000
00000310
00000000
00000000
00000000
00000000
00000000
00000000
00000000
00000000
00000000
00000000
00000000
00000010
00000000
00000000
00000000
00001000
00000000
00000000
00000000
00010000
00000000
00000000
00000000
,
01000000
00000000
00100000
20000000
31000000
00000000
10000000
11000000
,
00000000
01010000
00000000
00011000
00000000
00001100
00000000
00000101
,
00000001
00000000
00000000
00000000
00000010
00000000
00000000
00000000
00000001
00000000
00000000
00000000
00001000
00000000
00000000
00000000
00000000
00000000
00000010
00000000
00000000
00000100
00000000
00000000
00000010
00000000
00000000
00000000
00000000
00000000
00000100
00000000
00000000
00000000
00000000
00000000
00002000
00000000
00000000
00000000
00000000
00000000
00000000
00000000
00000000
00000000
00000000
00000000
,
00000000
00000000
00000000
00000000
,
00000000
00000000
00000000
00020000
,
00000000
00000000
00000000
00000000
,
00000000
00000000
00033000
01010000
,
10000000
00000000
00000000
00000000
00100000
00000000
00000000
00000000
10000000
00000000
00000000
00000000
00010000
00000000
00000000
00000000
00000000
00000000
00100000
00000000
00000000
00000000
00000000
00000000
01000000
00000000
00000000
00000000
00000000
00000000
00000000
00000000
00000000
00000000
00000000
00000000
10000000
00000000
00000000
00010000
00000000
00000000
10000000
00000000
00000000
00000000
00000000
00000000
,
01000000
00000000
00000000
00000000
00000000
00000000
00100000
00000000
00000000
00020000
00000000
00000000
01030000
00000000
00000000
00100000
00000000
00000000
10000000
00000000
00100000
00000000
00010000
00000000
,
00100000
01000000
00001000
00010000
00000100
00000010
00000001
00000000
00000000
00001001
00000000
00000000
,
00000010
00002000
00003100
00000001
00000100
00000000
00000010
00000001
,
00000010
00001000
00010000
01000000
10000000
00100000
00010000
00001000
,
00100000
00010000
10000000
01000000
00010000
01000000
10000000
11000000
,
00000000
01010000
00000000
00011000
00000000
00001010
00000000
00000011
,
00000001
00000000
00000000
00000000
00000110
00000000
00000000
00000000
00001001
00000000
00000000
00000000
00001000
00000000
00000001
00001000
,
00000001
00000000
00000100
00000000
00000010
00000000
00010000
00001000
00010000
00000000
01000000
00000000
00100000
00000000
00010000
10000000
,
00010000
00000000
01000000
00000000
00100000
00000000
00010000
00001000
00010000
00000000
00000010
00000000
00001000
00000000
00000010
00000100
,
00000010
00000000
00000100
00000001
00000100
00000000
00001000
00000000
00010000
00000000
01000000
00000000
10000000
00000000
00010000
01000000
,
00010000
00000000
01000000
00100000
01000000
00000000
00100000
00000000
00010000
00000000
00001000
00000000
00000010
00000001
00000010
00000001
,
00000010
00000000
00000100
00000000
00010000
00001000
00010000
00001000
00010000
00000000
01000000
00000000
10000000
00010000
10000000
00010000
,
00100000
00000000
01000000
00000000
00010000
00001000
00010000
00001000
00000010
00000000
00000001
00000000
00000100
00000010
00001000
00000100
,
00000010
00000001
00001000
00000000
00000001
00000010
00000100
00001000
00000100
00000010
00000001
00000000
00001000
00000010
00000100
00000001
,
00001000
00000000
00000000
00000100
00000000
00000000
00000010
00000000
00000000
00000001
00000000
00000000
00000000
00000000
00000000
00000000
00000000
00000000
00000000
00000000
00000000
00000000
00000000
00000000
00000220
00000000
00000000
00000000
00000000
00000000
00000330
00000000
00000000
00000000
00000000
00000000
00001000
00000000
00000000
00000000
00000001
00000000
00000000
00000000
00000100
00000000
00000000
00000000
,
00000010
00000000
00001000
00000000
00000100
00000000
00000001
00000000
00000000
00000000
00000100
00000000
00000010
00000000
00000000
00000001
00000000
00000000
00000100
00000000
00000000
00000000
00000000
00000000
,
00001000
00000000
00000000
00020000
00000000
00000000
00130000
00000000
00000000
00000000
00000000
00000000
02200000
00000000
00000000
03300000
00000000
00000000
10000000
00000000
00010000
00000000
10000000
00000000
,
00200000
00000000
00000000
02300000
00000000
00000000
03010000
00000000
10000000
00000000
00010000
00000000
00200000
00000000
02300000
00000000
03200000
00000000
00310000
00000000
10000000
00000000
00010000
00000000
,
10000000
00000000
00000000
01000000
00000000
00000000
00010000
00000000
00001000
00000000
00000010
00000000
00000220
00000000
00000000
00000330
00000000
00000000
00000001
00000000
00001000
00000000
00000001
00000000
,
00000010
00000200
00001300
00000020
00000031
00000010
00000110
00000000
,
00001000
00000000
00000001
00001000
00000100
00000000
00000010
00000000
00000220
00000000
00000330
00000000
00002002
00000000
00003003
00000000
,
00000010
00000000
00000000
00000100
00000000
00000000
00000110
00000000
00000000
00000000
00000000
00000000
00000001
00000000
00000010
00000000
00001000
00000000
00010000
00000000
00001000
00000000
00010000
00000000
,
00100000
00000000
00000000
10000000
00000000
00000000
10100000
00000000
00000000
00000000
00000000
00000000
20000000
00000000
30200000
00000000
00320000
00000000
20030000
00000000
32000000
00000000
03020000
00000000
,
10030000
00100000
01100000
00000000
10000000
01000000
00010000
00000000
,
00001000
00000000
00000010
00000100
00000010
00000000
00000000
00000000
00001000
00000010
00000000
00000000
00000010
00000100
00000000
00000000
,
00000100
00000000
00000000
00000001
00000000
00000000
00000000
00000000
00000000
00000000
00000000
00000000
00000002
00000000
00000000
00000000
00000000
00000000
00000000
00000000
00000000
00000000
00000000
00000000
00000103
00000000
00000000
00000000
00001000
00000000
00000000
00000000
00010000
00000000
00000000
00000000
00100000
00000000
00000000
00000000
00000000
00000000
00000000
00000000
00000000
00000000
00000000
00000000
,
10000000
00000000
00000000
00010000
00000000
00000000
00100000
00000000
01000000
00000000
00100000
00000000
02200000
00000000
00000000
03300000
00000000
00000000
10000000
00000000
01000000
00000000
00010000
00000000
,
10000000
00000000
00100000
00000000
00010000
00000000
10010000
00000000
00000000
00000000
00000000
00000000
00100000
00000000
00000000
00010000
00000000
00000000
00110000
00000000
00000000
00000000
00000000
00000000
,
00001000
00000000
00000000
00000020
00000000
00000000
00000031
00000000
00000000
00001000
00000000
00000000
00002002
00000000
00000000
00003003
00000000
00000000
00000010
00000000
00000100
00000000
00000010
00000000
,
00002000
00000000
00000000
00003002
00000000
00000000
00000103
00000000
00000010
00000000
00000100
00000000
00000002
00000000
00002003
00000000
00003002
00000000
00000103
00000000
00000010
00000000
00000100
00000000
,
00000002
00000000
00000000
00002003
00000000
00000000
00003001
00000000
00000100
00000000
00000001
00000000
00000010
00000000
00000000
00000001
00000000
00000000
00000010
00000000
00000000
00001000
00000000
00000000
,
00010000
01000000
10000000
00100000
00010000
00001000
00100000
00010000
,
10000000
01000000
00010000
01000000
10000000
11000000
00000000
01010000
,
00000000
00011000
00000000
00001010
00000000
00000011
00000000
00000101
,
00000000
00000000
00001100
00000000
00000000
00000000
00011000
00000000
00100000
10000000
00100000
10000000
00100000
00000000
01000000
00000000
,
00010000
01000000
00010000
01000000
00010000
00000000
00100000
00000000
00010000
10000000
00010000
10000000
00100000
01000000
00100000
01000000
,
00010000
00000000
00000000
00100000
00000000
00000000
01000000
00000000
00000000
10000000
00000000
00000000
00010000
00000000
00000000
00000000
00000000
00000000
00100000
00000000
00000000
00000000
00000000
00000000
11000000
00000000
00000000
00000000
00000000
00000000
00000000
00000000
01010000
00000000
00000000
00000000
00000000
00000000
00000000
00000000
00011000
00000000
00000000
00000000
00000000
00000000
00000000
00000000
,
00001100
00000101
00000011
00001010
00011000
00110000
,
10100000
01100000
01010000
20020000
00000000
00000000
00000000
00000000
,
00000000
30030000
00000000
00000000
00000000
00000000
00000000
00000000
,
00000000
00000000
00000000
00000000
;

//---------------dance-single - ----------------
#NOTES:
     dance-single:
     :
     Challenge:
     16:
     0.929401,1.022341,0.575343,0.044257,1.119707,735.000000,670.000000,65.000000,5.000000,0.000000,0.000000,0.929401,1.022341,0.575343,0.044257,1.119707,735.000000,670.000000,65.000000,5.000000,0.000000,0.000000:
// measure 0
0000
0000
0000
0000
,  // measure 1
0000
0000
0000
0000
,  // measure 2
0000
0000
0000
0000
,  // measure 3
0000
0000
0000
0000
,  // measure 4
0000
0000
0000
0000
,  // measure 5
0000
0000
0000
0000
,  // measure 6
1000
0010
0001
0010
1000
0001
1000
0000
0001
0100
0001
0100
0010
0000
1000
0000
,  // measure 7
0100
0010
0100
1000
0100
0000
0011
0000
0000
0000
0101
0000
0000
0000
0100
0010
,  // measure 8
0001
0010
1000
0000
0010
0000
1000
0000
0001
0000
0010
0100
1000
0000
0010
0000
,  // measure 9
0100
0000
0000
0000
0001
0000
0000
0000
0010
0000
0000
0000
0000
0000
0000
0000
0000
0000
0000
0000
0000
0000
0000
0000
0220
0000
0000
0000
0000
0000
0000
0000
0000
0330
0000
0000
0000
0000
0000
0000
0000
0000
0000
0000
0000
0000
0000
0000
1001
0000
0000
0000
0000
0000
0000
0000
0000
0000
0000
0000
0000
0000
0000
0000
,  // measure 10
1000
0000
0000
0000
1000
0000
0000
0000
0001
0000
0000
0000
0001
0000
0000
0000
0000
0000
1000
0000
0000
0000
0000
0000
1100
0000
0000
0000
0000
0000
1000
0000
0000
0000
0000
0000
0001
0000
0000
0100
0000
0000
0010
0000
0000
0000
0000
0000
,  // measure 11
0010
0100
0001
0000
1000
0000
0100
1000
0001
0000
0100
0000
1000
0100
0010
0000
,  // measure 12
0001
0000
0010
0000
0001
0000
1000
0000
0000
0001
0000
0000
0110
0000
0000
0000
0000
0000
0100
0000
0010
0000
0010
0000
,  // measure 13
1000
0001
1000
0001
1000
0000
0100
0000
0001
0000
0100
0000
0101
0000
0001
1000
,  // measure 14
0001
0000
0000
0000
0100
0000
0000
0000
0010
0000
0000
0000
1000
0000
0000
0000
0000
0000
0001
0000
0000
0100
0000
0000
0010
0000
0000
0000
0000
0000
1010
0000
0000
0000
0000
0000
1000
0000
0000
0000
0100
0000
0000
0000
0010
0000
0000
0000
,  // measure 15
0001
0000
0101
0000
0000
0000
0001
1000
0100
0000
1000
0000
0010
0100
0001
0010
,  // measure 16
0001
0000
0000
0000
0000
0000
1000
0000
0000
0100
0000
0000
1000
0000
0000
0000
0000
0000
0001
0000
0000
0100
0000
0000
0001
0000
0000
0010
0000
0000
0000
0000
0000
0000
0000
0000
0001
0000
0000
0000
0010
0000
0000
0000
0100
0000
0000
0000
,  // measure 17
1000
0010
0011
0010
1010
0100
0101
0001
,  // measure 18
1000
0000
0000
0000
0010
0000
0000
0000
1000
0000
0000
0000
0001
0000
0000
0000
0000
0000
1000
0000
0000
0100
0000
0000
1000
0000
0000
0001
0000
0000
0010
0000
0000
0000
0000
0000
0001
0000
0000
1000
0000
0000
0001
0000
0000
0000
0000
0000
,  // measure 19
0100
0000
0001
0000
0100
0000
1000
0001
0100
0000
0001
0000
1000
0100
0010
0100
,  // measure 20
1000
0000
0000
0100
0000
0000
0010
0000
0000
0100
0000
0000
1000
0000
0000
0000
0000
0000
0200
0000
0000
0000
0000
0000
1300
0000
0000
0000
0000
0000
1001
0000
0000
0000
0000
0000
0001
0000
0000
0000
0010
0000
0000
0000
0100
0000
0000
0000
,  // measure 21
0010
0001
0100
0010
1000
0000
0001
0000
0100
0000
0001
0000
0101
0000
1000
0100
,  // measure 22
1000
0000
0000
0010
0000
0000
0100
0000
0000
0001
0000
0000
0010
0000
0000
0000
0000
0000
0100
0000
0000
1000
0000
0000
0010
0000
0000
0000
0000
0000
0001
0000
0000
0000
0000
0000
1000
0000
0000
0000
0100
0000
0000
0000
0001
0000
0000
0000
,  // measure 23
1000
0000
0101
0000
1000
0000
0010
0100
0001
0000
0010
0000
0110
0000
1100
0000
,  // measure 24
0000
0000
0110
0000
0000
0000
1000
0010
0100
0001
0010
0000
0100
0000
0001
0000
,  // measure 25
1000
0000
0000
0000
0100
0000
0000
0000
0010
0000
0000
0000
0011
0000
0000
0000
0000
0000
1000
0000
0000
0001
0000
0000
0100
0000
0000
0000
0000
0000
0010
0000
0000
0000
0000
0000
1000
0000
0000
0001
0000
0000
0100
0000
0000
0000
0000
0000
,  // measure 26
0001
0000
1000
0000
0010
1000
0100
1000
0010
0100
0001
0000
0010
1000
0001
0000
,  // measure 27
0100
0010
0100
0000
0001
1000
0001
0000
1000
0001
0100
0000
0001
1000
0010
0000
,  // measure 28
0100
0001
0010
0000
0100
1000
0001
0000
0010
0001
0100
0000
0100
0001
0010
0000
,  // measure 29
0001
0010
0100
0000
1000
0001
1000
0000
0100
0001
0100
0000
1001
0000
0000
0000
,  // measure 30
0010
0000
0000
0000
0010
0000
0000
0000
0100
0000
0000
0000
0100
0000
0000
0000
0000
0000
0001
0000
0000
0010
0000
0000
0100
0000
0000
0000
0000
0000
1000
0000
0000
0000
0000
0000
0001
0000
0000
1000
0000
0000
0001
0000
0000
0000
0000
0000
,  // measure 31
0100
0000
0000
0000
0000
0000
0001
0000
0000
0000
0000
0000
0100
0000
0000
0000
0000
0000
1000
0000
0000
0100
0000
0000
0001
0000
0000
0000
0000
0000
0010
0000
0000
0000
0000
0000
0100
0000
0000
0000
1000
0000
0000
0000
0100
0000
0000
0000
,  // measure 32
0010
0000
0000
0000
0001
0000
0000
0000
0100
0000
0000
0000
1000
0000
0000
0000
0100
0000
0000
0000
0001
0000
0000
0000
0010
0000
0000
0100
0000
0000
0010
0000
0000
0000
0000
0000
0110
0000
0000
0000
0000
0000
0000
0000
0000
0001
0000
0000
,  // measure 33
0100
0000
0010
1000
0001
0000
1000
0000
0100
0000
0010
0000
0001
0100
1000
0000
,  // measure 34
0100
0000
0001
0000
0100
0000
0010
0000
1000
0001
1000
0000
0010
0100
0010
0000
,  // measure 35
1000
0001
1000
0000
0001
0100
0001
0000
0100
0010
0100
0000
0010
0000
1010
0000
,  // measure 36
0000
1100
0000
0101
0000
1100
0000
0110
,  // measure 37
0000
0000
0010
0000
0001
1000
0001
0000
0001
0010
0100
0000
1001
0000
1000
0100
,  // measure 38
0001
0000
1000
0010
0001
0000
1000
0010
0100
0000
0001
0010
0100
0000
1000
0001
,  // measure 39
0100
0000
0001
1000
0010
0000
0010
0100
0001
0000
0001
1000
0010
0000
0100
0010
,  // measure 40
0100
0000
0001
0010
0001
0000
0010
0000
0001
0100
0001
0100
0001
1000
0010
1000
,  // measure 41
0010
0100
0010
0100
0010
1000
0010
1000
0001
0000
0100
0001
0100
0001
0010
0100
,  // measure 42
0010
0100
1000
0100
1000
0100
0010
0100
1000
0001
0010
0001
0010
0001
0100
0001
,  // measure 43
0100
0010
0100
0010
1000
0010
1000
0010
0001
0010
0001
0010
1000
0010
0100
0010
,  // measure 44
0001
0010
1000
0100
0010
0001
1000
0100
0010
0001
1000
0010
0100
0001
1000
0010
,  // measure 45
0100
0000
0000
0001
0000
0000
0100
0000
0000
0000
0000
0000
1001
0000
0000
0000
0000
0000
0000
0000
0000
0000
0000
0000
1100
0000
0000
0000
0000
0000
0000
0000
0000
0000
0000
0000
1000
0000
0000
0000
0010
0000
0000
0000
0001
0000
0000
0000
,  // measure 46
1000
0100
0001
1001
0000
0001
0100
0000
0010
1000
0000
1000
,  // measure 47
0100
0000
0000
0000
0000
0000
0001
0000
0000
1000
0000
0000
0001
0000
0000
0000
0000
0000
0000
0000
0000
0000
0000
0000
1100
0000
0000
0000
0000
0000
0000
0000
0000
0000
0000
0000
0001
0000
0000
0000
0010
0000
0000
0000
1000
0000
0000
0000
,  // measure 48
0010
0000
0000
0101
0000
0000
0001
0000
0100
0000
1000
0000
0100
0000
0100
0000
0001
0000
1000
0000
0010
0000
0100
0000
,  // measure 49
0101
0000
0000
0001
0000
0000
1000
0000
0100
0000
0010
0000
0011
0000
0000
0000
0000
0000
0001
0000
0010
0000
0100
0000
,  // measure 50
1000
0000
0000
0100
0000
0000
0010
0000
0000
0001
0000
0000
1000
0000
0000
0000
0000
0000
0100
0000
0000
0010
0000
0000
0001
0000
0000
0000
0000
0000
0000
0000
1000
0000
0000
0000
0100
0000
0000
0000
0000
0000
0000
0000
0001
0000
0000
0000
,  // measure 51
0100
0000
0000
1000
0000
0000
0100
0000
0000
0010
0000
0000
0001
0000
0000
0000
0000
0000
0000
0000
0010
0000
0000
0000
1010
0000
0000
0000
0000
0000
0000
0000
0000
0000
0000
0000
0010
0000
0000
0001
0000
0000
1000
0000
0000
0010
0000
0000
,  // measure 52
0100
0000
0000
0000
0000
0000
0010
0000
0000
0000
0000
0000
1000
0000
0000
0001
0000
0000
0100
0000
0000
0000
0000
0000
1000
0000
0000
0000
0010
0000
0000
0000
0100
0000
0000
0000
0001
0000
0000
0000
0001
0000
0000
0000
1000
0000
0000
0000
,  // measure 53
1000
0000
0000
0100
0000
0000
0010
0000
0000
0001
0000
0000
0100
0000
0000
0000
0000
0000
0010
0000
0000
0000
0000
0000
1000
0000
0000
0000
0010
0000
0000
0000
1000
0000
0000
0000
0010
0000
0000
0000
0001
0000
0000
0000
0010
0000
0000
0000
,  // measure 54
1001
0000
0010
0110
0000
0001
1001
0000
0100
1100
0000
0001
,  // measure 55
1001
0000
0000
0000
0000
0000
0100
0000
0000
1000
0000
0000
0100
0000
0000
0000
0000
0000
0000
0000
0001
0000
0000
0000
0010
0000
0000
0000
0110
0000
0000
0000
0000
0000
0000
0000
1000
0000
0000
0000
1100
0000
0000
0000
0000
0000
0000
0000
,  // measure 56
0001
0000
0000
0000
0011
0000
0000
0000
0000
0000
0000
0000
0010
0000
0000
0001
0000
0000
1000
0000
0000
0001
0000
0000
0100
0000
0000
0000
0010
0000
0000
0000
1000
0000
0000
0000
0010
0000
0000
0100
0000
0000
0001
0000
0000
1000
0000
0000
,  // measure 57
0001
0000
0000
1000
0000
0000
0001
0000
0100
0000
1000
0000
0101
0000
0000
0010
0000
0000
1000
0000
1000
0000
0010
0000
,  // measure 58
0010
0100
0100
0001
1000
0100
0101
0000
0100
1100
0000
0010
,  // measure 59
0100
0000
0000
0000
0000
0000
0001
0000
0000
1000
0000
0000
0010
0000
0000
0000
0000
0000
0000
0000
0100
0000
0000
0000
0101
0000
0000
0000
0000
0000
0000
0000
0000
0000
0000
0000
1000
0000
0000
0000
0100
0000
0000
0000
0010
0000
0000
0000
,  // measure 60
0011
0000
0000
0100
0000
0000
1000
0000
0100
0000
1000
0000
0010
0000
0100
0000
0001
0000
0010
0000
0100
0000
0010
0000
,  // measure 61
0001
0000
0000
0000
0000
0000
1000
0000
0000
0000
0000
0000
0001
0000
0000
0000
0001
0000
0000
0000
0100
0000
0000
0000
0010
0000
0000
1000
0000
0000
0001
0000
0000
0000
0000
0000
0001
0000
0000
0000
0000
0000
0010
0000
0000
0000
0000
0000
,  // measure 62
0001
0000
0100
0010
1000
0000
0010
0000
1000
0000
0001
0010
0100
0010
0001
0000
,  // measure 63
1000
0000
0010
0100
0001
0100
0010
0000
1000
0000
1010
0000
0000
0000
1001
0000
,  // measure 64
0000
0101
0000
1010
0000
0010
0100
0010
,  // measure 65
1000
0100
1000
0000
0001
0010
0001
0000
1000
0100
1000
0010
0100
0001
0010
0001
,  // measure 66
1000
0100
0001
0100
1000
0010
0001
0010
1000
0100
0010
0001
0010
1000
0010
0001
,  // measure 67
0100
0000
0000
0010
0000
0000
1000
0000
0000
0001
0000
0000
0100
0000
0000
0000
0000
0000
0010
0000
0000
0000
0000
0000
1100
0000
0000
0000
0000
0000
0000
0000
0011
0000
0000
0000
0000
0000
0000
0000
1100
0000
0000
0000
0000
0000
0000
0000
,  // measure 68
0011
0000
1001
0000
0110
0000
1001
0000
0110
0000
1001
0000
,  // measure 69
0101
0101
1010
2020
0000
0000
0000
0000
,  // measure 70
3030
0000
0000
0000
;
