#VERSION:0.83;
#TITLE:ENDLESS;
#SUBTITLE:;
#ARTIST:FN2(Eurobeat Union);
#TITLETRANSLIT:;
#SUBTITLETRANSLIT:;
#ARTISTTRANSLIT:;
#GENRE:;
#ORIGIN:;
#CREDIT:;
#BANNER:ENDLESS.png;
#BACKGROUND:;
#PREVIEWVID:;
#JACKET:ENDLESS-jacket.png;
#CDIMAGE:;
#DISCIMAGE:;
#LYRICSPATH:;
#CDTITLE:;
#MUSIC:ENDLESS.ogg;
#OFFSET:0.000000;
#SAMPLESTART:47.381001;
#SAMPLELENGTH:15.000000;
#SELECTABLE:YES;
#BPMS:0.000=150.000;
#STOPS:;
#DELAYS:;
#WARPS:;
#TIMESIGNATURES:0.000=4=4;
#TICKCOUNTS:0.000=4;
#COMBOS:0.000=1;
#SPEEDS:0.000=1.000=0.000=0;
#SCROLLS:0.000=1.000;
#FAKES:;
#LABELS:0.000=Song Start;
#BGCHANGES:;
#KEYSOUNDS:;
#ATTACKS:
;

//---------------dance-single - ----------------
#NOTEDATA:;
#CHARTNAME:;
#STEPSTYPE:dance-single;
#DESCRIPTION:;
#CHARTSTYLE:;
#DIFFICULTY:Beginner;
#METER:2;
#RADARVALUES:0.134149,0.211069,0.086150,0.086150,0.000000,109.000000,99.000000,10.000000,10.000000,0.000000,0.000000,0.000000,0.000000,0.000000,0.134149,0.211069,0.086150,0.086150,0.000000,109.000000,99.000000,10.000000,10.000000,0.000000,0.000000,0.000000,0.000000,0.000000;
#CREDIT:;
#NOTES:
0000
0000
0000
0000
,
0000
0000
0000
0000
,
0000
0000
0000
0000
,
0000
0000
0000
0000
,
0000
0000
0000
0000
,
0000
0000
0000
0000
,
0001
0000
0000
0000
,
0001
0000
0010
0000
,
0001
0000
0000
0000
,
0001
0000
0100
0000
,
1000
0000
0000
0000
,
1000
0000
0100
0000
,
1000
0000
0000
0000
,
1000
0000
0010
0000
,
0002
0000
0003
0000
,
0002
0000
0003
0000
,
0002
0000
0003
0000
,
0000
0000
0000
0000
,
2000
0000
3000
0000
,
2000
0000
3000
0000
,
2000
0000
3000
0000
,
0000
0000
0000
0000
,
1001
0000
0000
0000
,
1001
0000
0000
0000
,
1001
0000
0000
0000
,
0010
0010
0010
0000
,
1001
0000
0000
0000
,
1001
0000
0000
0000
,
1001
0000
0000
0000
,
0100
0100
0100
0000
,
1000
0000
0010
0000
,
1000
0000
0100
0000
,
0010
0000
0001
0000
,
0100
0000
0000
0000
,
0001
0000
0010
0000
,
0001
0000
0100
0000
,
0010
0000
1000
0000
,
0100
0000
0000
0000
,
1000
0000
0100
0000
,
1000
0000
0010
0000
,
1000
0000
0100
0000
,
0001
0000
0000
0000
,
0001
0000
0100
0000
,
0001
0000
0010
0000
,
0001
0000
0100
0000
,
1000
0000
0000
0000
,
2002
0000
0000
0000
,
3003
0000
0000
0000
,
2002
0000
0000
0000
,
3003
0000
0000
0000
,
0001
0000
0100
0000
,
0001
0000
0100
0000
,
0010
0000
1000
0000
,
0010
0000
1000
0000
,
1000
0000
1000
0000
,
0010
0000
0100
0000
,
0001
0000
0001
0000
,
0100
0000
0010
0000
,
1000
0000
1000
0000
,
0010
0000
0100
0000
,
0001
0000
0001
0000
,
1001
0000
0000
0000
,
1000
0000
0100
0000
,
0010
0000
0001
0000
,
0001
0000
0100
0000
,
0010
0000
1000
0000
,
1000
0000
0100
0000
,
0010
0000
0001
0000
,
0100
0000
1000
0000
,
0100
0000
0000
0000
,
1001
0000
0000
0000
,
0000
0000
0000
0000
;

//---------------dance-single - ----------------
#NOTEDATA:;
#CHARTNAME:;
#STEPSTYPE:dance-single;
#DESCRIPTION:;
#CHARTSTYLE:;
#DIFFICULTY:Easy;
#METER:6;
#RADARVALUES:0.301527,0.361832,0.189531,0.086150,0.000000,245.000000,223.000000,22.000000,10.000000,0.000000,0.000000,0.000000,0.000000,0.000000,0.301527,0.361832,0.189531,0.086150,0.000000,245.000000,223.000000,22.000000,10.000000,0.000000,0.000000,0.000000,0.000000,0.000000;
#CREDIT:;
#NOTES:
0000
0000
0000
0000
,
0000
0000
0000
0000
,
0000
0000
0000
0000
,
0000
0000
0000
0000
,
0000
0000
0000
0000
,
0000
0000
0000
0000
,
0001
0001
0100
0000
,
0001
0010
0100
0000
,
1000
1000
0100
0000
,
1000
0010
1000
0100
,
0010
0010
0001
0000
,
0010
0100
1000
0000
,
0010
0010
1000
0000
,
0010
1000
1001
0000
,
0001
0000
0001
0001
,
0001
0000
1000
1000
,
1000
0000
0001
0001
,
0001
0010
0100
0000
,
1000
0000
1000
1000
,
1000
0000
0001
0001
,
0001
0000
1000
1000
,
1000
0100
0010
0000
,
0001
0100
0010
1001
,
1000
0100
0010
1001
,
0001
0100
0010
1001
,
0010
0100
0010
0000
,
0001
1000
0100
1001
,
1000
0001
0100
1001
,
0001
1000
0010
1001
,
2002
0000
0000
3003
,
0010
1000
0010
0010
,
1000
0001
1000
1000
,
0100
0000
1000
0000
0100
0010
0100
0000
,
0110
0000
1001
0000
,
0010
0001
0010
0010
,
0001
1000
0001
0001
,
0100
0000
0001
0000
0100
0010
0100
0000
,
0110
0000
1001
0000
,
0010
1000
0100
0100
,
0001
0100
1000
1000
,
0010
0000
0100
0000
0001
1000
0001
0000
,
1001
0000
0110
0000
,
0100
0001
0010
0010
,
1000
0010
0001
0001
,
0100
0000
0010
0000
1000
0001
1000
0000
,
0010
0100
0010
0000
,
2002
0000
0000
3003
,
0220
0000
0000
0330
,
2000
0002
0000
3003
,
0220
0000
0000
0330
,
1000
0100
1000
0010
,
0100
0001
0010
0010
,
0001
0100
0010
0100
,
0010
1000
1001
0000
,
0010
0001
1000
0001
,
0100
0001
1000
0001
,
0010
0000
0100
0000
0010
0100
0010
0000
,
1001
0000
0110
0000
,
0001
0010
0001
0100
,
0010
1000
0100
0100
,
1000
0000
0010
0000
1000
0001
1000
0000
,
0010
0100
0010
0000
,
0001
0100
1000
0100
,
0001
0000
1000
0000
0001
1000
0001
0000
,
1000
0100
0001
0100
,
1000
0001
1001
0000
,
1000
0010
0001
0010
,
1000
0000
0001
0000
1000
0001
1000
0000
,
0001
0100
0010
1000
,
0001
0001
1000
0001
,
1001
0000
0000
0000
,
0000
0000
0000
0000
;

//---------------dance-single - ----------------
#NOTEDATA:;
#CHARTNAME:;
#STEPSTYPE:dance-single;
#DESCRIPTION:;
#CHARTSTYLE:;
#DIFFICULTY:Medium;
#METER:9;
#RADARVALUES:0.420907,0.452290,0.232606,0.077535,0.004308,342.000000,315.000000,27.000000,9.000000,0.000000,0.000000,0.000000,0.000000,0.000000,0.420907,0.452290,0.232606,0.077535,0.004308,342.000000,315.000000,27.000000,9.000000,0.000000,0.000000,0.000000,0.000000,0.000000;
#CREDIT:;
#NOTES:
0000
0000
0000
0000
,
0000
0000
0000
0000
,
0000
0000
0000
0000
,
0000
0000
0000
0000
,
0000
0000
0000
0000
,
0000
0000
0000
0000
,
0001
1000
0001
0000
0010
0000
0010
0000
,
0100
1000
0100
0000
0010
0001
0010
0000
,
0001
1000
0001
0000
0010
0000
0010
0000
,
0100
1000
0010
0000
0100
0001
0010
0000
,
1000
0001
1000
0000
0010
0000
0010
0000
,
0100
0001
0100
0000
0010
1000
0010
0000
,
1000
0001
1000
0000
0010
0000
0010
0000
,
0100
0001
0010
0100
2000
0000
3001
0000
,
0010
0000
0001
0001
0000
1000
1000
0000
,
0010
0000
1000
1000
0000
0001
0001
0000
,
0010
0000
0001
0001
0000
1000
1000
0000
,
0010
0010
0010
0000
0100
0100
0100
0000
,
0001
0000
0010
0010
0000
0100
0100
0000
,
1000
0000
0010
0010
0000
0100
0100
0000
,
0001
0000
0010
0010
0000
0100
0100
0000
,
1000
1000
1000
0000
0001
0000
1001
0000
,
0010
0000
0010
0000
1000
0100
1000
0000
,
0010
0000
0010
0000
1000
0001
1000
0000
,
0010
0000
0010
0000
0100
0001
0100
0000
,
0010
0010
0010
0000
,
0010
0000
0010
0000
0001
0100
0001
0000
,
0010
0000
0010
0000
0001
1000
0001
0000
,
0010
0000
0010
0000
0100
1000
0100
0000
,
0010
0010
0000
0100
0000
0100
0000
0000
,
0001
1000
0001
0000
1000
0001
1000
0000
,
0001
1000
0001
0000
1000
0001
1000
0000
,
0010
0100
0010
0000
0100
0010
0100
0000
,
1010
1100
0101
0000
,
1000
0001
1000
0000
0001
1000
0001
0000
,
1000
0001
1000
0000
0001
1000
0001
0000
,
0100
0010
0100
0000
0010
0100
0010
0000
,
0101
0011
1010
0000
,
0001
0100
0001
0000
0010
0001
0010
0000
,
0100
1000
0100
0000
1000
0010
1000
0000
,
0100
0001
1000
0000
0100
1000
0001
0000
,
1001
0110
1001
0000
,
1000
0010
0100
0000
0001
0010
0100
0000
,
1000
0100
0010
0000
0001
0100
0010
0000
,
1000
0001
0100
0000
0001
1000
0100
0000
,
0010
0010
0010
0000
,
2002
0000
0000
3003
,
1001
0000
0110
0000
,
1001
2002
0000
3003
,
1001
0000
0000
0000
1000
0001
1000
0000
,
0001
0010
0100
0000
1000
0000
1000
0000
,
0010
0100
0010
0000
1000
0001
1000
0000
,
0100
0010
0001
0000
0100
0000
0100
0000
,
0001
1000
0001
1000
0002
0000
1003
0000
,
0010
0000
0010
0000
1000
0100
0010
0000
,
0100
0000
0100
0000
0001
0100
0010
0000
,
1010
0100
0101
0010
,
0011
0110
1001
0000
,
0010
0000
0010
0000
0001
0100
0010
0000
,
0100
0000
0100
0000
1000
0100
0010
0000
,
0011
0100
1100
0010
,
1010
0000
0000
0000
1001
0000
0000
0000
0100
0000
0000
0100
0000
0000
0100
0000
,
0010
1000
0001
0100
0010
0000
0100
0000
,
0001
0001
1000
1000
,
0100
0010
0001
1000
0100
0000
0010
0000
,
0001
1000
0001
0000
2002
0000
3003
0000
,
0010
0001
1000
0100
0010
0000
0100
0000
,
1000
1000
0001
0001
,
0100
0010
1000
0001
0100
0000
0010
0000
,
1000
0001
1000
0000
0002
0000
1003
0000
,
1001
0000
0000
0000
,
0000
0000
0000
0000
;

//---------------dance-single - ----------------
#NOTEDATA:;
#CHARTNAME:;
#STEPSTYPE:dance-single;
#DESCRIPTION:;
#CHARTSTYLE:;
#DIFFICULTY:Hard;
#METER:13;
#RADARVALUES:0.662128,0.663359,0.568593,0.146456,0.473828,538.000000,472.000000,66.000000,17.000000,0.000000,0.000000,0.000000,0.000000,0.000000,0.662128,0.663359,0.568593,0.146456,0.473828,538.000000,472.000000,66.000000,17.000000,0.000000,0.000000,0.000000,0.000000,0.000000;
#CREDIT:;
#NOTES:
// measure 0
0000
0000
0000
0000
,  // measure 1
0000
0000
0000
0000
,  // measure 2
0000
0000
0000
0000
,  // measure 3
0000
0000
0000
0000
,  // measure 4
0000
0000
0000
0000
,  // measure 5
0000
0000
0000
0000
,  // measure 6
0001
0000
1000
0100
1000
0000
0001
0000
0010
0000
0000
0011
0000
0000
0001
0000
,  // measure 7
1000
0100
0001
0100
1000
0010
0100
0000
,  // measure 8
0001
0000
1000
0010
1000
0000
0001
0000
0100
0000
0000
0101
0000
0000
1000
0000
,  // measure 9
0010
0100
1000
0100
0010
0100
0002
0000
,  // measure 10
1003
0000
0001
0100
0001
0000
1000
0000
0010
0000
0000
1010
0000
0000
1000
0000
,  // measure 11
0001
0100
1000
0100
0001
0010
0100
0000
,  // measure 12
1000
0000
0001
0010
0001
0000
1000
0000
0100
0000
0010
0000
0110
0000
0000
0000
,  // measure 13
0001
0010
0100
1000
0002
0000
2003
0000
,  // measure 14
3100
0000
0010
0011
0000
0100
1000
0100
,  // measure 15
1000
0000
0010
1010
0000
0100
0001
0100
,  // measure 16
0001
0000
0010
0011
0000
0100
1000
0100
,  // measure 17
1000
1000
0010
0010
0100
0100
0001
0000
,  // measure 18
0010
0000
0100
1100
0000
0010
0001
0010
,  // measure 19
0001
0000
0100
0101
0000
0010
1000
0010
,  // measure 20
1000
0000
0100
1100
0000
0010
0001
0010
,  // measure 21
0001
0000
0000
0101
0000
0000
1001
0000
2000
0000
0000
0000
3002
0000
0000
0000
,  // measure 22
1003
0000
0000
1100
0000
0000
1010
0000
0000
1001
0000
0000
1100
0000
0010
0000
,  // measure 23
0001
0000
0000
0101
0000
0000
0011
0000
0000
1001
0000
0000
0101
0000
0010
0000
,  // measure 24
1000
0000
0000
1100
0000
0000
1010
0000
0000
1001
0000
0000
1100
0000
0010
0000
,  // measure 25
0001
0000
0000
0101
0000
0000
0011
0000
0000
0000
0010
0000
0010
0000
0010
0000
,  // measure 26
0010
0000
0000
1010
0000
0000
0011
0000
0000
1010
0000
0000
0110
0000
1000
0000
,  // measure 27
0100
0000
0000
0101
0000
0000
1100
0000
0000
0101
0000
0000
0110
0000
0001
0000
,  // measure 28
0010
0000
0000
1010
0000
0000
0011
0000
0000
1010
0000
0000
0110
0000
1000
0000
,  // measure 29
0100
0110
0000
0011
0000
1100
0000
0000
,  // measure 30
0001
0000
1000
0000
0001
1000
0000
0001
1000
0000
0001
1000
0000
0001
1000
0000
,  // measure 31
0010
0000
0100
0000
0010
0100
0000
0010
0100
0000
0010
0100
0000
0010
0100
0000
,  // measure 32
0001
0000
1000
0000
0001
1000
0000
0001
1000
0000
0001
1000
0000
0001
1000
0000
,  // measure 33
1001
0000
0101
0000
1100
0000
0010
0001
,  // measure 34
1000
0000
0001
0000
1000
0001
0000
1000
0001
0000
1000
0001
0000
1000
0001
0000
,  // measure 35
0100
0000
0010
0000
0100
0010
0000
0100
0010
0000
0100
0010
0000
0100
0010
0000
,  // measure 36
1000
0000
0001
0000
1000
0001
0000
1000
0001
0000
1000
0001
0000
1000
0001
0000
,  // measure 37
0110
0000
1100
0100
0011
0000
0100
1000
,  // measure 38
0010
0000
1000
0000
0100
0010
0000
0100
1000
0000
0100
0010
0000
0100
1000
0000
,  // measure 39
0001
0000
0100
0000
0001
0010
0000
0100
0010
0000
0001
0010
0000
0100
0010
0000
,  // measure 40
0001
0000
0100
0000
0010
1000
0000
0010
0100
0000
0010
1000
0000
0010
0100
0000
,  // measure 41
0110
0000
1010
0000
0101
0000
0100
0100
,  // measure 42
0010
0000
1000
0000
0010
0100
0000
0010
1000
0000
0010
0100
0000
0010
1000
0000
,  // measure 43
0100
0000
0010
0000
0001
0010
0000
0100
0010
0000
0001
0010
0000
0100
0010
0000
,  // measure 44
0001
0000
0100
0000
0010
1000
0000
0001
0100
0000
0010
1000
0000
0001
0100
0000
,  // measure 45
0101
0000
0000
0000
0011
0000
0000
0000
1001
0000
0000
0110
0000
0000
0110
0000
,  // measure 46
2002
0000
0000
3003
,  // measure 47
2200
3000
0020
0330
,  // measure 48
0110
2002
0000
3003
,  // measure 49
0020
0000
0000
0000
0000
0000
0000
0000
0130
0000
0100
0000
0001
1000
0001
0000
,  // measure 50
1000
0000
0010
1000
0010
0000
0100
0000
0001
0000
0000
0110
0000
0000
0100
0000
,  // measure 51
0010
1000
0100
0001
0100
1000
0010
0100
,  // measure 52
0001
0000
1000
0001
1000
0000
0100
0010
0001
0000
0001
0000
2000
0000
0000
0000
,  // measure 53
3001
0010
0001
0000
1000
0100
0010
0000
0002
0000
0000
0000
2003
0000
0000
0000
,  // measure 54
3001
0000
0100
0000
0001
0010
0000
0010
0100
0000
0100
1000
0000
1000
0001
0000
,  // measure 55
0100
0000
0010
0000
1000
0100
0000
0100
0010
0000
0010
0001
0000
0001
0100
0000
,  // measure 56
0001
0000
1000
0000
0001
0100
0000
0100
0010
0000
0010
1000
0000
1000
0001
0000
,  // measure 57
0010
0100
1000
0001
0100
0010
1000
0001
,  // measure 58
1000
0000
0010
0000
1000
0100
0000
0100
0010
0000
0010
0001
0000
0001
1000
0000
,  // measure 59
0010
0000
0100
0000
0001
0010
0000
0010
0100
0000
0100
1000
0000
1000
0001
0000
,  // measure 60
1000
0000
0001
0000
0010
0000
0001
0000
0100
0000
0100
0010
0100
0000
0010
0000
,  // measure 61
1000
0000
0000
0000
1001
0000
0000
0000
0010
0000
0000
0010
0000
0000
0010
0000
,  // measure 62
1000
0000
0010
1000
0001
0000
0100
0001
1000
0000
0000
1001
0000
0000
0100
0000
,  // measure 63
0010
0010
1000
0000
0001
0001
0100
0000
,  // measure 64
0010
0000
1000
0100
0010
0000
0001
0100
0010
0000
0000
0110
0000
0000
1000
0000
,  // measure 65
0001
0001
0010
0000
0100
0100
1000
0000
,  // measure 66
0001
0000
1000
0010
0100
0000
0001
0100
0010
0000
0000
1010
0000
0000
0001
0000
,  // measure 67
0100
0010
1000
0010
0100
0001
0010
0000
,  // measure 68
0001
0000
1000
0100
0010
0000
0001
1000
0100
0000
0010
0000
0110
0000
0000
0000
,  // measure 69
1000
0010
0001
0010
2000
0000
3001
0000
,  // measure 70
1001
0000
0000
0000
;

//---------------dance-double - ----------------
#NOTEDATA:;
#CHARTNAME:;
#STEPSTYPE:dance-double;
#DESCRIPTION:;
#CHARTSTYLE:;
#DIFFICULTY:Easy;
#METER:6;
#RADARVALUES:0.286758,0.331679,0.163686,0.051690,0.000000,233.000000,214.000000,19.000000,6.000000,0.000000,0.000000,0.000000,0.000000,0.000000,0.286758,0.331679,0.163686,0.051690,0.000000,233.000000,214.000000,19.000000,6.000000,0.000000,0.000000,0.000000,0.000000,0.000000;
#CREDIT:;
#NOTES:
00000000
00000000
00000000
00000000
,
00000000
00000000
00000000
00000000
,
00000000
00000000
00000000
00000000
,
00000000
00000000
00000000
00000000
,
00000000
00000000
00000000
00000000
,
00000000
00000000
00000000
00000000
,
10000000
01000000
10000000
00000000
,
10000000
01000000
00100000
00000000
,
00001000
00010000
00001000
00000000
,
00010000
00000100
00001000
00000010
,
00000100
00000001
00000100
00000000
,
00000100
00000010
00001000
00000000
,
00000100
00010000
00001000
00000000
,
00100000
00010000
10010000
00000000
,
10000000
00000000
01000000
00010000
,
01000000
00000000
00010000
00001000
,
00010000
00000000
00001000
00000010
,
00000001
00000010
00000100
00000000
,
00001000
00000000
00000010
00000100
,
00000010
00000000
00000100
00001000
,
00000100
00000000
00001000
00010000
,
00100000
10000000
00010000
00000000
,
10000000
01000000
00100000
01100000
,
00100000
00001000
00010000
00000010
,
00001000
00000100
00000010
00000110
,
00000100
00001000
00000001
00000000
,
00000001
00000100
00000010
00000110
,
00000010
00001000
00000100
00010000
,
00001000
00100000
00010000
00110000
,
20020000
00000000
00000000
30030000
,
10000000
00100000
01000000
01000000
,
00010000
00100000
00001000
00001000
,
00010000
00000100
00001000
00000010
,
00000110
00000000
00001001
00000000
,
00000001
00000100
00000010
00000010
,
00001000
00000100
00010000
00010000
,
00001000
01000000
00100000
10000000
,
10010000
00000000
01100000
00000000
,
10000000
01000000
00010000
01000000
,
10000000
00100000
01000000
00001000
,
00010000
00000100
00001000
00000010
,
00000110
00000000
00001001
00000000
,
00000001
00000100
00001000
00000100
,
00000001
00000010
00000100
00010000
,
00001000
00100000
01000000
00100000
,
01100000
00000000
10010000
00000000
,
20020000
00000000
00000000
00000000
,
00000000
00000000
30030000
00000000
,
00022000
00000000
00000000
00000000
,
00000000
00000000
00033000
00000000
,
00001000
00000010
00000100
00001000
,
00000001
00000100
00001000
00010000
,
00100000
10000000
00010000
00100000
,
01000000
00010000
00011000
00000000
,
00001000
00000100
00000001
00000100
,
00001000
00010000
00001000
00000010
,
00001000
00010000
01000000
10000000
,
00010000
00000000
10010000
00000000
,
10000000
01000000
00010000
00001000
,
00010000
00100000
00010000
00001000
,
00000100
00000001
00000010
00000100
,
00001000
00001000
00001000
00000000
,
00000001
00000100
00001000
00010000
,
00000100
00000000
00010000
00000000
00001000
00010000
00001000
00000000
,
00010000
01000000
10000000
00100000
,
00010000
00100000
10000000
01000000
,
00010000
00001000
00000010
00000001
,
00000100
00000000
00001000
00000000
00010000
00001000
00010000
00000000
,
00001000
00000010
00000100
00000010
,
00001000
00010000
00001000
00001000
,
00011000
00000000
00000000
00000000
,
00000000
00000000
00000000
00000000
;

//---------------dance-double - ----------------
#NOTEDATA:;
#CHARTNAME:;
#STEPSTYPE:dance-double;
#DESCRIPTION:;
#CHARTSTYLE:;
#DIFFICULTY:Medium;
#METER:9;
#RADARVALUES:0.395061,0.391985,0.206761,0.068920,0.004308,321.000000,297.000000,24.000000,8.000000,0.000000,0.000000,0.000000,0.000000,0.000000,0.395061,0.391985,0.206761,0.068920,0.004308,321.000000,297.000000,24.000000,8.000000,0.000000,0.000000,0.000000,0.000000,0.000000;
#CREDIT:;
#NOTES:
00000000
00000000
00000000
00000000
,
00000000
00000000
00000000
00000000
,
00000000
00000000
00000000
00000000
,
00000000
00000000
00000000
00000000
,
00000000
00000000
00000000
00000000
,
00000000
00000000
00000000
00000000
,
10000000
01000000
10000000
00000000
00100000
00000000
00100000
00000000
,
01000000
00000000
00001000
00000000
00010000
00001000
00010000
00000000
,
00000100
00001000
00000100
00000000
00000010
00000000
00000010
00000000
,
00000001
00000010
00000100
00000000
00001000
00000100
00000010
00000000
,
00000001
00001000
00000001
00000000
00000100
00000000
00000100
00000000
,
00001000
00000000
00010000
00000000
00100000
10000000
00100000
00000000
,
01000000
00010000
01000000
00000000
00100000
00000000
00100000
00000000
,
10000000
01000000
00010000
00000000
00002000
00000000
00013000
00000000
,
00000100
00000000
00001000
00000000
00000010
00000010
00000010
00000000
,
00000100
00000000
00000001
00000000
00000010
00000010
00000010
00000000
,
00000100
00000000
00010000
00000000
00001000
00001000
00001000
00000000
,
01000000
01000000
01000000
00000000
00010000
00010000
00010000
00000000
,
00100000
00000000
01000000
00000000
10000000
10000000
10000000
00000000
,
00100000
00000000
01000000
00000000
00010000
00010000
00010000
00000000
,
00100000
00000000
00001000
00000000
00010000
00010000
00010000
00000000
,
00000010
00001000
00001001
00000000
,
00000001
00000000
00000010
00000000
00000100
00001000
00000100
00000000
,
00001000
00000000
00000010
00000000
00000100
00000010
00000100
00000000
,
00001000
00000000
00010000
00000000
00001000
01000000
00001000
00000000
,
00010000
00100000
10000000
00000000
,
10000000
00000000
00100000
00000000
01000000
00010000
01000000
00000000
,
00010000
00000000
00100000
00000000
01000000
00100000
01000000
00000000
,
00010000
00000000
00001000
00000000
00010000
00000100
00010000
00000000
,
00000100
00001000
00000000
00000001
00000000
00001000
00000000
00000000
,
00000001
00000100
00000001
00000000
00001000
00000100
00001000
00000000
,
00000010
00000100
00000010
00000000
00010000
00001000
00010000
00000000
,
00001000
00100000
01000000
10000000
,
10100000
01100000
01010000
00000000
,
10000000
01000000
10000000
00000000
00010000
01000000
00010000
00000000
,
00100000
01000000
00100000
00000000
00001000
00010000
00001000
00000000
,
00010000
00000010
00000100
00000001
,
00000011
00000110
00001100
00000000
,
00000001
00000100
00000010
00000000
00001000
00000000
00000100
00000000
,
00000010
00000100
00001000
00000000
00000100
00000000
00010000
00000000
,
00001000
00100000
00010000
00000000
01000000
00000000
00100000
00000000
,
01100000
10100000
10010000
00000000
,
10000000
01000000
00100000
00000000
00010000
00000000
01000000
00000000
,
00001000
00010000
00001000
00000000
00010000
00000000
00000100
00000000
,
00000010
00000100
00001000
00000000
00000010
00000100
00000001
00000000
,
00000010
00000010
00000010
00000000
,
00002002
00000000
00000000
00003003
,
00001100
00000000
00011000
00000000
,
00110000
20020000
00000000
30030000
,
10010000
00000000
01000000
01000000
,
00010000
10000000
01000000
00000000
00100000
00010000
01000000
00000000
,
00100000
00010000
00001000
00000100
,
00000010
00001000
00000100
00000000
00000010
00000001
00000100
00000000
,
00000001
00001000
00000001
00001000
00000002
00000000
00000003
00000000
,
00000001
00000000
00000001
00000000
00000001
00000100
00001000
00000000
,
00010000
00000000
00010000
00000000
00010000
00100000
10000000
00000000
,
10100000
10000000
11000000
00000000
,
00110000
00010000
01010000
00000000
,
10000000
00000000
10000000
00000000
10000000
01000000
00010000
00000000
,
00001000
00000000
00001000
00000000
00001000
00000010
00000001
00000000
,
00000011
00000001
00000101
00000000
,
00000010
00000000
00000000
00000000
00001000
00000000
00000000
00000000
00000100
00000000
00000000
00000100
00000000
00000000
00000100
00000000
,
00000010
00000100
00001000
00000100
00010000
00000000
00001000
00000000
,
00100000
00010000
10000000
01000000
,
10000000
00100000
01000000
00001000
00010000
00000000
00001000
00000000
,
00000010
00000001
00000010
00000000
00000100
00000000
00001000
00000000
,
00000001
00000010
00000100
00010000
00001000
00000000
00100000
00000000
,
00010000
10000000
01000000
00100000
,
00001000
00010000
00000100
00000000
00000010
00000001
00000100
00000000
,
00001000
00010000
00001000
00000000
00022000
00000000
00033000
00000000
,
00011000
00000000
00000000
00000000
,
00000000
00000000
00000000
00000000
;

//---------------dance-double - ----------------
#NOTEDATA:;
#CHARTNAME:;
#STEPSTYPE:dance-double;
#DESCRIPTION:;
#CHARTSTYLE:;
#DIFFICULTY:Hard;
#METER:13;
#RADARVALUES:0.591977,0.633206,0.318757,0.163686,0.331679,481.000000,444.000000,37.000000,19.000000,0.000000,0.000000,0.000000,0.000000,0.000000,0.591977,0.633206,0.318757,0.163686,0.331679,481.000000,444.000000,37.000000,19.000000,0.000000,0.000000,0.000000,0.000000,0.000000;
#CREDIT:;
#NOTES:
00000000
00000000
00000000
00000000
,
00000000
00000000
00000000
00000000
,
00000000
00000000
00000000
00000000
,
00000000
00000000
00000000
00000000
,
00000000
00000000
00000000
00000000
,
00000000
00000000
00000000
00000000
,
10000000
00000000
01000000
10000000
01000000
00000000
00100000
00000000
00010000
00000000
00000000
00110000
00000000
00000000
00100000
00000000
,
00001000
00010000
00000010
00001000
00000010
00000100
00000001
00000000
,
00001000
00000000
00000010
00001000
00000010
00000000
00000100
00000000
00000001
00000000
00000000
00000101
00000000
00000000
00000100
00000000
,
00001000
00010000
00000100
00010000
00001000
01000000
00200000
00000000
,
01300000
00000000
00010000
01000000
00010000
00000000
10000000
00000000
00100000
00000000
00000000
10100000
00000000
00000000
10000000
00000000
,
01000000
00100000
00001000
00010000
00000010
00001000
00000010
00000000
,
00000100
00000000
00000001
00000100
00000001
00000000
00001000
00000000
00000010
00000000
00001000
00000000
00001001
00000000
00000000
00000000
,
00000001
00000010
00000100
00001000
00020000
00000000
00130000
00000000
,
01000000
00000000
10000000
00100000
00000000
01000000
00001000
01000000
,
00001000
00000000
00010000
00001000
00000000
00010000
00000010
00010000
,
00000010
00000000
00001000
00000010
00000000
00000100
00000001
00000100
,
00000001
00000010
00000100
00001000
00000010
00000100
00001000
00000000
,
00010000
00000000
00100000
10000000
00000000
00100000
01000000
00100000
,
01000000
00000000
00001000
00010000
00000000
00000010
00001000
00000010
,
00001000
00000000
00000001
00000100
00000000
00000010
00001000
00000010
,
00010000
00000000
00000000
00010000
00000000
00000000
00010000
00000000
00002000
00000000
00000000
00000000
00023000
00000000
00000000
00000000
,
01030000
00000000
00000000
01000000
00000000
00000000
11000000
00000000
00000000
11000000
00000000
00000000
10000000
00000000
00100000
00000000
,
00010000
00000000
00000000
00010000
00000000
00000000
00011000
00000000
00000000
00011000
00000000
00000000
00001000
00000000
00010000
00000000
,
00001000
00000000
00000000
00001000
00000000
00000000
00001100
00000000
00000000
00001100
00000000
00000000
00000100
00000000
00000001
00000000
,
00000010
00000000
00000000
00000010
00000000
00000000
00000010
00000000
00000000
00000000
00000001
00000000
00000001
00000000
00000000
00000000
,
00000001
00000000
00000000
00000001
00000000
00000000
00000101
00000000
00000000
00000101
00000000
00000000
00000100
00000000
00000010
00000000
,
00010000
00000000
00000000
00010000
00000000
00000000
00011000
00000000
00000000
00011000
00000000
00000000
00001000
00000000
00100000
00000000
,
00010000
00000000
00000000
00010000
00000000
00000000
00110000
00000000
00000000
00110000
00000000
00000000
01000000
00000000
01000000
00000000
,
10000000
01000000
00000000
01100000
00000000
10010000
00000000
00000000
,
10000000
00000000
01000000
00000000
10000000
01000000
00000000
10000000
01000000
00000000
00100000
00000000
00001000
00000000
00010000
00000000
,
00001000
00000000
00010000
00000000
00001000
00010000
00000000
00001000
00010000
00000000
00000100
00000000
00001000
00000000
00000010
00000000
,
00000100
00000000
00000001
00000000
00000100
00000001
00000000
00000100
00000001
00000000
00001000
00000000
00000010
00000000
00000100
00000000
,
00000110
00001010
00000101
00000000
,
00000001
00000000
00000100
00000000
00000001
00000100
00000000
00000001
00000100
00000000
00000010
00000000
00010000
00000000
00001000
00000000
,
00010000
00000000
00001000
00000000
00010000
00001000
00000000
00010000
00001000
00000000
01000000
00000000
00010000
00000000
00100000
00000000
,
01000000
00000000
10000000
00000000
01000000
10000000
00000000
01000000
10000000
00000000
00010000
00000000
00100000
00000000
01000000
00000000
,
01100000
00000000
00110000
00000000
11000000
00000000
00010000
10000000
,
01000000
00000000
00100000
00000000
01000000
10000000
00000000
01000000
00100000
00000000
00001000
00000000
00010000
00000000
00001000
00000000
,
01000000
00000000
00010000
00000000
00100000
00001000
00000000
00010000
00001000
00000000
00010000
00000000
00000010
00000000
00001000
00000000
,
00000100
00000000
00000010
00000000
00000001
00000010
00000000
00000100
00000010
00000000
00000001
00000000
00000100
00000000
00000001
00000000
,
00000011
00001001
00000110
00000000
,
00000001
00000000
00000010
00000000
00000100
00001000
00000000
00000100
00000010
00000000
00000100
00001000
00000000
00000100
00000010
00000000
,
00000100
00000000
00010000
00000000
00001000
00100000
00000000
00010000
00100000
00000000
00001000
00100000
00000000
00010000
00100000
00000000
,
00010000
00000000
01000000
00000000
00100000
10000000
00000000
00100000
01000000
00000000
00100000
10000000
00000000
00100000
01000000
00000000
,
00100000
00000000
00000000
00000000
10010000
00000000
00000000
00000000
01000000
00000000
00000000
00001000
00000000
00000000
00010000
00000000
,
00022000
00000000
00000000
00033000
,
00002020
00003030
00002200
00003300
,
00011000
00022000
00000000
00033000
,
00220000
00330000
02020000
03030000
,
10000000
00000000
01000000
00100000
01000000
00000000
00100000
00000000
00001000
00000000
00000000
00001000
00000000
00000000
00001000
00000000
,
00010000
00000100
00001000
00000100
00000010
00000001
00000100
00000000
,
00000001
00000000
00000010
00000100
00000010
00000000
00000100
00000000
00010000
00000000
00001000
00000000
00020000
00000000
00000000
00000000
,
00031000
00100000
00010000
01000000
00200000
00000000
10300000
00000000
,
00010000
00000000
01000000
00000000
00100000
10000000
00000000
10000000
00100000
00000000
01000000
00000000
00010000
00000000
00100000
00000000
,
00001000
00000000
00010000
00000000
00000100
00001000
00000000
00001000
00000100
00000000
00000010
00000000
00000001
00000000
00000100
00000000
,
00000010
00000000
00001000
00000000
00000001
00000100
00000000
00000100
00000001
00000000
00000010
00000000
00000100
00000000
00001000
00000000
,
00000010
00000100
00001000
00010000
00100000
01000000
00010000
00000000
,
10000000
00000000
01000000
00000000
00100000
00010000
00000000
00010000
01000000
00000000
00100000
00000000
00010000
00000000
00001000
00000000
,
00000100
00000000
00000010
00000000
00001000
00000100
00000000
00000100
00000010
00000000
00000001
00000000
00000100
00000000
00000010
00000000
,
00001000
00000100
00000010
00000100
00010000
00001000
00010000
01000000
,
00100000
00000000
00000000
00000000
00100000
00000000
00000000
00000000
01000000
00000000
00000000
01000000
00000000
00000000
01000000
00000000
,
10000000
00000000
00100000
01000000
00010000
00000000
00100000
00001000
00010000
00000000
00000000
00000100
00000000
00000000
00001000
00000000
,
00000010
00001000
00000100
00010000
00000010
00001000
00000100
00000000
,
00000010
00000000
00000001
00001000
00000100
00000000
00001000
00000100
00010000
00000000
00000000
00001000
00000000
00000000
00100000
00000000
,
00010000
01000000
00001000
00100000
00010000
01000000
00010000
00000000
,
10000000
00000000
01000000
00100000
00010000
00000000
01000000
00001000
00010000
00000000
00000000
00000010
00000000
00000000
00001000
00000000
,
00000100
00000010
00000001
00000010
00000100
00001000
00000010
00000000
,
00000100
00000000
00000001
00000100
00000010
00000000
00001000
00000100
00000010
00000000
00001000
00000000
00011000
00000000
00000000
00000000
,
00010000
01000000
10000000
01000000
00020000
00000000
00031000
00000000
,
00011000
00000000
00000000
00000000
,
00000000
00000000
00000000
00000000
;

//---------------dance-single - ----------------
#NOTEDATA:;
#CHARTNAME:;
#STEPSTYPE:dance-single;
#DESCRIPTION:;
#CHARTSTYLE:;
#DIFFICULTY:Challenge;
#METER:16;
#RADARVALUES:0.909503,0.944747,0.766739,0.335987,0.982115,739.000000,650.000000,89.000000,39.000000,12.000000,0.000000,0.000000,0.000000,0.000000,0.909503,0.944747,0.766739,0.335987,0.982115,739.000000,650.000000,89.000000,39.000000,12.000000,0.000000,0.000000,0.000000,0.000000;
#CREDIT:;
#NOTES:
// measure 0
0000
0000
0000
0000
,  // measure 1
0000
0000
0000
0000
,  // measure 2
0000
0000
0000
0000
,  // measure 3
0000
0000
0000
0000
,  // measure 4
0000
0000
0000
0000
,  // measure 5
0000
0000
0000
0000
,  // measure 6
1000
0001
1000
0001
1000
0000
0001
0100
0001
0000
0100
0010
0100
0000
0010
1000
,  // measure 7
0001
0000
1000
0000
1001
0000
0001
0000
0010
0001
0010
0001
0100
0000
0010
0000
,  // measure 8
1000
0000
0001
1000
0001
0000
1000
0100
1000
0000
0100
0010
0001
0000
1000
0001
,  // measure 9
0100
0000
0100
0000
1010
0000
1000
0000
0001
1000
0001
1000
0100
0000
0010
0000
,  // measure 10
0100
0010
0001
0010
0100
0000
1000
0010
1000
0000
0001
1000
0001
0000
0010
0100
,  // measure 11
0010
0000
0011
0000
0101
0000
0001
0000
1000
0100
0010
0100
1000
0000
0001
0000
,  // measure 12
0010
0001
0010
0001
1000
0000
0010
1000
0010
0000
0010
0000
1000
0100
0010
0001
,  // measure 13
0100
0010
1000
0010
0100
0010
1000
0010
0200
0000
0000
0300
2002
0000
0000
3003
,  // measure 14
0110
0000
0010
0100
0010
0000
0100
0001
0100
0000
0001
1000
0001
0000
2000
0000
,  // measure 15
3000
0000
1000
0100
1000
0000
0100
0010
0100
0000
0010
0000
0001
0000
0020
0000
,  // measure 16
0030
0000
0001
0010
0001
0000
0010
0100
0010
0000
0100
1000
0100
0000
2000
0000
,  // measure 17
3001
0010
0100
0010
0002
0000
1003
0100
0010
0100
1000
0001
0010
0100
0010
0001
,  // measure 18
1000
0000
0001
1000
0001
0000
1000
0100
1000
0000
0010
0100
0010
0000
0220
0000
,  // measure 19
0330
0000
0100
0001
0100
0000
0001
0010
0001
0000
0010
0000
0100
0000
2000
0000
,  // measure 20
0000
0000
3001
0100
0001
0000
1000
0100
1000
0000
0001
0100
0001
0000
0100
0000
,  // measure 21
0010
1000
0000
1000
0001
1000
0100
0010
0002
0000
0000
0003
2002
0000
0000
3003
,  // measure 22
1010
0000
0000
1100
0000
0000
1001
0000
0000
0101
0000
0000
0011
0000
0110
0000
,  // measure 23
1100
0000
0000
1010
0000
0000
1001
0000
0000
1010
0000
0000
1100
0000
0110
0000
,  // measure 24
0011
0000
0000
1001
0000
0000
0011
0000
0000
0101
0000
0000
1001
0000
0110
0000
,  // measure 25
1001
0000
0000
1100
0000
0000
0110
0000
0000
0000
0010
0000
0010
0000
0010
0000
,  // measure 26
0110
0000
0000
1100
0000
0000
0101
0000
0000
0110
0000
0000
0011
0000
1001
0000
,  // measure 27
1010
0000
0000
0110
0000
0000
0011
0000
0000
0110
0000
0000
1010
0000
1100
0000
,  // measure 28
1001
0000
0000
0101
0000
0000
1100
0000
0000
0101
0000
0000
1010
0000
0011
0000
,  // measure 29
1001
1001
0000
0110
0000
0101
0000
0000
,  // measure 30
0001
0000
1000
0000
0001
1000
0000
0001
1000
0000
0001
1000
0000
0001
1000
0000
,  // measure 31
0001
0000
0100
0000
0001
0100
0000
0001
0100
0000
0001
0100
0000
0001
0100
0000
,  // measure 32
0010
0000
0100
0000
0010
0100
0000
0010
0100
0000
0010
0100
0000
0010
0100
0000
,  // measure 33
0110
0010
1010
1000
1001
0001
0010
0100
,  // measure 34
1000
0000
0001
0000
1000
0100
0000
1000
0100
0000
0010
0001
0000
0010
0001
0000
,  // measure 35
0100
0000
0010
0000
0100
0001
0000
0100
0001
0000
1000
0100
0000
1000
0100
0000
,  // measure 36
0010
0000
0100
0000
0010
0100
0000
0010
0100
0000
1000
0010
0000
1000
0001
0000
,  // measure 37
1001
0000
0000
0000
0110
0000
1001
0000
0110
0000
0000
0000
0001
0010
0100
1000
,  // measure 38
0001
0000
0010
0000
0100
1000
0000
0100
0001
0000
0100
1000
0000
0100
0001
0000
,  // measure 39
0100
0000
0010
0000
0001
0010
0000
1000
0010
0000
0001
0010
0000
1000
0010
0000
,  // measure 40
0001
0000
1000
0000
0100
0001
0000
0100
1000
0000
0100
0001
0000
0100
0010
0000
,  // measure 41
0110
MMMM
1001
MMMM
0110
MMMM
0100
0100
,  // measure 42
0001
0000
0010
0000
0001
0100
0001
0100
0001
0000
1000
0100
1000
0100
1000
0000
,  // measure 43
0010
0000
0100
0000
0010
1000
0010
1000
0010
0000
1000
0001
1000
0001
1000
0000
,  // measure 44
0001
0000
0100
0000
0001
0010
0001
0010
0100
0000
1000
0100
1000
0100
0010
0000
,  // measure 45
0011
0000
0000
0000
1010
0000
0000
0000
0011
0000
0000
1010
0000
0000
0011
0000
,  // measure 46
1000
0100
0010
0001
0200
0000
0310
0100
0001
0100
0010
0100
0002
0000
0103
0010
,  // measure 47
1000
0000
1000
0000
1001
0000
0001
0010
0100
0010
0001
0010
0200
0000
0310
0001
,  // measure 48
1000
0001
0100
0001
2000
0000
3010
1000
0100
1000
0010
1000
0200
0000
1300
0001
,  // measure 49
0010
0000
0001
0000
0101
0000
0110
0000
0100
0010
1000
0010
0100
0001
0010
0100
,  // measure 50
1000
0001
1000
0001
0020
0000
0031
0100
0001
0100
0010
0100
0020
0000
1030
0001
,  // measure 51
0100
0000
0110
0000
1010
0000
1000
0100
0010
0001
0010
0100
2000
0000
3010
0100
,  // measure 52
0010
1000
0100
0010
0002
0000
1003
0010
1000
0001
0020
0000
0031
0010
0100
1000
,  // measure 53
0010
0100
0000
0001
0010
0100
1000
0010
0200
0000
0000
0300
2002
0000
0000
3003
,  // measure 54
0010
0000
0100
0000
0010
1000
0000
0010
0001
0000
0010
1000
0000
0010
0001
0000
,  // measure 55
0010
0000
0100
0000
0001
0100
0000
1000
0100
0000
0001
0100
0000
1000
0100
0000
,  // measure 56
0010
0000
1000
0000
0100
0001
0000
0100
1000
0000
0100
0001
0000
0100
1000
0000
,  // measure 57
1001
0001
0101
0100
1100
1000
0100
0001
,  // measure 58
0100
0000
0001
0000
0010
0001
0000
1000
0100
0000
0010
0001
0000
1000
0100
1000
,  // measure 59
0001
0000
0010
0000
0001
0100
0000
0010
0100
0000
0001
0100
0000
0010
0100
0010
,  // measure 60
1000
0000
0001
0000
1000
0010
0000
1000
0100
0000
1000
0001
0000
0010
0001
0000
,  // measure 61
1001
0000
0000
0000
1001
0000
0000
0000
0110
0000
0000
1001
0000
0000
0110
0000
,  // measure 62
1000
0100
0010
0001
2000
0000
3001
0010
0100
1000
0010
1000
0002
0000
1003
0001
,  // measure 63
0100
0000
0101
0000
1001
0000
0001
1000
0100
1000
0001
1000
0020
0000
0130
0001
,  // measure 64
1000
0001
0100
0001
2000
0000
3001
1000
0100
1000
0001
1000
0200
0000
0310
0100
,  // measure 65
1000
0000
1001
0000
0101
0000
0110
0000
0010
1000
0001
2000
0000
3001
0010
0001
,  // measure 66
1000
0010
1000
0001
0200
0000
0301
1000
0001
0010
0100
2000
0000
3001
0100
0001
,  // measure 67
0100
0000
0110
0000
1010
0000
1000
0100
1000
0100
0010
0002
0000
0000
0013
0001
,  // measure 68
0010
0001
0010
0100
2000
0000
3100
0010
0100
0010
0200
0000
1300
0001
1000
0001
,  // measure 69
0100
0010
1000
0100
0010
0001
0100
0010
1000
0000
0000
0000
1001
0000
0000
0000
,  // measure 70
0220
0000
0000
0330
;
