#TITLE:イーディーエム・ジャンパーズ;
#SUBTITLE:;
#ARTIST:かめりあ feat. ななひら;
#TITLETRANSLIT:EDM jumpers;
#SUBTITLETRANSLIT:;
#ARTISTTRANSLIT:Camellia feat. Nanahira;
#GENRE:;
#CREDIT:;
#BANNER:EDM jumpers.png;
#BACKGROUND:EDM jumpers-bg.png;
#LYRICSPATH:;
#CDTITLE:;
#MUSIC:EDM jumpers.ogg;
#OFFSET:0.000000;
#SAMPLESTART:67.862000;
#SAMPLELENGTH:15.000000;
#SELECTABLE:YES;
#DISPLAYBPM:72.000000:145.000000;
#BPMS:0.000000=145.160995
,4.000000=144.979004
,68.000000=72.531998
,80.000000=144.942001
,112.000000=72.581001
,116.000000=145.001999
,204.000000=72.434998
,208.000000=145.070999
,260.000000=144.932999
;
#STOPS:
;
#BGCHANGES:;
#KEYSOUNDS:;
#ATTACKS:;

//---------------dance-single - ----------------
#NOTES:
     dance-single:
     :
     Beginner:
     3:
     0.090002,0.154699,0.025891,0.103564,0.000000,73.000000,70.000000,3.000000,12.000000,0.000000,0.000000,0.090002,0.154699,0.025891,0.103564,0.000000,73.000000,70.000000,3.000000,12.000000,0.000000,0.000000:
0000
0000
0000
0000
,
0000
0000
0000
0000
,
0000
0000
0000
0000
,
0000
0000
0000
0000
,
0000
0000
0000
0000
,
0001
0000
0000
0000
,
1000
0000
0000
0000
,
0010
0000
0000
0000
,
0100
0000
0000
0000
,
0001
0000
0001
0000
,
1000
0000
1000
0000
,
0010
0000
0010
0000
,
0100
0000
0100
0000
,
0001
0000
1000
0000
,
0010
0000
0100
0000
,
2002
0000
0000
3003
,
0000
0000
0000
0000
,
2000
3000
0200
0300
,
0020
0030
0002
0003
,
2000
3000
0002
0003
,
0200
0000
0000
0300
,
0000
0000
0000
1001
,
0000
0000
0000
0000
,
0000
0000
0000
0000
,
0000
0001
0000
0001
,
0000
1000
0000
1000
,
0000
0000
0000
0000
,
0000
0000
0000
0000
,
0002
0003
2000
3000
,
0000
0000
0000
0000
,
0000
0000
0000
0000
,
0000
0010
0000
0010
,
0000
0100
0000
0100
,
0000
0000
0000
0001
,
0000
0000
0000
1000
,
0000
0000
0000
0000
,
0000
0000
0000
0000
,
0010
0000
0010
0000
,
1000
0000
1000
0000
,
0001
0000
0001
0000
,
0100
0000
0100
0000
,
0001
0000
0001
0000
,
0010
0000
0010
0000
,
0100
0000
0100
0000
,
1000
0000
1000
0000
,
0000
0000
0000
0001
,
0000
0000
0000
1000
,
0000
0000
0000
0010
,
0000
0000
0000
0100
,
0000
0000
0000
0001
,
0000
0000
0000
0000
,
0020
0000
0000
0000
,
0030
0000
0000
1000
,
0000
0000
0000
0100
,
0000
0000
0000
0010
,
0000
0000
0000
0001
,
0000
1000
0000
1000
,
0000
0010
0000
0010
,
0000
0100
0000
0100
,
0000
0000
0000
1001
,
0000
0000
0000
0000
;

//---------------dance-single - ----------------
#NOTES:
     dance-single:
     :
     Easy:
     5:
     0.199731,0.266462,0.172607,0.224389,0.000000,162.000000,142.000000,20.000000,26.000000,0.000000,0.000000,0.199731,0.266462,0.172607,0.224389,0.000000,162.000000,142.000000,20.000000,26.000000,0.000000,0.000000:
0000
0000
0000
0000
,
0000
0000
0000
0000
,
0000
0000
0000
0000
,
0000
0000
0000
0000
,
0000
0000
0000
0000
,
0001
0000
1000
0000
,
0010
0000
0100
0000
,
0001
0000
0010
0000
,
0100
0000
1000
0000
,
0001
0010
0001
0000
,
0100
1000
0100
0000
,
0010
0100
0010
0000
,
0001
1000
0001
0000
,
0001
0010
0100
1000
,
0100
0010
0001
0100
,
0001
0001
1000
1000
,
0220
0000
0330
1001
,
2000
0000
3020
0000
,
0230
0000
0302
0000
,
2003
0000
3002
0000
,
0023
0000
0000
0030
,
0200
0000
0300
1001
,
0000
0000
0000
0010
,
0000
0000
0000
0100
,
0000
1001
0000
0110
,
0000
1001
0000
0110
,
0000
0000
0000
0001
,
0000
0000
0000
1000
,
0020
0030
0200
0300
,
0000
0000
0000
1000
,
0000
0000
0000
0010
,
0000
1001
0000
0110
,
0000
1001
0000
0110
,
0000
0001
0000
0010
,
0000
0001
0000
0100
,
0001
0001
1000
1000
,
0020
0000
0030
1001
,
2000
0000
3001
0110
,
0002
0000
1003
0110
,
0000
0100
0000
0001
,
0000
0100
0000
0001
,
0200
0000
0310
1001
,
0020
0000
0130
1001
,
1000
1000
0001
0001
,
0010
1000
0100
0001
,
0020
0000
0130
1001
,
0200
0000
0310
1001
,
0000
0100
0000
0001
,
0000
0010
0000
0100
,
2000
0100
0000
3100
,
0020
0001
0000
0031
,
0200
0000
0002
0303
,
1000
0100
1000
0100
,
0010
0001
0010
0001
,
0100
0010
0100
0010
,
1000
0001
1000
0001
,
1000
0100
0010
0001
,
0100
0010
0100
0001
,
0010
0100
1000
0001
,
0220
0000
0330
1001
,
0200
0000
0000
0000
,
0000
0000
0000
0300
,
0000
0000
0000
0000
;

//---------------dance-single - ----------------
#NOTES:
     dance-single:
     :
     Medium:
     8:
     0.337817,0.399694,0.224389,0.224389,0.008630,274.000000,248.000000,26.000000,26.000000,0.000000,0.000000,0.337817,0.399694,0.224389,0.224389,0.008630,274.000000,248.000000,26.000000,26.000000,0.000000,0.000000:
0000
0000
0000
0000
,
0000
0000
0000
0000
,
0000
0000
0000
0000
,
0000
0000
0000
0000
,
0000
0000
0000
0000
,
0001
0001
1000
1000
,
0010
0010
0100
0100
,
0001
1000
0010
0100
,
0001
0010
0100
1000
,
0001
0010
0001
0011
,
0100
1000
0100
1100
,
0010
0100
0010
0110
,
0001
1000
0001
0000
1000
0000
0100
1000
,
0001
0010
0001
0000
0001
0010
0001
0000
,
0100
1000
0100
0000
0100
1000
0100
0000
,
0010
0100
0010
0100
0001
1000
0001
1000
,
0020
0000
0030
1001
,
2000
3020
0230
0302
,
2003
3020
0230
0302
,
0023
0230
2300
3002
,
0023
0000
0000
0000
,
0002
0000
0033
1100
,
0001
0000
0001
0000
0100
0001
0100
0000
,
0010
0000
0010
0000
1000
0010
1000
0000
,
0100
1100
0010
0011
,
1000
1010
0001
0101
,
0100
0000
0100
0000
0001
0010
0001
0000
,
1000
0010
1000
0000
1000
0100
1000
0000
,
0020
1030
0002
0103
,
0001
0000
1000
0000
0001
0100
0001
0000
,
0100
0000
0010
0000
1000
0010
1000
0000
,
0010
0110
1000
1100
,
0001
0101
0010
0011
,
1000
0000
1000
0000
1000
0010
0100
0000
,
0001
0000
0001
0000
0001
0100
0010
0000
,
0100
0001
0100
0000
0010
1000
0010
0000
,
0200
0300
1010
0101
,
0001
0000
0010
0000
0001
0010
0100
0000
,
1000
0000
0100
0000
1000
0100
0010
0000
,
0001
0001
0010
0010
,
0001
0100
0001
0100
0010
1000
0010
0000
,
0010
0000
1000
0000
0010
1000
0001
0000
,
0100
0000
0001
0000
0100
0010
1000
0000
,
0001
0000
0000
0100
0000
0000
0000
0000
1000
0000
0000
0010
0000
0000
0100
0000
,
0001
1000
0010
1000
,
0001
0000
1001
0000
0010
0100
1000
0000
,
0100
0000
0110
0000
0100
0010
0001
0000
,
0100
0010
1000
0000
0100
0010
0001
0000
,
1000
0001
1000
0000
0001
1000
0001
0000
,
1000
0000
1010
0000
1000
0010
0100
0000
,
0001
0000
0101
0000
0100
0010
1000
0000
,
0200
0000
0000
0000
0000
0000
0310
1001
,
0020
0000
0130
1010
,
0002
0000
1003
0101
,
0200
0000
0301
0110
,
2000
0000
3010
1001
,
0001
0010
0001
0000
0001
0000
0001
0000
,
0100
1000
0100
0000
0100
0000
0100
0000
,
0010
0100
0010
0100
0001
1000
0001
0000
,
0020
0000
0030
1001
,
0220
0000
0000
0000
,
0000
0000
0000
0330
;

//---------------dance-single - ----------------
#NOTES:
     dance-single:
     :
     Hard:
     12:
     0.445080,0.479632,0.215759,0.431518,0.224389,361.000000,336.000000,25.000000,50.000000,0.000000,0.000000,0.445080,0.479632,0.215759,0.431518,0.224389,361.000000,336.000000,25.000000,50.000000,0.000000,0.000000:
// measure 0
0000
0000
0000
0000
,  // measure 1
0000
0000
0000
0000
,  // measure 2
0000
0000
0000
0000
,  // measure 3
0000
0000
0000
0000
,  // measure 4
0000
0000
0000
0000
,  // measure 5
1000
0001
1000
0001
0010
0100
0000
0200
,  // measure 6
0000
1000
2000
0000
3300
1000
0010
0200
,  // measure 7
0000
0001
0002
0000
0303
0010
0100
2000
,  // measure 8
0000
3200
0000
0320
0000
0032
0000
0003
,  // measure 9
2000
0000
3000
0100
1000
0000
1100
0000
,  // measure 10
0020
0000
0030
1000
0010
0000
1010
0000
,  // measure 11
0200
0000
0300
0001
0100
0000
0101
0000
,  // measure 12
0002
0000
0003
0010
0001
0000
0011
0000
,  // measure 13
1000
0100
1000
0100
1000
0100
1000
0100
,  // measure 14
0010
0100
0010
0100
0010
0100
0010
0100
,  // measure 15
0001
0100
0001
0100
1000
0100
1000
0100
,  // measure 16
0011
1100
0110
1001
,  // measure 17
2000
0000
3200
1000
0320
0100
0032
0010
,  // measure 18
2003
0000
0001
0000
3200
0000
1000
0300
0020
0000
0100
0000
0032
0000
0010
0000
,  // measure 19
2003
0000
3020
1000
0230
0010
0302
0100
,  // measure 20
0023
0000
0000
0000
0000
0000
0000
0000
0000
0000
0000
0000
0030
0000
0001
1000
,  // measure 21
0200
0000
0300
1001
,  // measure 22
0000
0000
0001
0000
0100
0000
0001
0000
0010
0000
0000
0100
0000
0000
1000
0000
,  // measure 23
0100
0000
0010
0000
0001
0000
0010
0000
0100
0000
0000
0100
1000
0000
0001
0000
,  // measure 24
0010
1001
0100
1001
,  // measure 25
0010
0011
0100
1100
,  // measure 26
0000
0000
1000
0000
0100
0000
1000
0000
0010
0000
0000
0100
0000
0000
0001
0000
,  // measure 27
0100
0000
0010
0000
0100
0000
0010
0000
1000
0000
0000
0001
0000
0000
1000
0000
,  // measure 28
0200
1300
0020
0130
0002
0103
0020
1030
,  // measure 29
0000
0000
0100
0000
1000
0000
0100
0000
0010
0000
0000
0001
0000
0000
0010
0000
,  // measure 30
0100
0000
1000
0000
0100
0000
1000
0000
0100
0000
0000
0010
0000
0000
0001
0000
,  // measure 31
0100
1001
0010
1001
,  // measure 32
0100
1100
0010
0011
,  // measure 33
0001
0100
0001
0100
0001
0100
0001
0100
,  // measure 34
0010
1000
0010
1000
0010
1000
0010
1000
,  // measure 35
0001
0010
0001
0010
0100
1000
0100
1000
,  // measure 36
0220
0330
1001
0110
,  // measure 37
0001
0000
0100
0001
0000
1000
0000
0100
0000
0000
0010
0000
0001
0000
0100
0000
,  // measure 38
0010
0000
1000
0100
0000
0010
0000
0001
0000
0000
1000
0000
0100
0000
0010
0000
,  // measure 39
0002
0000
0000
0023
0000
0000
0230
0000
0000
0000
0000
0000
1300
0000
0002
0000
,  // measure 40
0000
0000
0000
0000
0003
0000
0100
0000
0010
0000
0000
1000
0000
0000
0100
0000
,  // measure 41
1000
0000
0100
1000
0000
0001
0000
0100
0000
0000
0010
0000
1000
0000
0100
0000
,  // measure 42
0010
0000
0001
0100
0000
0010
0000
1000
0000
0000
0001
0000
0100
0000
0010
0000
,  // measure 43
1000
0000
0000
0010
1000
0000
0000
0000
0001
0000
0000
0100
0001
0000
1000
0000
,  // measure 44
0001
0000
0010
0000
0100
0000
0010
0000
0001
0000
0000
1000
0000
0000
0010
0000
,  // measure 45
0100
0000
0001
0100
0000
0010
0000
1000
0000
0000
0001
0000
1000
0000
0100
0000
,  // measure 46
1000
0000
0010
0100
0000
0001
0000
1000
0000
0000
0100
0000
1000
0000
0010
0000
,  // measure 47
0200
0000
0000
0302
0000
0000
0023
0000
0000
0000
0030
0000
0002
0000
2000
0000
,  // measure 48
0000
0000
0000
0000
3003
0000
0100
0000
0010
0100
0000
1000
0000
0000
0002
0000
,  // measure 49
0000
0000
0000
0000
0003
0000
0000
0000
0101
0000
0000
0010
0000
1000
0000
0200
,  // measure 50
0000
0000
0000
0000
0300
0000
0010
0000
0001
0000
0000
0100
0000
0010
0000
1000
,  // measure 51
0000
0200
0000
0000
0320
0000
0000
0000
0032
0000
0000
0000
0103
0000
1001
0000
,  // measure 52
0010
0000
0001
0000
0010
0000
0000
0100
0000
1000
0000
0100
1000
0000
0010
0000
,  // measure 53
0100
0000
0001
0000
0100
0000
0000
0010
0000
0100
0000
0010
0100
0000
0001
0000
,  // measure 54
0010
0000
0001
0000
0010
0000
0000
0100
0000
1000
0000
0100
1000
0000
0010
0000
,  // measure 55
0100
0000
0001
0000
0100
0000
0000
0010
0000
0100
0000
0010
0100
0000
0001
0000
,  // measure 56
1000
0010
1000
0010
1000
0010
1000
0010
,  // measure 57
0100
0010
0100
0010
0100
0010
0100
0010
,  // measure 58
0001
0010
0001
0010
1000
0010
1000
0010
,  // measure 59
0202
0000
0303
1010
,  // measure 60
0202
0000
0000
0000
,  // measure 61
0000
0000
0000
0303
;

//---------------dance-double - ----------------
#NOTES:
     dance-double:
     :
     Easy:
     4:
     0.181238,0.239816,0.129455,0.207129,0.000000,147.000000,132.000000,15.000000,24.000000,0.000000,0.000000,0.181238,0.239816,0.129455,0.207129,0.000000,147.000000,132.000000,15.000000,24.000000,0.000000,0.000000:
00000000
00000000
00000000
00000000
,
00000000
00000000
00000000
00000000
,
00000000
00000000
00000000
00000000
,
00000000
00000000
00000000
00000000
,
00000000
00000000
00000000
00000000
,
00100000
00000000
10000000
00000000
,
01000000
00000000
00010000
00000000
,
00001000
00000000
00000100
00000000
,
00000001
00000000
00000010
00000000
,
00000100
00001000
00000001
00000000
,
00000100
00001000
00010000
00000000
,
00100000
10000000
01000000
00000000
,
00100000
00001000
00010000
00000000
,
00100000
10000000
01000000
00010000
,
00001000
00000100
00000001
00000010
,
00000001
00000100
00001000
00010000
,
00002000
00000000
00003000
00011000
,
00200000
00000000
20300000
00000000
,
32000000
00000000
03020000
00000000
,
00032000
00000000
00003020
00000000
,
00000032
00000000
00000000
00000003
,
00000200
00000000
00000300
00001001
,
00000000
00000000
00000000
00000010
,
00000000
00000000
00000000
00001000
,
00000000
00011000
00000000
00100000
,
00000000
10010000
00000000
01000000
,
00000000
00000000
00000000
00001000
,
00000000
00000000
00000000
00000000
,
00020000
00030000
00000200
00000300
,
00000000
00000000
00000000
00001000
,
00000000
00000000
00000000
00000010
,
00000000
00011000
00000000
01000000
,
00000000
10010000
00000000
00100000
,
00000000
10000000
00000000
01000000
,
00000000
00010000
00000000
00001000
,
00010000
00010000
00001000
00001000
,
00011000
00000000
00000010
00000001
,
00002000
00000000
00003100
00011000
,
00200000
00000000
10300000
01100000
,
00000000
10000000
00000000
00010000
,
00000000
00100000
00000000
01000000
,
00020000
00000000
00031000
00011000
,
00000020
00000000
00000031
00000110
,
00000010
00000000
00000001
00000000
,
00000100
00001000
00010000
00001000
,
00020000
00000000
00031000
00011000
,
00200000
00000000
10300000
01100000
,
00000000
00100000
00000000
10000000
,
00000000
01000000
00000000
00010000
,
00002000
00010000
00000000
00013000
,
00000020
00001000
00000000
00001030
,
00000002
00000000
00002000
00003003
,
00001000
00000000
00000001
00000000
,
00000100
00000000
00001000
00000000
,
00010000
00000000
00100000
00000000
,
10000000
00000000
00010000
00000000
,
01000000
00010000
00100000
01000000
,
00010000
00001000
00000100
00000001
,
00001000
00000010
00000100
00001000
,
00020000
00000000
00030000
00011000
,
00022000
00000000
00000000
00000000
,
00000000
00000000
00000000
00033000
,
00000000
00000000
00000000
00000000
;

//---------------dance-double - ----------------
#NOTES:
     dance-double:
     :
     Medium:
     8:
     0.324255,0.426340,0.207129,0.198498,0.008630,263.000000,239.000000,24.000000,23.000000,0.000000,0.000000,0.324255,0.426340,0.207129,0.198498,0.008630,263.000000,239.000000,24.000000,23.000000,0.000000,0.000000:
00000000
00000000
00000000
00000000
,
00000000
00000000
00000000
00000000
,
00000000
00000000
00000000
00000000
,
00000000
00000000
00000000
00000000
,
00000000
00000000
00000000
00000000
,
00001000
00001000
00010000
00010000
,
00000100
00000100
00000010
00000010
,
00000001
00000100
00001000
00010000
,
00100000
10000000
01000000
00100000
,
00010000
10000000
01000000
00110000
,
00001000
00010000
00000010
00001010
,
00010000
00001000
00100000
00110000
,
10000000
00010000
10000000
00000000
01000000
00000000
10000000
00010000
,
00100000
00000000
01000000
00000000
00010000
00001000
00010000
00000000
,
00000010
00000000
00000100
00000000
00000001
00001000
00000001
00000000
,
00000010
00000001
00000010
00000001
00001000
00000100
00001000
00000000
,
00011000
00110000
10010000
01100000
,
20000000
30200000
00320000
00032000
,
00003200
00000302
00002003
00003020
,
00000230
00002300
00023000
00230000
,
02300000
00000000
00000000
00000000
,
00200000
00000000
03300000
10010000
,
00010000
00000000
00100000
00000000
01000000
00010000
00001000
00000000
,
00000010
00000000
00000001
00000000
00000100
00000010
00001000
00000000
,
00000001
00001010
00000001
00001010
,
00010000
00011000
01000000
00011000
,
00100000
00000000
10000000
00000000
00010000
01000000
00100000
00000000
,
10000000
01000000
00100000
00000000
00010000
10000000
01000000
00000000
,
00020000
00031000
00000020
00000031
,
00001000
00000000
00000010
00000000
00000100
00001000
00010000
00000000
,
00100000
00000000
10000000
00000000
01000000
00100000
00010000
00000000
,
10000000
00110000
10000000
00110000
,
00001000
00011000
00000100
00011000
,
00000010
00000000
00000001
00000000
00000100
00000010
00001000
00000000
,
00000010
00000000
00000100
00000000
00001000
00010000
00100000
00000000
,
10000000
01000000
10000000
00000000
00100000
01000000
00100000
00000000
,
00020000
00030000
00001000
00011000
,
00000010
00000000
00000001
00000000
00001000
00000100
00000010
00000000
,
00000001
00000000
00000100
00000000
00001000
00010000
00100000
00000000
,
10000000
01000000
00100000
00010000
,
10000000
01000000
00010000
00001000
,
00000010
00000000
00000001
00000000
00001000
00000100
00000010
00000000
,
00000001
00000000
00000100
00000000
00000010
00000100
00001000
00000000
,
00010000
00000000
00000000
00100000
00000000
00000000
00000000
00000000
10000000
00000000
00000000
01000000
00000000
00000000
00000000
00000000
,
00100000
01000000
00010000
00001000
,
00000010
00000000
00000001
00000000
00001000
00000100
00000010
00000000
,
00000001
00000000
00000100
00000000
00001000
00010000
00100000
00000000
,
10000000
00100000
01000000
00010000
,
10000000
00100000
00010000
00001000
,
00000020
00000100
00000000
00000130
,
00002000
00000010
00000000
00003010
,
00020000
00000000
00000000
00000000
00000000
00000000
00031000
00011000
,
00100000
10000000
00100000
01100000
,
10000000
01000000
00010000
00011000
,
00001000
00000010
00000001
00001001
,
00000001
00000100
00001000
00011000
,
00001000
00010000
00100000
00000000
01000000
00000000
00010000
00000000
,
00100000
01000000
00010000
00000000
00001000
00000000
00000100
00000000
,
00000010
00000100
00001000
00010000
00001000
00000100
00000001
00000000
,
00000020
00000000
00000030
00001001
,
00002002
00000000
00000000
00000000
,
00000000
00000000
00000000
00003003
,
00000000
00000000
00000000
00000000
;

//---------------dance-double - ----------------
#NOTES:
     dance-double:
     :
     Hard:
     11:
     0.427819,0.479632,0.181238,0.396997,0.215759,347.000000,326.000000,21.000000,46.000000,0.000000,0.000000,0.427819,0.479632,0.181238,0.396997,0.215759,347.000000,326.000000,21.000000,46.000000,0.000000,0.000000:
00000000
00000000
00000000
00000000
,
00000000
00000000
00000000
00000000
,
00000000
00000000
00000000
00000000
,
00000000
00000000
00000000
00000000
,
00000000
00000000
00000000
00000000
,
00010000
00001000
00010000
00001000
00010000
00100000
00000000
20000000
,
00000000
01000000
02000000
00000000
33000000
00010000
00001000
00000200
,
00000000
00000001
00000002
00000000
00000303
00001000
00000010
00000200
,
00000000
00000302
00000000
00000023
00000000
00002030
00000000
00003000
,
00020000
00000000
00030000
00100000
10000000
00000000
01010000
00000000
,
00200000
00000000
00300000
01000000
00010000
00000000
00011000
00000000
,
00002000
00000000
00003000
00000010
00000001
00000000
00000101
00000000
,
00000010
00000001
00000010
00000000
00000100
00000000
00011000
00000000
,
00100000
10000000
00100000
10000000
00010000
01000000
00100000
00000000
,
10000000
01000000
10000000
01000000
00010000
00001000
00000100
00000000
,
00000001
00000010
00000001
00001000
00000001
00000010
00000100
00001000
,
00000001
00001100
00010000
00011000
,
00200000
00000000
20300000
01000000
32000000
00100000
03200000
00010000
,
00320000
01000000
02030000
00100000
03200000
00010000
00320000
00001000
,
00032000
00000000
00003020
00000001
00000032
00000100
00000203
00001000
,
00002300
00000000
00000000
00000000
00000000
00000000
00003000
00010000
,
02000000
00000000
03000000
10010000
,
00000000
00000000
10000000
00000000
00100000
00000000
10000000
00000000
01000000
00000000
00000000
00100000
00000000
00000000
00010000
00000000
,
01000000
00000000
00100000
00000000
01000000
00000000
00100000
00000000
10000000
00000000
00000000
01000000
00010000
00000000
00001000
00000000
,
00000100
00000101
00000010
00001010
,
00010000
00011000
00100000
10100000
,
00000000
00000000
10000000
00000000
00100000
00000000
10000000
00000000
01000000
00000000
00000000
00100000
00000000
00000000
00010000
00000000
,
10000000
00000000
00100000
00000000
10000000
00000000
00100000
00000000
01000000
00000000
00000000
00100000
00010000
00000000
00001000
00000000
,
00020000
00031000
00000200
00001300
00020000
00031000
00000200
00001300
,
00000000
00000000
00000001
00000000
00000010
00000000
00000001
00000000
00000100
00000000
00000000
00000010
00000000
00000000
00001000
00000000
,
00000100
00000000
00000010
00000000
00000100
00000000
00000010
00000000
00000001
00000000
00000000
00000100
00001000
00000000
00010000
00000000
,
01000000
11000000
00100000
00110000
,
00001000
00011000
00000010
00000011
,
00000001
00001000
00000001
00000010
00000100
00000000
00001001
00000000
,
00000010
00001000
00000010
00000100
00001000
00000000
00011000
00000000
,
01000000
10000000
01000000
10000000
00010000
00100000
00010000
00100000
,
00002000
00003000
00010000
00001010
,
00000001
00000000
00000100
00000001
00000000
00001000
00000000
00000010
00000000
00000000
00000100
00000000
00000001
00000000
00000000
00000000
,
00001000
00000000
00000100
00001000
00000000
00000001
00000000
00000010
00000000
00000000
00001000
00000000
00010000
00000000
00000000
00000000
,
00200000
00000000
00000000
20300000
00000000
00000000
30020000
00000000
00000000
00000000
00030000
00000000
01000000
00000000
00200000
00000000
,
00000000
00000000
00000000
00000000
00300000
00000000
10000000
00000000
01000000
00000000
00000000
00010000
00000000
00000000
00001000
00000000
,
00000010
00000000
00000001
00000010
00000000
00000100
00000000
00001000
00000000
00000000
00000010
00000000
00000100
00000000
00000000
00000000
,
00000001
00000000
00001000
00000001
00000000
00000100
00000000
00000010
00000000
00000000
00000100
00000000
00001000
00000000
00000000
00000000
,
00010000
00000000
00000000
00001000
00010000
00000000
00000000
00000000
00001000
00000000
00000000
00010000
00001000
00000000
00010000
00000000
,
00100000
00000000
10000000
00000000
00100000
00000000
10000000
00000000
00010000
00000000
00000000
01000000
00000000
00000000
00100000
00000000
,
10000000
00000000
01000000
00100000
00000000
00010000
00000000
01000000
00000000
00000000
00100000
00000000
00010000
00000000
00000000
00000000
,
00001000
00000000
00000010
00000001
00000000
00000100
00000000
00000010
00000000
00000000
00001000
00000000
00000001
00000000
00001000
00000000
,
00000020
00000000
00000000
00000230
00000000
00000000
00000302
00000000
00000000
00000000
00000000
00000000
00000103
00000000
00002000
00000000
,
00000000
00000000
00000000
00000000
00003000
00000000
00010000
00000000
00100000
00000000
00000000
10000000
00000000
00000000
02000000
00000000
,
00000000
00000000
00000000
00000000
03100000
00000000
00000000
00000000
00010000
00000000
00000000
10000000
00000000
00010000
00000000
00200000
,
00000000
00000000
00000000
00000000
01300000
00000000
00010000
00000000
00001000
00000000
00000000
00010000
00000000
00001000
00000000
00000010
,
00000000
00000002
00000000
00000000
00000203
00000000
00000000
00000000
00000320
00000000
00000000
00000000
00001030
00000000
00001001
00000000
,
00000001
00000000
00001000
00000000
00000010
00000000
00000000
00000100
00000000
00000001
00000000
00000100
00001000
00000000
00010000
00000000
,
00100000
00000000
01000000
00000000
00010000
00000000
00000000
10000000
00000000
00010000
00000000
10000000
00100000
00000000
01000000
00000000
,
00010000
00000000
10000000
00000000
01000000
00000000
00000000
00010000
00000000
00001000
00000000
00010000
00001000
00000000
00000010
00000000
,
00000100
00000000
00001000
00000000
00000001
00000000
00000000
00000010
00000000
00000100
00000000
00000010
00000100
00000000
00001000
00000000
,
00000001
00000100
00000001
00000100
00001000
00010000
00100000
00000000
,
10000000
01000000
10000000
00100000
10000000
01000000
00010000
00000000
,
00001000
00000010
00001000
00010000
00100000
00010000
00001000
00010000
,
00002000
00000000
00003000
00011000
,
00022000
00000000
00000000
00000000
,
00000000
00000000
00000000
00033000
,
00000000
00000000
00000000
00000000
;

//---------------dance-single - ----------------
#NOTES:
     dance-single:
     :
     Challenge:
     14:
     0.728649,1.119142,0.284802,0.094934,0.858721,591.000000,558.000000,33.000000,11.000000,0.000000,0.000000,0.728649,1.119142,0.284802,0.094934,0.858721,591.000000,558.000000,33.000000,11.000000,0.000000,0.000000:
// measure 0
0000
0000
0000
0000
,  // measure 1
0000
0000
0000
0000
,  // measure 2
0000
0000
0000
0000
,  // measure 3
0000
0000
0000
0000
,  // measure 4
0000
0000
0000
0000
,  // measure 5
1000
1000
0100
0100
0001
0001
0000
1200
,  // measure 6
0000
1300
2001
0000
3000
0010
0100
0102
,  // measure 7
0000
1003
1020
0000
0030
1000
0100
0010
,  // measure 8
0001
0000
0010
0001
0010
0000
0100
0010
0100
0000
1000
0000
1000
0000
0000
0000
,  // measure 9
1001
0000
1000
0010
0001
0010
1000
0000
,  // measure 10
1001
0000
0000
0000
0001
0000
0100
0000
1000
0000
0100
0000
0001
0010
0001
0010
,  // measure 11
0001
0000
0000
0000
0010
0000
0100
0000
1000
0000
0100
0000
0010
0001
0010
0001
,  // measure 12
0010
0000
0001
0000
0100
0000
0010
0000
1000
0000
0010
0000
0100
0001
0100
0001
,  // measure 13
0100
0010
1000
0100
0001
1000
0010
0001
,  // measure 14
1000
0000
0100
0000
0001
0000
1000
0000
0010
0000
0001
1000
0000
1000
0001
1000
,  // measure 15
0100
0010
0100
0010
0001
1000
0001
1000
0100
0001
0100
0001
0100
1000
0100
1000
,  // measure 16
0100
1001
1010
0110
,  // measure 17
1001
0000
0001
0000
0010
0100
0010
0000
0001
0100
1000
0000
0100
0001
0021
0000
,  // measure 18
0031
1000
0001
0000
1000
0100
1000
0100
1000
0100
1000
0100
1000
0000
0000
0000
0100
0010
0100
0000
0001
0010
0001
0010
0001
0000
0010
0000
1200
0000
0000
0000
,  // measure 19
0310
0000
0001
0000
1000
0001
1000
0000
0010
0100
0010
0000
0100
0001
0000
0000
0001
0100
0000
0000
0100
0010
0000
0000
0010
1000
0000
0000
1000
0001
0000
0000
,  // measure 20
0001
0100
0001
0100
0010
1000
0010
1000
0001
0010
0001
1000
0100
1000
0010
0100
,  // measure 21
0002
0000
0000
0000
0003
1000
1001
0000
,  // measure 22
0001
0000
0100
0000
1000
0000
0100
0001
0100
0000
1000
0000
0100
0000
0001
0000
,  // measure 23
0010
0100
0010
0000
0100
1000
0100
0000
1000
0010
1000
0000
0001
1000
0001
0000
,  // measure 24
1000
0100
1000
0000
1100
0000
0000
0000
0101
0000
0000
0000
1100
0000
0000
0000
,  // measure 25
0101
0000
0000
0000
0011
0000
0000
0000
0010
0000
0100
1000
0100
0000
0010
0001
,  // measure 26
0010
0000
0001
0000
0100
0000
1000
0000
0100
0001
0000
0001
0010
0000
0100
0000
,  // measure 27
0001
0100
1000
0000
1000
0100
0010
0000
0010
0001
1000
0000
0100
0010
0100
0000
,  // measure 28
1000
0000
1010
0000
0010
0010
0100
0100
0001
0010
0000
0001
0100
0000
0110
0000
,  // measure 29
1001
0000
1000
0000
0010
0000
0100
0010
0100
0000
0000
1001
0000
0000
0010
0000
,  // measure 30
0100
0000
1000
0000
0100
0000
0010
0000
0001
1000
0001
0000
1000
0000
0100
0000
,  // measure 31
0010
1000
0011
0001
0100
0010
0110
0100
,  // measure 32
1010
0000
1000
0000
1001
0000
0001
0000
0010
0100
0010
0100
0010
0000
0001
0000
,  // measure 33
0100
0000
0010
0001
0000
0010
1000
0000
0001
0000
0100
0001
0000
1000
0010
1000
,  // measure 34
0010
0000
0100
0001
0000
1000
0001
1000
0001
0000
1000
0010
0000
0100
0001
0100
,  // measure 35
0001
1000
0010
1000
0100
0010
0001
1000
0001
0010
0001
0100
0010
1000
0100
1000
,  // measure 36
0001
0000
0110
1001
,  // measure 37
1000
0000
0100
0001
0000
0100
0000
1000
0010
0000
0100
0000
0010
0000
1000
0000
,  // measure 38
0001
0000
0010
0001
0000
0100
0000
0010
0000
1000
0100
0000
1000
0000
0001
0000
,  // measure 39
0100
0000
0010
1000
0010
0000
0100
0001
0100
0000
0001
0010
0001
0000
0010
0100
,  // measure 40
0010
0000
0100
1000
0000
0001
1000
0001
1000
0010
0000
0010
0100
0000
0001
0000
,  // measure 41
0010
0000
0100
1000
0000
0001
1000
0000
0010
0100
0010
0000
0100
0000
0001
0000
,  // measure 42
0010
0000
0100
1000
0000
0001
1000
0000
0010
0100
0010
0000
1000
0000
0100
0000
,  // measure 43
0011
0000
0010
0001
0010
0000
0001
0100
0001
0000
0100
0010
0100
0000
0010
0000
,  // measure 44
1000
0000
0100
0000
0001
0000
0100
0000
1000
0000
0010
0100
0010
0100
0010
0000
,  // measure 45
1000
0000
0100
1000
0000
0001
0000
1000
0000
0001
0010
0000
0001
1000
0001
0000
,  // measure 46
0100
0000
0010
1000
0000
0010
0100
0010
0100
0000
0001
0000
0010
0000
0100
0000
,  // measure 47
1000
0010
1000
0000
0001
0000
0010
0100
0010
0000
0100
1000
0100
0000
1000
0010
,  // measure 48
1000
0000
0001
1000
0001
0000
0010
0001
0010
0001
0000
1000
0100
0000
1000
0000
,  // measure 49
0200
0000
0000
0000
1300
0000
0001
0010
0001
0000
1000
0100
0000
0001
0100
0000
,  // measure 50
1000
0000
0010
0000
0100
0000
0100
0001
0000
1000
0000
0100
0000
0010
0000
0001
,  // measure 51
0000
0000
0020
0000
0001
0000
0000
0000
0130
0001
0100
0001
0100
0000
0010
0000
1001
0000
0000
0000
1000
0010
1000
0010
1000
0000
0000
0000
1001
0000
0000
0000
,  // measure 52
0001
0000
0010
0000
0100
0000
0000
1000
0000
0001
0000
1000
0001
0000
0100
0010
,  // measure 53
0000
0100
0000
0001
0010
0000
0000
0100
0000
0010
0000
0001
1000
0000
0010
0000
,  // measure 54
1000
0000
0100
0001
0100
0000
1000
0010
0000
0100
0000
0001
0010
0000
0100
1000
,  // measure 55
0100
0010
0001
0001
0100
0100
1010
0000
,  // measure 56
0001
0100
0001
0000
0100
0000
0010
1000
0000
0010
1000
0010
0000
1000
0001
1000
,  // measure 57
0000
0001
1000
0001
0000
0010
0100
0010
0000
0100
1000
0100
0000
1000
0001
1000
,  // measure 58
0100
0010
0100
0010
0001
1000
0001
1000
0010
1000
0010
1000
0001
0100
0001
0100
,  // measure 59
0010
1000
0100
0010
0001
1000
0010
0001
0010
1000
0100
0010
,  // measure 60
2002
0000
0000
0000
,  // measure 61
0000
0000
0000
3003
;
