#TITLE:ドーパミン;
#SUBTITLE:;
#ARTIST:U1 overground;
#TITLETRANSLIT:Dopamine;
#SUBTITLETRANSLIT:;
#ARTISTTRANSLIT:;
#GENRE:;
#CREDIT:;
#BANNER:Dopamine.png;
#BACKGROUND:Dopamine-bg.png;
#LYRICSPATH:;
#CDTITLE:;
#MUSIC:Dopamine.ogg;
#OFFSET:0.000000;
#SAMPLESTART:20.400000;
#SAMPLELENGTH:15.000000;
#SELECTABLE:YES;
#DISPLAYBPM:100.000000:200.000000;
#BPMS:0.000000=200.000000
,132.000000=100.000000
,136.000000=200.000000
,140.000000=400.000000
,148.000000=200.000000
,176.000000=100.000000
,192.000000=200.000000
,232.000000=100.000000
,240.000000=200.000000
,248.000000=100.000000
,272.000000=200.000000
,336.000000=25.000000
,336.500000=200.000000
;
#STOPS:175.937500=1.200000
;
#BGCHANGES:;
#KEYSOUNDS:;
#ATTACKS:;

//---------------dance-single - ----------------
#NOTES:
     dance-single:
     :
     Beginner:
     7:
     0.230148,0.300432,0.031745,0.071425,0.000000,203.000000,199.000000,4.000000,9.000000,0.000000,0.000000,0.230148,0.300432,0.031745,0.071425,0.000000,203.000000,199.000000,4.000000,9.000000,0.000000,0.000000:
0000
0000
0000
0000
,
0000
0000
0000
0000
,
0000
0000
0000
0000
,
0000
0000
0000
0000
,
0000
0000
0000
0000
,
1000
0000
1000
0000
,
0100
0000
0000
0000
,
0002
0000
0000
0003
,
0200
0000
0000
0300
,
1000
0000
0001
0000
,
1000
1000
1000
0000
,
0001
0000
1000
0000
,
0001
0001
0001
0000
,
0010
0010
0010
0000
,
0100
0100
0100
0000
,
1000
1000
1000
0000
,
1001
0000
0000
0000
,
0001
0000
0001
0000
,
0100
0100
0100
0000
,
1000
0000
1000
0000
,
0000
0001
0001
0000
,
1000
0000
1000
0000
,
0100
0100
0100
0000
,
0001
0000
0001
0000
,
0000
1000
1000
0000
,
0001
0000
1000
0000
,
0001
0000
1000
0100
,
1000
0000
0001
0000
,
1000
0000
0001
0000
,
1000
0000
0001
0000
,
1000
0000
0001
0100
,
0001
0000
1000
0000
,
0001
0000
1000
0000
,
2002
0000
3003
0000
,
0010
0000
0000
0000
,
0010
0000
0000
0000
,
0010
0000
0000
0000
,
0001
0001
0001
0001
,
0000
0010
0000
0000
,
1000
1000
1000
1000
,
0000
0010
0000
0000
,
0001
0001
0001
0001
,
0000
0010
0000
0010
,
1000
1000
1000
1000
,
0001
0001
0000
1000
,
0010
0000
0010
0000
,
0001
0001
0010
0000
,
0010
0000
0010
0000
,
1000
1000
0000
0000
,
0001
0001
0001
0000
,
0010
0010
0010
0000
,
0001
0000
1000
0000
,
0010
0010
0010
0000
,
1000
0001
1000
0000
,
0100
0100
0010
0010
,
0110
0000
0110
0000
,
0001
0001
0001
0000
,
0100
0100
0100
0000
,
1000
0010
0100
0001
,
0001
0010
0100
1000
,
1000
0000
1000
0000
,
0001
0001
0001
0000
,
1000
0000
0001
0000
,
1000
1000
1000
0010
,
0020
0100
0000
0100
,
0000
0130
0100
0100
,
0200
0010
0000
0310
,
0000
1000
0000
0001
,
1000
0000
0100
0000
,
0010
0010
0010
0000
,
0001
0000
0100
0000
,
0010
0010
0010
0000
,
1000
0000
1000
0000
,
0001
0000
0001
0000
,
1000
1000
0100
0100
,
1000
0100
1000
0100
,
2000
0000
0000
0000
,
3001
0000
1000
0100
,
0020
0000
0000
0000
,
0031
0000
0100
0000
,
0001
0001
1000
0001
,
1000
1000
0001
1000
,
0001
1000
0001
1000
,
0001
1000
0001
1000
,
0200
0300
0000
0000
0000
0000
0000
0000
,
0000
0000
0000
0000
;

//---------------dance-single - ----------------
#NOTES:
     dance-single:
     :
     Easy:
     10:
     0.436487,0.567483,0.230148,0.039681,0.007936,385.000000,356.000000,29.000000,5.000000,0.000000,0.000000,0.436487,0.567483,0.230148,0.039681,0.007936,385.000000,356.000000,29.000000,5.000000,0.000000,0.000000:
0000
0000
0000
0000
,
0000
0000
0000
0000
,
0000
0000
0000
0000
,
0000
0000
0000
0000
,
0000
0000
0000
0000
,
0010
1000
0000
0100
,
1000
0000
0001
0000
,
0010
0001
1000
0100
,
0001
0100
0001
0100
,
0010
1000
0001
0000
1000
0000
0100
0000
,
1000
0100
0001
0010
,
0001
1000
0100
0000
0010
0000
1000
0000
,
0100
0000
0010
0000
0001
0000
0100
0010
,
0100
0010
0100
0100
,
0010
0000
0010
0000
0100
0001
0100
0001
,
0100
0010
0100
1000
,
2002
0000
0000
3003
,
0010
1000
0010
0000
0001
0000
1000
0000
,
0001
0000
0100
0001
0100
0000
0001
1000
,
0001
1000
0001
0000
0001
0000
1000
0000
,
0010
0000
1000
0100
1000
0100
0000
0000
,
0010
0001
0010
0000
1000
0000
0001
0000
,
1000
0000
0100
0010
0100
0000
0000
0000
,
1000
0001
1000
0000
1000
0000
0001
0000
,
0010
0000
0001
0100
0010
0100
0000
0000
,
0010
1000
0001
0100
,
0001
1000
0010
1000
,
0001
0100
0001
0100
,
0001
0000
1000
0000
0001
1000
0100
0000
,
0010
0001
1000
0100
,
1000
0001
0010
0001
,
1000
0100
1000
0100
,
1000
0000
0001
0000
1000
0001
0100
0000
,
1000
0001
1000
0001
,
1000
0100
1000
0100
,
1000
0000
0010
0000
,
1000
0000
0001
0000
,
1000
0000
0001
0000
1000
0010
1000
0010
,
0000
0110
1001
0110
,
0001
0000
0010
0000
0100
1000
0100
1000
,
0000
0110
1001
0110
,
0001
0000
1000
0000
0001
0010
0001
0010
,
0000
0110
1001
0110
,
1000
0000
0010
0000
0100
0001
0010
0100
,
0010
0010
0000
0000
0100
0000
0000
0000
0010
0000
0000
0000
0100
0000
0000
0000
,
0001
0000
0100
0000
1000
0100
0010
0100
,
0010
0001
1000
0100
0010
0100
0100
0000
,
1000
0100
1000
0100
1000
0100
1001
0000
,
0001
0001
0000
0000
0010
0000
0001
0000
,
1000
0100
1000
0001
,
0010
0001
1000
0001
,
1000
0100
1000
0001
,
0010
0010
0010
0010
,
0100
0000
0010
0001
0100
0000
0001
0000
,
1000
0000
0100
0100
0010
0000
0010
0000
,
0010
0001
0010
0000
1001
0000
1001
0000
,
0001
1000
0001
0100
,
0010
1000
0100
0100
,
1000
0001
0010
0001
1000
1000
0100
0000
,
1000
0001
0010
0100
0001
0010
0001
1000
,
0010
0001
0100
1000
,
0100
0001
0100
0100
,
0010
0010
0000
0000
1000
0000
0000
0000
0001
0000
0000
0000
0100
0000
0000
0000
,
0001
1000
0100
0010
,
0020
0100
1000
0100
,
0001
0100
1030
0001
,
1000
0100
1000
0000
0001
0000
1000
0000
,
0001
0000
1000
0000
0010
0100
0010
0100
,
0001
0010
1000
0010
,
0001
1000
0100
0110
,
0001
1000
0010
0100
,
0001
0100
0010
0110
,
1010
1010
1010
0110
,
0011
0011
0011
0000
,
1000
0001
0010
0001
,
1000
0100
0001
0010
,
1000
0101
1000
0001
,
1000
0010
0100
0000
0001
0000
0001
0000
,
0001
1100
0001
1000
,
0001
0010
0100
0000
1000
0000
0100
0000
,
1000
0000
0001
0000
1000
0100
1000
0000
,
0100
0000
0010
0000
0100
1000
0100
0000
,
1000
0001
1000
0001
1000
0001
1000
0000
,
1001
0110
1001
0110
,
2002
3003
0000
0000
0000
0000
0000
0000
;

//---------------dance-single - ----------------
#NOTES:
     dance-single:
     :
     Medium:
     13:
     0.529453,0.867915,0.103170,0.071425,0.119042,467.000000,454.000000,13.000000,9.000000,0.000000,0.000000,0.529453,0.867915,0.103170,0.071425,0.119042,467.000000,454.000000,13.000000,9.000000,0.000000,0.000000:
0000
0000
0000
0000
,
0000
0000
0000
0000
,
0000
0000
0000
0000
,
0000
0000
0000
0000
,
0000
0000
0000
0000
,
1000
0000
0000
0010
0000
0000
0100
0000
,
0001
1000
0000
0000
0100
0000
1000
0000
,
0001
0000
0000
0100
0000
0000
0001
0000
,
1000
0100
1000
0000
0001
0010
0001
0000
,
1000
0001
0000
0010
0100
0000
1000
0000
,
0010
1000
0000
0001
1000
0100
1000
0001
,
1000
0001
0000
1000
0100
0000
1000
0000
,
0010
1000
0000
0001
1000
0001
0100
0001
,
1000
0010
0000
1000
0100
0000
0100
0000
,
0010
0001
0000
1000
0001
0100
0010
1000
,
0010
1000
0000
0001
0010
0000
0100
0000
,
1100
0110
0011
0110
,
1000
0000
0001
0010
0001
0100
0001
0000
,
1000
0000
0001
1000
0100
0000
1000
0001
,
0010
0000
0001
0000
1000
0100
0000
0000
,
1000
0000
0001
1000
0100
1000
0100
0000
,
1000
0000
0001
0000
1000
0100
1000
0001
,
0100
0000
0001
1000
0100
0000
1000
0010
,
1000
0000
0001
0000
1000
0100
0000
0000
,
1000
0000
0001
1000
0100
0000
1000
0100
,
1000
0000
0010
0000
0100
0000
0001
1000
,
0100
0010
0001
0010
,
0100
1000
0000
0100
1000
0000
0100
0000
,
0010
0001
0000
0100
0010
0100
1000
0000
,
0001
0100
0010
1000
,
0100
0000
0010
0001
1000
0000
0010
0000
,
0100
0001
0000
0100
0001
0000
1000
0000
,
0010
0000
1000
0101
,
1001
0000
0000
0000
0000
0000
0000
0000
0000
0010
0000
0000
0000
0000
0000
0000
,
1000
0001
1000
0010
,
1000
0100
1000
0100
,
1000
0001
1000
0001
,
1000
0000
0001
0010
0001
1000
0100
2000
,
0000
0000
0001
0001
0000
0000
3010
0000
,
0100
0000
0010
0100
0001
1000
0100
2000
,
0000
0000
0100
0100
0000
0000
3000
0000
,
0001
0000
1000
0010
1000
0001
0100
0002
,
0000
0000
0100
0103
0000
0010
1000
0100
,
1000
0000
0010
0100
0001
1000
0100
0000
,
1000
0001
0000
0000
1000
0000
0001
0100
0000
0001
1000
0000
0100
0000
0000
0000
,
1000
0100
0010
0001
0010
0100
1000
0100
1000
0000
0010
0000
1000
0000
0100
0010
,
0001
1000
0010
0100
0001
0000
0100
0010
0100
0000
1000
0100
1000
0000
0001
0000
,
1000
0100
0010
0001
0010
0100
1000
0100
1000
0000
0100
0000
0010
0000
0000
0000
,
0001
1000
0000
0000
1000
0000
0001
0100
,
0000
0010
0001
0000
1000
0000
0001
0000
,
0010
0000
0001
0000
0010
0000
0100
0000
1000
0000
0100
0000
,
0010
0000
0001
0100
0001
0000
0010
0100
,
1000
0100
1000
0100
0010
0100
0010
0100
,
0001
0000
1000
0010
1000
0000
0001
0000
,
1000
0000
0000
0000
0000
0000
0010
0000
0000
1000
0000
0000
0010
0000
0000
0000
1000
0000
0000
0000
0010
0000
0000
0000
,
1000
0001
0100
0000
0010
1000
0100
1000
,
0001
0100
0010
1000
,
0100
0010
0100
0001
,
1000
0001
0010
0001
1000
0100
1000
0000
,
0100
0010
0100
0000
1000
0001
1000
0100
,
1000
0001
0010
0100
,
1000
0100
1000
0000
0001
0100
0001
0000
,
0001
1000
0000
0000
0001
0000
0100
0001
0000
1000
0100
0000
1000
0000
0000
0000
,
0001
0000
0010
0000
0100
0000
1000
0100
1000
0100
0000
0000
1001
0000
1001
0000
,
0020
0100
0001
0100
,
1000
0100
0001
0130
,
2000
0100
0000
0000
0100
0000
3000
0000
0200
0000
0000
0000
0310
0000
0000
0000
,
0020
0001
0000
0000
0100
0000
0000
0000
0001
0000
0000
0000
0130
0000
0000
0000
,
1000
0100
1000
0001
1000
0100
1000
0100
,
0000
0001
0010
0000
0100
0000
1000
0001
,
1000
0100
1000
0001
1000
0100
1000
0100
,
0000
1000
0010
0000
0100
0000
0010
0000
,
1000
0001
0010
0001
0100
0000
0001
0000
,
1000
0010
0100
0001
1000
0000
1000
0000
,
0001
0010
0100
1000
,
0001
0010
0001
0010
0001
0010
0001
0000
,
1000
0001
0010
0001
1000
0100
1000
0000
,
0001
0010
0100
0000
1000
0000
0001
0001
,
1000
0001
0010
0001
1000
0100
1000
0000
,
0010
0100
0001
0000
0000
1000
0100
1000
,
0001
0010
0001
0010
1000
0100
1000
0100
,
0001
0010
0001
0010
0100
0010
0100
0010
,
0100
0001
0100
0001
1000
0001
1000
0001
,
1001
0110
1100
0011
,
2002
3003
0000
0000
0000
0000
0000
0000
;

//---------------dance-single - ----------------
#NOTES:
     dance-single:
     :
     Hard:
     17:
     0.866172,1.335254,0.166659,0.039681,0.813453,764.000000,743.000000,21.000000,5.000000,0.000000,0.000000,0.866172,1.335254,0.166659,0.039681,0.813453,764.000000,743.000000,21.000000,5.000000,0.000000,0.000000:
// measure 0
0000
0000
0000
0000
,  // measure 1
0000
0000
0000
0000
,  // measure 2
0000
0000
0000
0000
,  // measure 3
0000
0000
0000
0000
,  // measure 4
0000
0000
0000
0000
,  // measure 5
0001
0100
0000
0001
0010
0000
0100
0000
,  // measure 6
1000
0100
1000
0000
0100
0000
1000
0000
,  // measure 7
0001
0010
0000
0100
1000
0000
0001
0000
,  // measure 8
1000
0100
1000
0100
0010
0001
0010
0001
,  // measure 9
1000
0100
1000
0000
0001
0000
0010
0000
0100
0000
0000
0000
1000
0000
0000
0000
,  // measure 10
0010
0000
1000
0000
0000
0000
0001
0000
1000
0001
0100
0000
0001
0000
1000
0000
,  // measure 11
0001
0010
0001
0000
0100
0000
0010
0000
0100
0000
0000
0000
1000
0000
0100
0000
,  // measure 12
0010
0000
0001
0000
1000
0000
0001
0000
1000
0000
0001
0010
0001
0000
0100
0000
,  // measure 13
0001
0010
0001
0000
0000
0000
0001
0000
1000
0000
0000
0000
0100
0000
0000
0000
,  // measure 14
0010
0000
0001
0000
0000
0000
1000
0000
0001
0000
0100
0010
0100
0000
0001
0000
,  // measure 15
0100
0010
0100
0000
0000
0000
1000
0000
0010
0000
0000
0000
0100
0000
0000
0000
,  // measure 16
1000
0100
1000
0100
0010
0100
1000
0100
1000
0100
0010
0000
,  // measure 17
0001
0000
0000
0000
1000
0010
0100
0000
0001
0000
0100
0000
0001
0100
0001
0100
,  // measure 18
0001
0000
1000
0100
1000
0000
0001
0000
0100
0000
0000
0000
0001
0010
0100
0000
,  // measure 19
1000
0000
0000
0000
0001
0010
0001
0000
1000
0000
0100
0000
1000
0100
0010
0001
,  // measure 20
1000
0000
0001
0100
0001
0000
1000
0000
0100
0000
1000
0000
0000
0000
1000
0000
,  // measure 21
0001
0010
0100
0000
1000
0000
0100
0000
1000
0100
0010
0001
1000
0000
0001
0100
,  // measure 22
0001
0000
1000
0000
0100
0000
0000
0000
1000
0010
0100
0000
0001
0000
0010
0000
,  // measure 23
0001
0010
0001
0000
1000
0000
0100
0000
1000
0100
0010
0100
1000
0000
0001
0100
,  // measure 24
0010
0000
1000
0000
0100
0000
1000
0000
0000
0000
1000
0000
0001
0100
0001
0100
,  // measure 25
0001
0000
1000
0000
0010
0000
0100
0000
0010
0000
0001
0000
0010
0001
0010
0001
,  // measure 26
0100
0001
0000
1000
0001
0000
0110
0000
,  // measure 27
0100
0000
0001
0000
0000
0000
0100
0000
0001
0000
1000
0010
0100
0001
0100
0000
,  // measure 28
0010
0000
1000
0000
0000
0000
0100
0000
0010
0000
0100
0010
0001
0000
1000
0000
,  // measure 29
0001
0000
1000
0000
0010
0000
0100
0000
0010
0000
1000
0000
0010
0100
0001
0000
,  // measure 30
0100
0010
1000
0001
1000
0100
0010
0000
,  // measure 31
0100
0000
1000
0000
0001
0000
0100
0000
1000
0000
0100
0000
0001
0010
0001
0000
,  // measure 32
1000
0001
1000
0100
0010
0000
0110
0000
,  // measure 33
1001
0000
0001
0000
0001
0000
0001
0000
0001
0010
0000
0000
0001
0000
0001
0000
,  // measure 34
1000
0000
0100
0000
1000
0100
1000
0000
0001
0000
0010
0000
0001
0000
0010
0000
,  // measure 35
0001
0000
0100
0010
1000
0000
0100
0010
,  // measure 36
0001
0000
0100
0010
0110
0000
0000
0000
,  // measure 37
1001
0000
0000
0000
0001
0000
0010
0000
0001
0010
0100
0000
0010
0000
0001
0000
,  // measure 38
1000
0100
0010
0100
0110
0000
1100
0000
,  // measure 39
0100
0000
0000
0000
0010
0000
0100
0000
1000
0010
0100
0000
0001
0000
1000
0000
,  // measure 40
0001
0000
1000
0000
0001
1000
0100
0000
0010
0000
0100
0000
0010
0000
0000
0000
,  // measure 41
1001
0000
0000
0000
0001
0000
0010
0000
0001
0010
0100
0000
1000
0000
0001
0000
,  // measure 42
1000
0010
1000
0001
0000
0010
0001
0100
,  // measure 43
0001
0000
0000
0000
0010
0000
0100
0000
1000
0010
0100
0000
0001
0000
0010
0000
,  // measure 44
0001
0000
0000
1000
0000
0000
0000
0000
0000
0000
0000
0000
0001
0000
0000
0000
0000
0000
1000
0000
0000
0100
0000
0000
0000
0000
0000
1000
0000
0000
0001
0000
0000
0000
0000
0000
1100
0000
0000
0000
0000
0000
1000
0000
0100
0000
1000
0000
,  // measure 45
0001
0000
0000
0000
0000
0000
0000
0000
0100
0000
0000
0000
0000
0000
0000
0000
0001
0000
0000
0000
0000
0000
0000
0000
0100
0000
0000
0000
0000
0000
0000
0000
0001
0000
0000
0000
0000
0000
0000
0000
0010
0000
0000
0000
0000
0000
0000
0000
0100
0000
0000
0000
0000
0000
0000
0000
0010
0000
0000
0000
0000
0000
0000
0000
0100
0000
0000
0000
0000
0000
0000
0000
1000
0000
0000
0000
0000
0000
0000
0000
0010
0000
0000
0000
0000
0000
0000
0000
1000
0000
0000
0000
0000
0000
0000
0000
0010
0000
0000
0000
0000
0000
0000
0000
0000
0000
0000
0000
0000
0000
0000
0000
0000
0000
0000
0000
0000
0000
0000
0000
0001
0000
0000
0000
0000
0000
0010
0000
0000
0000
0000
0000
0100
0000
0000
0000
0000
0000
0000
0000
0000
0000
0000
0000
1000
0000
0000
0000
0000
0000
0000
0000
0000
0000
0000
0000
0001
0000
0000
0000
0000
0000
0000
0000
0000
0000
0000
0000
0100
0000
0000
0000
0000
0000
0000
0000
0000
0000
0000
0000
0010
0000
0000
0000
0000
0000
0000
0000
0000
0000
0000
0000
,  // measure 46
1000
0000
0000
0000
0000
0000
0000
0000
0000
0000
0000
0000
0001
0000
0000
0000
0000
0000
0000
0000
0000
0000
0000
0000
0010
0000
0000
0000
0000
0000
0100
0000
0000
0000
0000
0000
1000
0000
0000
0000
0000
0000
0100
0000
0000
0000
0000
0000
1000
0000
0000
0000
0000
0000
0000
0000
0000
0000
0000
0000
0000
0000
0000
0000
0000
0000
0000
0000
0000
0000
0000
0000
0001
0000
0000
0000
0000
0000
0010
0000
0000
0000
0000
0000
0001
0000
0000
0000
0000
0000
0000
0000
0000
0000
0000
0000
1000
0000
0000
0000
0000
0000
0000
0000
0000
0000
0000
0000
0000
0000
0000
0000
0000
0000
0000
0000
0000
0000
0000
0000
0001
0000
0000
0000
0000
0000
0000
0000
0010
0000
0000
0000
0000
0000
0000
0000
0100
0000
0000
0000
0000
0000
0000
0000
1000
0000
0000
0000
0000
0000
0000
0000
0000
0000
0000
0000
0000
0000
0000
0000
0000
0000
0000
0000
0000
0000
0000
0000
1100
0000
0000
0000
0000
0000
0000
0000
0000
0000
0000
0000
0000
0000
0000
0000
0000
0000
0000
0000
0000
0000
0000
0000
,  // measure 47
0001
0000
0000
0100
0000
0000
0010
0000
0000
1000
0000
0000
0010
0000
0000
0100
0000
0000
0001
0000
0000
0100
0000
0000
0001
0000
0000
0000
0000
0000
0100
0000
0010
0000
0100
0000
2000
0000
0000
0000
0000
0000
0001
0000
0000
0000
0000
0000
,  // measure 48
3001
0000
0000
1000
0000
0000
0001
0000
0000
0100
0000
0000
0001
0010
0001
0000
0000
0000
1000
0000
0000
0100
0000
0000
,  // measure 49
1000
0000
0000
0010
0000
0000
1000
0000
0000
0001
0000
0000
1000
0000
0000
0000
0000
0000
0001
0010
0001
0000
0000
0000
,  // measure 50
1000
0000
0000
0000
0100
0000
0000
0000
0010
0000
0000
0000
0001
0000
0000
0000
0010
0000
0000
0000
0001
0000
0000
0000
0010
0000
0000
0000
0100
0000
0000
0000
1000
0000
0000
0000
0001
0000
0000
0100
0000
0000
0010
0000
0000
0000
0000
0000
,  // measure 51
1000
0000
0000
0000
0010
0100
0010
0000
0001
0000
0000
0000
1000
0000
0010
0000
,  // measure 52
1000
0100
1000
0100
0010
0001
0010
0001
,  // measure 53
1000
0100
0000
0000
0010
0100
0010
0000
0101
0000
0000
0000
1100
0000
0000
0000
,  // measure 54
0001
0000
0000
0010
0001
0010
0100
1000
0010
1000
0001
1000
,  // measure 55
0010
0000
0100
0000
0001
0000
0000
0000
1000
0100
1000
0000
0001
0100
0001
0000
,  // measure 56
1000
0000
0001
0000
0100
0000
0001
0000
1000
0000
0010
0000
0100
0010
1000
0000
,  // measure 57
0100
0000
0010
0000
0001
0000
1000
0000
0100
0000
1000
0001
0100
0000
0000
0000
,  // measure 58
1001
0000
0000
0000
0001
0010
0100
0000
0010
0100
1000
0000
0001
0000
0000
0000
1000
0010
0100
0000
0001
0000
0100
0000
0220
0000
0000
0000
0330
0000
0000
0000
,  // measure 59
0001
0000
0000
0000
0010
0100
1000
0000
0100
0000
1000
0000
0001
0000
0010
0000
0001
0000
0010
0001
0100
0000
0010
0000
1000
0000
0100
0010
0001
0000
1000
0000
,  // measure 60
0100
0000
1000
0001
0100
0000
0001
0100
0010
0000
1000
0000
0100
0000
0010
0000
,  // measure 61
1000
0000
0100
0000
1000
0000
0100
0000
0010
0100
0010
0000
0001
0010
0001
0000
,  // measure 62
1000
0000
0001
0000
0000
0000
0010
0001
0100
0000
0000
0000
0001
0000
1000
0000
0000
0000
0001
0000
0100
0000
0000
0000
0001
0000
0000
0000
1000
0010
0100
0000
,  // measure 63
0001
0000
0000
0000
0010
0100
0010
0000
1000
0000
0000
0000
0001
0000
0100
0000
1000
0000
0100
0000
0010
0000
0000
0000
1000
0100
1000
0000
0001
0010
0001
0000
,  // measure 64
1000
0010
0100
0000
0001
0000
0100
0000
0000
0000
0001
0000
0000
0000
0100
0000
0001
0000
0000
0000
0010
0000
0000
0000
0100
0000
0000
0000
1000
0000
0000
0000
,  // measure 65
0010
0100
0001
0000
0100
0000
0010
0000
0000
0000
1000
0000
0000
0000
0001
0000
0100
0000
0000
0000
0000
0000
0010
0000
0110
0000
0000
0000
0000
0000
0000
0000
,  // measure 66
1000
0000
0010
0000
0000
0000
1000
0000
0100
0000
0000
0000
1000
0000
0000
0000
0001
0000
0010
0000
0000
0000
0001
0000
1000
0000
0001
0100
0001
0000
1000
0000
,  // measure 67
0010
0000
0100
0000
0000
0000
0010
0000
0100
0010
0001
0000
0010
0001
0010
0000
0001
0000
0010
0000
0100
0000
1000
0000
0100
0000
0010
0000
0001
0000
0000
0000
,  // measure 68
1000
0000
0100
0000
1000
0000
0001
0000
1000
0000
0100
0000
1000
0000
0100
0010
,  // measure 69
0100
1000
0001
0000
0011
0000
0000
0000
1100
0000
0000
0000
1000
0000
0001
0000
,  // measure 70
1000
0000
0100
0000
1000
0000
0001
0000
1000
0000
0100
0000
1000
0000
0100
0010
,  // measure 71
0100
1000
0001
0000
0010
0000
0000
0000
0110
0000
0000
0000
0001
0000
0001
0000
,  // measure 72
1000
0000
0001
0010
0100
1000
0001
0000
0100
0000
0000
0000
1100
0000
0000
0000
,  // measure 73
0001
0000
0010
0100
1000
0010
0100
0000
0001
0010
0001
0000
1000
0100
1000
0000
,  // measure 74
0001
0100
0010
1000
0100
1000
0001
0100
,  // measure 75
0001
0010
0100
1000
0001
0000
1000
0000
0010
0100
0001
0100
0010
1000
0010
1000
,  // measure 76
0001
0100
0001
0000
0010
0000
0001
0000
1000
0000
0100
0000
1000
0000
0100
0000
,  // measure 77
0010
0001
0010
0100
1000
0000
0000
0000
1000
0000
0000
0000
0100
0000
0010
0000
,  // measure 78
0001
0000
1000
0001
0100
0010
1000
0000
0001
0000
0100
0000
0001
0000
0100
0000
,  // measure 79
0001
0100
0010
1000
0010
0000
0000
0000
0001
0000
1000
0000
0001
0000
1000
0000
,  // measure 80
0001
0100
0001
0010
0001
0000
0010
0000
0001
0000
0100
0000
0001
0000
0100
0000
,  // measure 81
0001
0010
0001
0100
0001
0000
0010
0000
0100
0000
0010
0000
0100
0000
0010
0000
,  // measure 82
0001
0100
0010
1000
0010
0100
0001
0100
0010
1000
0100
0010
0001
0100
0010
1000
,  // measure 83
0001
0100
0010
1000
0001
0100
0010
0100
0001
0000
0000
0000
1001
0000
0000
0000
,  // measure 84
2002
3003
0000
0000
0000
0000
0000
0000
;

//---------------dance-double - ----------------
#NOTES:
     dance-double:
     :
     Easy:
     10:
     0.408144,0.534895,0.166659,0.055553,0.000000,360.000000,339.000000,21.000000,7.000000,0.000000,0.000000,0.408144,0.534895,0.166659,0.055553,0.000000,360.000000,339.000000,21.000000,7.000000,0.000000,0.000000:
00000000
00000000
00000000
00000000
,
00000000
00000000
00000000
00000000
,
00000000
00000000
00000000
00000000
,
00000000
00000000
00000000
00000000
,
00000000
00000000
00000000
00000000
,
00000010
00000001
00000000
00000100
,
00001000
00000000
00010000
00000000
,
00100000
10000000
00010000
01000000
,
10000000
01000000
00010000
00001000
,
00000010
00000001
00001000
00000000
00000001
00000000
00000100
00000000
,
00000001
00000100
00001000
00010000
,
00001000
01000000
00100000
10000000
,
01000000
00000000
00100000
00000000
00010000
00000000
10000000
01000000
,
00010000
00001000
00000100
00000100
,
00000010
00000000
00000010
00000000
00000100
00000001
00000100
00000001
,
00000100
00000010
00000100
00001000
,
00022000
00000000
00000000
00033000
,
00001000
00010000
00001000
00000000
00010000
00000000
01000000
00000000
,
10000000
00000000
01000000
00100000
01000000
00000000
10000000
00000000
,
01000000
00010000
00001000
00000000
00000100
00000000
00000001
00000000
,
00000010
00000000
00000001
00000100
00000001
00000100
00000000
00000000
,
00000010
00000001
00000010
00000000
00000100
00000000
00001000
00000000
,
00010000
00000000
01000000
00100000
01000000
00000000
00000000
00000000
,
10000000
01000000
10000000
00000000
01000000
00000000
00010000
00000000
,
00001000
00000000
00010000
00000000
00000010
00000100
00000000
00000000
,
00000001
00000001
00000010
00001000
,
00010000
00100000
10000000
01000000
,
10000000
01000000
00010000
00001000
,
00000100
00000000
00000001
00000000
00001000
00000001
00000100
00000000
,
00001000
00010000
01000000
10000000
,
10000000
00010000
00100000
00010000
,
10000000
01000000
00010000
00001000
,
00000100
00000000
00000000
00000000
00000010
00000100
00000010
00000000
,
00022000
00000000
00000000
00033000
,
00010000
01000000
10000000
01000000
,
10000000
00000000
01000000
00000000
,
00010000
00000000
00001000
00000000
,
00000100
00000000
00000001
00000000
00001000
00000010
00001000
00000010
,
00000000
00000010
00001000
00011000
,
00010000
00000000
00100000
00000000
10000000
00100000
01000000
00100000
,
00000000
01100000
01010000
00011000
,
00000010
00000000
00000100
00000000
00000010
00000001
00000010
00000001
,
00000000
00000110
00001100
00011000
,
01000000
00100000
10000000
00100000
,
00010000
00000100
00000010
00000100
,
00001000
00000100
00010000
00100000
,
00100000
00000000
10000000
01000000
00100000
01000000
01000000
00000000
,
10000000
01000000
00010000
00000000
00001000
00000100
00000001
00000000
,
00000001
00000001
00000000
00000000
00000010
00000000
00000001
00000000
,
00000100
00001000
00010000
01000000
,
00100000
00010000
10000000
00010000
,
10000000
01000000
10000000
00010000
,
00100000
00001000
00010000
00000100
,
00000100
00000000
00000010
00000001
00000100
00000000
00000001
00000000
,
00000001
00000000
00000010
00000010
00000001
00000000
00000100
00000000
,
00001000
00010000
00001000
00000000
00011000
00000000
00011000
00000000
,
00010000
00100000
10000000
01000000
,
00100000
00010000
01000000
00001000
,
00010000
00001000
00010000
00001000
00000100
00000001
00001000
00000000
,
00000100
00010000
00010000
00001000
00010000
00001000
00010000
00100000
,
10000000
00010000
01000000
10000000
,
01000000
00010000
00001000
00000010
,
00000101
00000000
00000100
00000000
00001000
00010000
01000000
00000000
,
10000000
10000000
01000000
00100000
,
00020000
00100000
10000000
01000000
,
00000100
00000100
00030100
00000000
,
00000001
00000100
00000001
00000000
00000100
00000000
00001000
00000000
,
00010000
00000000
00100000
00000000
10000000
01000000
00100000
00000000
,
00010000
10000000
00010000
00100000
,
00010000
10000000
01000000
00010000
,
00001000
00000100
00000001
00000100
,
00000001
00001000
00000010
00000100
,
00000011
00000110
00001000
00010000
,
00100000
10000000
11000000
00000000
,
10000000
00010000
00100000
00010000
,
10000000
01000000
00010000
00001000
,
00010000
00000100
00001000
00000001
,
00001000
00000010
00000100
00000000
00000001
00000000
00000010
00000000
,
00000001
00001100
00000001
00000100
,
00001000
00010000
00001000
00000000
00010000
00000000
01000000
00000000
,
10000000
00000000
00010000
00000000
10000000
01000000
10000000
00000000
,
01000000
00000000
00010000
00000000
00001000
00010000
00001000
00000000
,
00010000
00000100
00010000
00000000
00001000
00000100
00001000
00000000
,
00000110
00000011
00001100
00011000
,
00022000
00033000
00000000
00000000
,
00000000
00000000
00000000
00000000
;

//---------------dance-double - ----------------
#NOTES:
     dance-double:
     :
     Medium:
     13:
     0.533988,0.867915,0.111106,0.087297,0.119042,471.000000,457.000000,14.000000,11.000000,0.000000,0.000000,0.533988,0.867915,0.111106,0.087297,0.119042,471.000000,457.000000,14.000000,11.000000,0.000000,0.000000:
00000000
00000000
00000000
00000000
,
00000000
00000000
00000000
00000000
,
00000000
00000000
00000000
00000000
,
00000000
00000000
00000000
00000000
,
00000000
00000000
00000000
00000000
,
00001000
00000000
00000000
00000010
00000000
00000000
00000100
00000000
,
00000001
00001000
00000000
00000000
00000100
00000000
00010000
00000000
,
00001000
00000000
00000000
01000000
00000000
00000000
00010000
00000000
,
10000000
01000000
10000000
00000000
00010000
00100000
00010000
00000000
,
10000000
01000000
00000000
00010000
00001000
00000000
00000100
00000000
,
00000001
00001000
00000000
00000001
00001000
00000100
00001000
00000001
,
00001000
00000001
00000000
00000100
00001000
00000000
00010000
00000000
,
00100000
10000000
00000000
00010000
10000000
00010000
01000000
00010000
,
10000000
00100000
00000000
00010000
00001000
00000000
00010000
00000000
,
00000010
00001000
00000000
00000001
00001000
00000100
00000010
00000001
,
00000010
00000001
00000000
00000010
00001000
00000000
00010000
00000000
,
00110000
01100000
10000000
11000000
,
10000000
00000000
00010000
00100000
00010000
01000000
00010000
00000000
,
10000000
00000000
00010000
10000000
01000000
00000000
00010000
00001000
,
00000010
00000000
00000001
00000000
00001000
00000100
00000000
00000000
,
00001000
00000000
00000001
00001000
00000100
00010000
00001000
00000000
,
00010000
00000000
01000000
00000000
10000000
01000000
10000000
00010000
,
01000000
00000000
00010000
10000000
01000000
00000000
00010000
00001000
,
00000010
00000000
00000001
00000000
00001000
00000100
00000000
00000000
,
00001000
00000000
00000100
00010000
00001000
00000000
00010000
00001000
,
01000000
00000000
00100000
00000000
01000000
00000000
00010000
10000000
,
01000000
00100000
00001000
00010000
,
00000100
00001000
00000000
00000100
00001000
00000000
00000100
00000000
,
00000010
00000001
00000000
00000100
00000010
00000100
00001000
00000000
,
00010000
01000000
10000000
00100000
,
01000000
00000000
00100000
10000000
00010000
00000000
00100000
00000000
,
00001000
00010000
00000000
00000100
00001000
00000000
00000001
00000000
,
00000010
00000000
00000001
00001100
,
00000110
00000000
00000000
00000000
00000000
00000000
00000000
00000000
00000000
00010000
00000000
00000000
00000000
00000000
00000000
00000000
,
00001000
00010000
00100000
10000000
,
01000000
10000000
01000000
00010000
,
01000000
00010000
01000000
00010000
,
10000000
00000000
00100000
00010000
00001000
00010000
00001000
00000200
,
00000000
00000000
00000001
00000001
00000000
00000000
00000310
00000000
,
00000001
00000000
00000100
00001000
00010000
00001000
00010000
02000000
,
00000000
00000000
10000000
10000000
00000000
00000000
03000000
00000000
,
10000000
00000000
01000000
00010000
00001000
00000100
00000010
00000002
,
00000000
00000000
00000100
00000103
00000000
00001000
00010000
01000000
,
10000000
00000000
00100000
01000000
00010000
10000000
01000000
00000000
,
00000001
00001000
00000000
00000000
00000100
00000000
00010000
00000100
00000000
00001000
00000100
00000000
00010000
00000000
00000000
00000000
,
00001000
01000000
00100000
10000000
00100000
01000000
00010000
01000000
00010000
00000000
00100000
00000000
00001000
00000000
00010000
00001000
,
00010000
00001000
00000010
00000100
00001000
00000000
00000100
00000010
00000001
00000000
00001000
00000100
00010000
00000000
00001000
00000000
,
00010000
01000000
00100000
00010000
00100000
01000000
10000000
01000000
10000000
00000000
01000000
00000000
00100000
00000000
00000000
00000000
,
00001000
00010000
00000000
00000000
00001000
00000000
00000100
00000001
,
00000000
00001000
00000001
00000000
00000100
00000000
00001000
00000000
,
00010000
00100000
10000000
01000000
10000000
01000000
,
00010000
00000000
00001000
00010000
00001000
00000000
00010000
00001000
,
00000100
00000010
00000001
00000010
00000100
00000010
00000100
00001000
,
00010000
00000000
00001000
00010000
00100000
00000000
10000000
00000000
,
00100000
00000000
00000000
00000000
00000000
00000000
10000000
00000000
00000000
01000000
00000000
00000000
10000000
00000000
00000000
00000000
01000000
00000000
00000000
00000000
00010000
00000000
00000000
00000000
,
00001000
00000010
00000001
00000000
00000010
00000001
00000100
00000001
,
00000100
00001000
00010000
00100000
,
01000000
00100000
01000000
00010000
,
10000000
01000000
00010000
00001000
00000010
00000001
00000100
00000000
,
00000001
00000100
00010000
00000000
10000000
00010000
10000000
01000000
,
00010000
00001000
00000100
00000001
,
00000001
00000100
00001000
00000000
00010000
00001000
00010000
00000000
,
00100000
01000000
00000000
00000000
00001000
00000000
00000010
00000001
00000000
00000010
00000100
00000000
00010000
00000000
00000000
00000000
,
00001000
00000000
00100000
00000000
01000000
00000000
10000000
01000000
00010000
00001000
00000000
00000000
00020000
00000000
00130000
00000000
,
00120000
00001000
00000100
00030000
00001000
00000000
00000100
00000000
,
00002001
00000100
00010000
00000000
01003000
00000000
00100000
00000000
,
00020000
00100000
00000000
00000000
00001000
00000000
00030000
00000000
00002000
00000000
00000000
00000000
00003010
00000000
00000000
00000000
,
00000020
00000100
00000000
00000000
00000100
00000000
00000000
00000000
00000130
00000000
00001100
00000000
00011000
00000000
01100000
00000000
,
10000000
01000000
10000000
00010000
00100000
00001000
00010000
00000100
,
00000000
00001000
00000001
00000000
00000100
00000000
00000001
00000100
,
00000001
00000100
00000001
00001000
00000010
00010000
00001000
01000000
,
00000000
00010000
10000000
00000000
00100000
00000000
00100000
00000000
,
10000000
01000000
00010000
00001000
00000010
00000000
00000001
00000000
,
00000001
00000100
00000010
00010000
00001000
00000000
00010000
00000000
,
01000000
10000000
00100000
10000000
,
01000000
00100000
00001000
00010000
00000100
00001000
00000001
00000000
,
00001000
00000001
00000010
00000001
00000100
00001000
00010000
00000000
,
01000000
00100000
01000000
00000000
10000000
00000000
00010000
00100000
,
00010000
10000000
00100000
10000000
01000000
00010000
00001000
00000000
,
00000100
00000010
00000100
00000000
00000000
00000001
00001000
00000001
,
00000010
00001000
00010000
01000000
10000000
01000000
10000000
00000000
,
01000000
00100000
00001000
00010000
00000100
00001000
00000001
00000010
,
00000001
00000100
00001000
00010000
01000000
10000000
01000000
10000000
,
00100000
00011000
00000110
00000101
,
00002002
00003003
00000000
00000000
00000000
00000000
00000000
00000000
,
00000000
00000000
00000000
00000000
;

//---------------dance-double - ----------------
#NOTES:
     dance-double:
     :
     Hard:
     17:
     0.799282,1.134966,0.071425,0.031745,0.702348,705.000000,696.000000,9.000000,4.000000,0.000000,0.000000,0.799282,1.134966,0.071425,0.031745,0.702348,705.000000,696.000000,9.000000,4.000000,0.000000,0.000000:
00000000
00000000
00000000
00000000
,
00000000
00000000
00000000
00000000
,
00000000
00000000
00000000
00000000
,
00000000
00000000
00000000
00000000
,
00000000
00000000
00000000
00000000
,
00010000
01000000
00000000
00010000
00100000
00000000
01000000
00000000
,
10000000
00000000
01000000
10000000
,
01000000
00010000
00000000
00001000
00000100
00000000
00000001
00000000
,
00000010
00000001
00000100
00001000
00010000
00100000
01000000
00010000
,
00100000
00001000
00000000
00100000
01000000
00000000
10000000
00000000
,
00100000
10000000
00000000
00010000
10000000
01000000
00010000
00001000
,
00000010
00000001
00000000
00001000
00000100
00000000
00010000
00000000
,
00000010
00000000
00001000
00000000
00000000
00000000
00000001
00000000
00001000
00000000
00000001
00000010
00000001
00000000
00000100
00000000
,
00001000
00010000
00000000
00100000
10000000
00000000
01000000
00000000
,
00100000
00000000
00010000
00000000
00000000
00000000
10000000
00000000
00010000
00000000
01000000
00100000
01000000
00000000
00100000
00000000
,
00010000
00001000
00000000
00000100
00000010
00000000
00000100
00000000
,
00000010
00001000
00000100
00010000
00001000
00100000
00010000
10000000
01000000
00100000
00010000
00000000
,
10000000
00000000
00000000
00000000
10000000
00100000
01000000
00000000
00010000
00000000
01000000
00000000
00001000
01000000
00001000
01000000
,
00001000
00000000
00000000
00000000
00010000
00000000
00000010
00000000
00000100
00000000
00000000
00000000
00000001
00000010
00000100
00000000
,
00001000
00000000
00000100
00000000
00010000
00001000
00100000
01000000
,
00100000
00000000
10000000
00100000
01000000
00010000
00001000
00000000
,
00000010
00000000
00000000
00000000
00000001
00000000
00000000
00000000
00000001
00000000
00001000
00000000
00000001
00000100
00000001
00000000
,
00000100
00000000
00000000
00000000
00000001
00000000
00000100
00000000
00001000
00000000
00000000
00000000
00010000
00100000
01000000
00000000
,
10000000
00000000
00100000
00000000
01000000
10000000
01000000
00000000
,
10000000
00000000
00000000
00000000
00010000
00000000
10000000
00000000
01000000
00000000
00000000
00000000
00010000
00001000
00010000
00001000
,
00010000
00000000
00001000
00000000
00000100
00000000
00000001
00000000
00000010
00000000
00000001
00000000
00000010
00000100
00001000
00000100
,
00010000
00001000
00000000
00010000
01000000
00000000
10000000
00000000
,
00100000
00000000
00010000
00000000
00000000
00000000
00001000
00000000
00000100
00000000
00000001
00000010
00000100
00000010
00000001
00000000
,
00000010
00000000
00000001
00000000
00000000
00000000
00000100
00000000
00001000
00000000
00010000
00100000
01000000
00000000
00100000
00000000
,
10000000
00000000
00010000
00000000
00100000
00000000
00001000
00000000
00010000
00000000
00000100
00000000
00001000
00000100
00000010
00000000
,
00000001
00000100
00001000
00010000
00100000
10000000
01000000
00000000
,
10000000
00000000
01000000
00000000
00010000
00000000
00001000
00000000
00000100
00000000
00000001
00000000
00001000
00000100
00000010
00000000
,
00000001
00000100
00001000
00010000
00100000
00000000
01100000
00000000
,
10010000
00000000
00000000
00000000
00000000
00000000
00000000
00000000
00000000
00001000
00000000
00000000
00000000
00000000
00000000
00000000
,
10000000
01000000
00010000
00001000
00000010
00000001
00000100
00000010
,
00001000
00000100
00010000
00001000
00100000
00010000
10000000
01000000
,
10000000
01000000
10010000
00000000
,
10000000
00000000
00000000
00000000
00010000
00000000
00100000
00000000
00001000
00010000
00000100
00000000
00001000
00000000
00000010
00000000
,
00000100
00000001
00001000
00000100
00010000
00001000
00100000
00000000
,
01000000
00000000
00010000
00000000
00001000
00000000
00000100
00000000
00000001
00001000
00000100
00000000
00010000
00000000
00001000
00000000
,
00010000
00000000
01000000
00000000
10000000
00100000
01000000
00000000
00001000
00000000
00010000
00000000
00000100
00000000
00000010
00000000
,
00000001
00000000
00000000
00000000
00001000
00000000
00000010
00000000
00010000
00001000
01000000
00000000
00010000
00000000
00100000
00000000
,
01000000
10000000
00010000
01000000
00001000
00010000
00000010
00000000
,
00000100
00000000
00001000
00000000
00010000
00000000
01000000
00000000
10000000
00010000
01000000
00000000
10000000
00000000
01000000
00000000
,
00000001
00000010
00000000
00000000
00000001
00000000
00000010
00000001
00000000
00000100
00001000
00000000
00010000
00000000
00001000
00000000
,
00010000
00000000
00000000
00000000
01000000
00000000
00000000
00000000
10000000
00000000
00000000
00000000
01000000
00000000
00000000
00000000
00010000
00000000
00000000
00000000
00001000
00000000
00000000
00000000
00010000
00000000
00000000
00000000
00001000
00000000
00000000
00000000
00000100
00000000
00000000
00000000
00000001
00000000
00000000
00000000
00000010
00000000
00000000
00000000
00000001
00000000
00000000
00000000
00000010
00000000
00000000
00000000
00000000
00000000
00000000
00000000
00000000
00000000
00000000
00000000
00000001
00000000
00000000
00000100
00000000
00000000
00000010
00000000
00000000
00000000
00000000
00000000
00010000
00000000
00000000
00000000
00000000
00000000
00000000
00000000
00000000
00000000
00000000
00000000
00001000
00000000
00000000
00000000
00000000
00000000
00100000
00000000
00000000
00000000
00000000
00000000
,
00010000
00000000
10000000
00000000
00100000
01000000
00010000
01000000
00100000
00000000
00000000
00000000
10000000
00000000
00100000
00000000
00010000
00000000
00000000
00000000
00001000
00000000
00000100
00000000
00000001
00000000
00000000
00000000
00000010
00000000
00000000
00000000
,
00000001
00000000
00000100
00000000
00001000
00000000
00010000
00000000
00100000
00000000
10000000
00000000
00010000
00000000
01000000
00000000
00010000
00000000
00000000
00000000
10000000
00100000
01000000
00000000
00001000
00000000
00000000
00000000
00000000
00000000
00000000
00000000
,
00010000
00000000
00000000
00001000
00000000
00000000
00000100
00000000
00000000
00000001
00000000
00000000
00001000
00000010
00001000
00000000
00000000
00000000
00000001
00000000
00000000
00000100
00000000
00000000
,
00001000
00000000
00000000
00010000
00000000
00000000
01000000
00000000
00000000
10000000
00000000
00000000
00100000
00000000
00000000
00000000
00000000
00000000
00010000
00001000
00010000
00000000
00000000
00000000
,
00001000
00000000
00000000
00000000
00000100
00000000
00000000
00000000
00000010
00000000
00000000
00000000
00000001
00000000
00000000
00000000
00000010
00000000
00000000
00000000
00000100
00000000
00000000
00000000
00000010
00000000
00000000
00000000
00010000
00000000
00000000
00000000
00001000
00000000
00000000
00000000
00100000
00000000
00000000
01000000
00000000
00000000
10000000
00000000
00000000
00000000
00000000
00000000
,
01000000
00000000
00000000
00000000
10000000
01000000
00010000
00000000
00001000
00000000
00000000
00000000
00000100
00000000
00000001
00000000
,
00000010
00000001
00000100
00000001
00000100
00001000
00010000
00100000
,
10000000
01000000
00000000
00000000
01000000
00001000
00010000
00000000
00011000
00000000
00000000
00000000
00000110
00000000
00000000
00000000
,
00000001
00000000
00000000
00000010
00001000
00010000
01000000
10000000
00100000
00010000
00001000
00010000
,
00000100
00000000
00001000
00000000
00000010
00000000
00000000
00000000
00000100
00000010
00000100
00000000
00001000
00010000
00001000
00000000
,
00100000
00000000
00010000
00000000
10000000
00000000
00010000
00000000
10000000
00000000
01000000
00000000
00010000
00001000
00010000
00000000
,
00001000
00000000
00000100
00000000
00000001
00000000
00000010
00000000
00000100
00000000
00010000
00001000
00010000
00000000
00000000
00000000
,
01100000
00000000
00000000
00000000
00010000
00001000
00010000
00000000
00000010
00000100
00000010
00000000
00000001
00000000
00000000
00000000
00000010
00000100
00000001
00000000
00000100
00000000
00001000
00000000
00020000
00000000
00000000
00000000
00030000
00000000
00000000
00000000
,
00100000
00000000
00000000
00000000
10000000
01000000
10000000
00000000
01000000
00000000
00010000
00000000
00001000
00000000
00000100
00000000
00000001
00000000
00000010
00000100
00001000
00000000
00000100
00000000
00010000
00000000
00001000
00100000
00010000
00000000
10000000
00000000
,
01000000
00000000
10000000
00000000
01000000
00000000
00010000
00000000
00001000
00000000
00000010
00000000
00000001
00000010
00000001
00000100
,
00000001
00000000
00000100
00000000
00001000
00000000
00010000
00000000
00100000
00000000
01000000
00000000
00010000
00100000
00000000
00000000
,
00001000
00000000
00010000
00000000
00000000
00000000
00000100
00000010
00000100
00000000
00000000
00000000
00001000
00000000
00000100
00000000
00000000
00000000
00020000
00000000
00001000
00000000
00000000
00000000
01030000
00000000
00000000
00000000
10000000
00100000
10000000
00000000
,
00010000
00000000
00000000
00000000
01000000
00001000
01000000
00000000
00001000
00000000
00000000
00000000
00010000
00000000
00001000
00000000
00010000
00000000
00000100
00000000
00000010
00000000
00000000
00000000
00000100
00000010
00000100
00000000
00001000
00010000
00001000
00000000
,
00100000
00010000
00100000
00000000
00010000
00000000
10000000
00000000
00000000
00000000
00010000
00000000
00000000
00000000
00000100
00000000
00000001
00000000
00000000
00000000
00000100
00000000
00000000
00000000
00001000
00000000
00000000
00000000
00100000
00000000
00000000
00000000
,
10000000
00100000
10000000
00000000
00100000
00000000
00001000
00000000
00000000
00000000
00010000
00000000
00000000
00000000
00001000
00000000
00000100
00000000
00000000
00000000
00000000
00000000
00000000
00000000
00000001
00000000
00000000
00000000
00000000
00000000
00000000
00000000
,
00000001
00000000
00001000
00000000
00000000
00000000
00000100
00000000
00010000
00000000
00000000
00000000
01000000
00000000
00000000
00000000
10000000
00000000
00100000
00000000
00000000
00000000
00010000
00000000
00001000
00000000
00010000
00001000
00010000
00000000
00001000
00000000
,
00000100
00000000
00000001
00000000
00000000
00000000
00000010
00000000
00001000
00010000
00001000
00000000
00100000
00010000
00100000
00000000
10000000
00000000
00100000
00000000
00010000
00000000
00001000
00000000
00000100
00000000
00000001
00000010
00000001
00000000
00000000
00000000
,
00000001
00000100
00001000
00010000
00100000
10000000
01000000
10000000
,
00100000
01000000
00010000
00000000
00011000
00000000
00000100
00000010
,
00000001
00000100
00001000
00010000
00100000
10000000
01000000
10000000
,
00100000
01000000
00001000
00000000
00000100
00000000
00000001
00000010
,
00000001
00000000
00001000
00000010
00000100
00000001
00001000
00000000
00000010
00000000
00000000
00000000
00010000
00000000
00000000
00000000
,
00001000
00000000
00100000
01000000
10000000
00100000
01000000
00000000
00010000
00100000
00010000
00000000
10000000
01000000
10000000
00000000
,
01000000
00010000
00001000
00000100
00000001
00000010
00000001
00000010
,
00000001
00000010
00000100
00000010
00000001
00001000
00000001
00001000
00000010
00001000
00000010
00001000
00000010
00010000
00000010
00010000
,
00001000
00010000
01000000
00000000
00100000
00000000
00010000
00000000
10000000
00000000
01000000
00000000
10000000
00000000
01000000
00000000
,
00100000
00001000
00100000
00001000
00010000
00000000
00000000
00000000
00001000
00000000
00000000
00000000
00010000
00000000
00001000
00000000
,
00000100
00000000
00000001
00000010
00000100
00000010
00000001
00000000
00000010
00000000
00001000
00000000
00010000
00000000
01000000
00000000
,
10000000
01000000
00100000
00010000
10000000
00000000
00000000
00000000
01000000
00000000
00010000
00000000
00001000
00000000
00000100
00000000
,
00000001
00000010
00000100
00000010
00000001
00000000
00000010
00000000
00001000
00000000
00010000
00000000
01000000
00000000
10000000
00000000
,
00010000
00100000
00001000
00010000
00001000
00000000
00010000
00000000
00001000
00000000
00010000
00000000
00000100
00000000
00001000
00000000
,
00000100
00010000
00001000
00100000
00010000
00100000
01000000
00010000
00001000
00010000
00001000
00000100
00001000
00000000
00010000
00000000
,
00001000
00010000
00100000
10000000
01000000
00010000
00001000
00000100
00000001
00000000
00000000
00000000
00000101
00000000
00000000
00000000
,
00002200
00000000
00000000
00000000
00000000
00000000
00000000
00000000
00000000
00000000
00000000
00000000
00000000
00000000
00000000
00000000
00000000
00000000
00000000
00000000
00000000
00000000
00000000
00003000
00000300
00000000
00000000
00000000
00000000
00000000
00000000
00000000
00000000
00000000
00000000
00000000
00000000
00000000
00000000
00000000
00000000
00000000
00000000
00000000
00000000
00000000
00000000
00000000
00000000
00000000
00000000
00000000
00000000
00000000
00000000
00000000
00000000
00000000
00000000
00000000
00000000
00000000
00000000
00000000
00000000
00000000
00000000
00000000
00000000
00000000
00000000
00000000
00000000
00000000
00000000
00000000
00000000
00000000
00000000
00000000
00000000
00000000
00000000
00000000
00000000
00000000
00000000
00000000
00000000
00000000
00000000
00000000
00000000
00000000
00000000
00000000
00000000
00000000
00000000
00000000
00000000
00000000
00000000
00000000
00000000
00000000
00000000
00000000
00000000
00000000
00000000
00000000
00000000
00000000
00000000
00000000
00000000
00000000
00000000
00000000
00000000
00000000
00000000
00000000
00000000
00000000
00000000
00000000
00000000
00000000
00000000
00000000
00000000
00000000
00000000
00000000
00000000
00000000
00000000
00000000
00000000
00000000
00000000
00000000
00000000
00000000
00000000
00000000
00000000
00000000
00000000
00000000
00000000
00000000
00000000
00000000
00000000
00000000
00000000
00000000
00000000
00000000
00000000
00000000
00000000
00000000
00000000
00000000
00000000
00000000
00000000
00000000
00000000
00000000
00000000
00000000
00000000
00000000
00000000
00000000
00000000
00000000
00000000
00000000
00000000
00000000
00000000
00000000
00000000
00000000
00000000
00000000
,
00000000
00000000
00000000
00000000
;

//---------------dance-single - ----------------
#NOTES:
     dance-single:
     :
     Challenge:
     18:
     1.031697,1.335254,0.293637,0.142850,1.222164,910.000000,873.000000,37.000000,18.000000,0.000000,0.000000,1.031697,1.335254,0.293637,0.142850,1.222164,910.000000,873.000000,37.000000,18.000000,0.000000,0.000000:
// measure 0
0000
0000
0000
0000
,  // measure 1
0000
0000
0000
0000
,  // measure 2
0000
0000
0000
0000
,  // measure 3
0000
0000
0000
0000
,  // measure 4
0000
0000
0000
0000
,  // measure 5
0001
0100
0020
0000
0030
0000
1000
0010
0200
0000
0300
0000
0010
1000
0002
0000
,  // measure 6
0013
0000
0100
0000
1000
0100
0010
0000
0100
0000
0000
0000
1100
0000
0000
0000
,  // measure 7
0001
0010
0002
0000
0003
0000
1000
0100
2000
0000
3000
0000
1001
0000
0000
0000
,  // measure 8
0001
0010
0100
1000
0100
1000
0010
0100
0010
0100
0001
0010
0001
0010
0001
1000
,  // measure 9
0010
0100
0010
0000
1000
0000
0010
0000
0100
0001
0100
0000
1100
0000
0000
0000
,  // measure 10
0010
1000
0010
0100
0001
0000
1000
0000
0001
1000
0010
0000
1000
0100
0010
0000
,  // measure 11
0001
0010
0001
0000
0100
0000
0010
0000
0100
0001
0010
0000
1000
0010
0100
0000
,  // measure 12
0010
1000
0001
0000
0100
0000
0010
0000
1100
0000
0100
0010
0100
0000
0010
0000
,  // measure 13
0001
1000
0001
0100
0010
0000
0001
0000
1000
0100
0000
0000
1100
0000
0000
0000
,  // measure 14
0010
0000
0001
0010
0100
0000
1000
0000
0001
0000
0100
0010
0100
0001
0100
0000
,  // measure 15
0010
1000
0010
1000
0100
0000
1000
0000
0001
0000
0000
0010
0100
0000
0000
0000
,  // measure 16
1000
0100
0001
0100
1000
0010
0001
0010
1000
0100
0010
0000
,  // measure 17
0012
0000
0000
0000
1003
0010
0100
0001
0100
0000
0010
0000
1000
0100
1000
0100
,  // measure 18
0010
0000
0001
0100
0001
0010
0001
1000
0200
0000
0000
0000
0301
1000
0100
0000
,  // measure 19
1100
0000
0000
0000
0001
0010
0001
0100
0010
1000
0010
0000
1000
0100
0010
0001
,  // measure 20
1000
0000
0010
0100
0010
0000
0011
0000
0100
0000
0001
0000
1000
0000
0100
0000
,  // measure 21
0010
0001
0100
0000
1000
0100
1000
0100
1000
0100
0010
0000
1000
0001
0010
0001
,  // measure 22
0100
0000
0010
0000
0100
0001
0010
0001
1000
0010
0100
0000
0001
0010
0001
0010
,  // measure 23
0001
0000
1000
0000
0010
0100
1000
0001
1000
0100
0010
0000
1000
0001
0100
0010
,  // measure 24
1000
0000
0001
0000
0100
0000
1000
0000
1100
0000
1000
0000
0001
0010
0001
0100
,  // measure 25
0001
0000
1000
0000
0010
0000
0100
0000
0001
0010
0001
1000
0001
0010
0001
0100
,  // measure 26
0010
0000
0001
0000
0000
0000
1000
0000
0001
0000
1000
0000
0100
0010
0001
0000
,  // measure 27
0100
0000
0001
0000
1000
0000
0100
0000
0001
1000
0010
0100
0001
0100
0010
0000
,  // measure 28
1000
0001
1000
0000
0000
0000
0100
0000
0010
0100
0010
0001
1000
0000
0001
0000
,  // measure 29
1000
0000
0001
0010
0100
0000
1000
0000
0010
0000
1000
0000
0010
0100
0001
0100
,  // measure 30
0010
0000
1000
0000
0001
0000
1000
0000
0010
0000
0100
0000
0010
0100
0001
0000
,  // measure 31
0010
0000
1000
0000
0001
0000
0100
0000
1000
0000
0100
0000
0001
0010
0001
0010
,  // measure 32
0100
0000
0001
0000
1000
0000
0100
0000
0010
0001
0100
0000
0010
1000
0001
0000
,  // measure 33
1001
0000
0010
0000
0010
0000
0010
0000
0010
0100
0000
0000
1000
0000
0001
0000
,  // measure 34
1000
0000
0010
0000
1000
0010
0100
0000
0001
0000
0010
0000
0001
0000
0100
0000
,  // measure 35
1001
0000
0100
0001
0100
0000
0100
0010
,  // measure 36
0001
0000
0100
0010
1010
0000
0010
1000
,  // measure 37
0001
0000
0000
0000
0001
0000
0010
0000
0001
0010
0100
0010
0001
0000
1000
0000
,  // measure 38
0010
0100
0101
0001
1001
0000
1100
0000
,  // measure 39
0100
0000
0000
0000
0010
0000
0001
0000
1000
0010
0100
0010
0001
0000
0010
0000
,  // measure 40
1000
0000
0100
0000
0001
0100
1000
0000
0110
0000
0010
0000
0001
0000
0000
0000
,  // measure 41
1001
0000
0000
0000
0001
0000
0010
0000
0001
0010
0100
1000
0001
0000
0100
0000
,  // measure 42
0010
1000
1010
0100
0010
0001
1000
0010
,  // measure 43
1100
0000
0000
0000
0010
0000
0100
0000
1000
0010
0100
0010
0001
0000
0010
0000
,  // measure 44
1000
0000
0000
0000
0000
0000
0000
0000
0000
0000
0000
0000
0001
0000
0000
0000
0000
0000
0000
0000
0000
0000
0000
0000
0010
0000
0000
0000
0000
0000
0001
0000
0000
0000
0000
0000
0010
0000
0000
0000
0000
0000
0001
0000
0000
0000
0000
0000
0010
0000
0000
0000
0000
0000
0000
0000
0000
0000
0000
0000
0100
0000
0000
0000
0000
0000
0000
0000
0000
0000
0000
0000
1000
0000
0000
0000
0000
0000
0000
0000
0000
0000
0000
0000
0001
0000
0000
0000
0000
0000
0000
0000
0000
0000
0000
0000
1000
0000
0000
0000
0000
0000
0000
0000
0000
0000
0000
0000
0010
0000
0000
0000
0000
0000
0000
0000
0000
0000
0000
0000
0100
0000
0000
0000
0000
0000
0000
0000
0000
0000
0000
0000
0000
0000
0000
0000
0000
0000
0000
0000
0000
0000
0000
0000
0101
0000
0000
0000
0000
0000
0000
0000
0000
0000
0000
0000
0000
0000
0000
0000
0000
0000
0000
0000
0000
0000
0000
0000
1000
0000
0000
0000
0000
0000
0000
0000
0100
0000
0000
0000
0000
0000
0000
0000
0010
0000
0000
0000
0000
0000
0000
0000
,  // measure 45
0001
0000
0000
0000
0000
0000
0000
0000
0100
0000
0000
0000
0000
0000
0000
0000
1000
0000
0000
0000
0000
0000
0000
0000
0100
0000
0000
0000
0000
0000
0000
0000
0001
0000
0000
0000
0000
0000
0000
0000
0010
0000
0000
0000
0000
0000
0000
0000
0100
0000
0000
0000
0000
0000
0000
0000
1000
0000
0000
0000
0000
0000
0000
0000
0100
0000
0000
0000
0000
0000
0000
0000
0010
0000
0000
0000
0000
0000
0000
0000
0001
0000
0000
0000
0000
0000
0000
0000
1000
0000
0000
0000
0000
0000
0000
0000
0010
0000
0000
0000
0000
0000
0000
0000
0000
0000
0000
0000
0000
0000
0000
0000
0000
0000
0000
0000
0000
0000
0000
0000
0001
0000
0000
0000
0000
0000
0010
0000
0000
0000
0000
0000
0100
0000
0000
0000
0000
0000
0000
0000
0000
0000
0000
0000
1000
0000
0000
0000
0000
0000
0000
0000
0000
0000
0000
0000
0010
0000
0000
0000
0000
0000
0000
0000
0000
0000
0000
0000
0001
0000
0000
0000
0000
0000
0000
0000
0000
0000
0000
0000
0010
0000
0000
0000
0000
0000
0000
0000
0000
0000
0000
0000
,  // measure 46
1000
0000
0000
0000
0000
0000
0000
0000
0000
0000
0000
0000
0100
0000
0000
0000
0000
0000
0000
0000
0000
0000
0000
0000
0010
0000
0000
0000
0000
0000
0100
0000
0000
0000
0000
0000
1000
0000
0000
0000
0000
0000
0100
0000
0000
0000
0000
0000
1000
0000
0000
0000
0000
0000
0000
0000
0000
0000
0000
0000
0000
0000
0000
0000
0000
0000
0000
0000
0000
0000
0000
0000
0001
0000
0000
0000
0000
0000
0010
0000
0000
0000
0000
0000
0001
0000
0000
0000
0000
0000
0000
0000
0000
0000
0000
0000
0100
0000
0000
0000
0000
0000
0000
0000
0000
0000
0000
0000
0000
0000
0000
0000
0000
0000
0000
0000
0000
0000
0000
0000
0001
0000
0000
0000
0000
0000
0000
0000
0010
0000
0000
0000
0000
0000
0000
0000
0100
0000
0000
0000
0000
0000
0000
0000
1000
0000
0000
0000
0000
0000
0000
0000
0000
0000
0000
0000
0000
0000
0000
0000
0000
0000
0000
0000
0000
0000
0000
0000
0100
0000
0000
0000
0000
0000
1000
0000
0000
0000
0000
0000
0100
0000
0000
0000
0000
0000
0000
0000
0000
0000
0000
0000
,  // measure 47
0001
0000
0000
0100
0000
0000
1000
0000
0000
0010
0000
0000
0100
0000
0000
0001
0000
0000
0010
0000
0000
0001
0000
0000
1000
0000
0000
0000
0000
0000
0100
0000
0010
0000
0100
0000
2000
0000
0000
0000
0000
0000
0010
0000
0000
0000
0000
0000
,  // measure 48
3001
0000
0000
0000
0000
0000
0100
0000
0000
0001
0000
0000
1000
0000
0000
0000
0000
0000
0001
0000
0000
0000
0000
0000
0100
0000
0010
0000
0100
0000
0000
0000
0000
0000
0000
0000
0001
0000
0000
0000
0000
0000
0100
0000
0000
0000
0000
0000
,  // measure 49
1000
0000
0000
0100
0000
0000
0001
0000
0000
1000
0000
0000
0010
0000
0000
0000
0000
0000
0100
0010
0001
0000
0000
0000
,  // measure 50
1000
0000
0000
0000
0100
0000
0000
0000
0001
0000
0000
0000
0100
0000
0000
0000
1000
0000
0000
0000
0010
0000
0000
0000
0001
0000
0000
0000
0010
0000
0000
0000
1000
0000
0000
0000
0001
0000
0000
0100
0000
0000
0010
0000
0000
0000
0000
0000
,  // measure 51
1000
0000
0000
0000
0010
0100
0010
0000
0012
0000
0000
0000
0013
0000
1000
0000
,  // measure 52
0100
0010
0100
0010
0001
0010
0001
0010
,  // measure 53
0100
1000
0000
0000
0010
0100
0010
0100
0002
0000
0000
0000
1003
0100
1000
0100
,  // measure 54
0002
0000
0000
0013
0001
0010
0100
1000
0010
1000
0001
1000
,  // measure 55
0010
0000
1000
0000
1001
0000
0000
0000
1000
0010
1000
0000
0001
1000
0001
0000
,  // measure 56
1000
0000
0010
0000
0001
0000
0010
0000
1000
0000
0100
0000
0010
0001
0100
0000
,  // measure 57
0010
0000
1000
0000
0001
0000
1000
0000
0100
0000
1000
0001
0100
0000
0000
0000
,  // measure 58
1001
0000
0000
0000
0001
0010
0100
0010
0100
1000
0001
1000
0001
0000
0000
0000
1000
0000
0100
0001
0000
0001
0100
0000
0220
0000
0000
0000
0330
0000
0000
0000
,  // measure 59
0001
0000
0000
0000
0010
0100
1000
0000
0100
0000
1000
0000
0001
0000
0010
0000
0001
0000
0010
0001
0100
0010
0100
0000
1000
0000
0100
0010
0001
1000
0001
0000
,  // measure 60
0100
0000
0001
1000
0010
0000
0100
0010
1000
0000
0100
0000
0010
0000
0001
0000
,  // measure 61
1000
0100
1000
0100
0010
0001
0010
0001
0010
0100
0010
0100
1000
0100
0010
0001
,  // measure 62
1000
0000
0001
0000
0010
0001
0010
0001
1000
0000
0000
0000
0001
0000
1000
0000
1001
0000
0001
0000
0100
0000
0000
0000
0001
0000
1000
0010
1000
0010
0100
0000
,  // measure 63
0001
0000
0000
0000
0010
0100
0010
0000
1000
0000
0000
0000
0001
0000
0100
0000
1000
0000
0100
0000
0010
0000
0000
0000
1000
0100
1000
0000
0001
0010
0001
0000
,  // measure 64
1000
0010
0100
0000
0001
0000
0101
0000
0000
0000
0001
0000
0000
0000
0100
0000
0001
0000
0000
0000
0010
0000
0100
0000
1000
0000
0001
0000
1000
0000
0000
0000
,  // measure 65
0010
0100
0001
0000
0100
0000
0010
0000
1000
0000
0010
0000
0000
0000
0001
0000
0100
0000
0000
0000
0000
0000
0010
0000
0110
0000
0100
0000
0000
0000
0000
0000
,  // measure 66
1000
0000
1010
0000
0000
0000
0100
0000
0110
0000
0000
0000
1000
0000
0000
0000
0001
0000
0010
0000
0000
0000
0001
0000
1000
0000
0010
0100
0010
0000
0001
0000
,  // measure 67
0010
0000
0100
0000
0000
0000
1000
0000
0100
0010
0001
0000
0100
0001
0100
0000
1000
0000
0010
0000
0100
0000
0001
0000
0100
0000
0010
0000
1000
0000
0000
0000
,  // measure 68
0001
0000
0100
0000
1000
0000
0100
0000
0001
0000
0100
0000
1000
0000
0100
0010
,  // measure 69
0100
0001
1000
0000
0011
0000
0000
0000
1010
0000
0000
0000
0100
0000
0001
0000
,  // measure 70
1000
0000
0010
0000
1000
0000
0100
0000
1000
0100
1000
0000
1000
0010
0001
0010
,  // measure 71
0100
0010
1000
0000
0100
0000
0000
0000
0101
0000
0000
0000
0010
0000
0100
0000
,  // measure 72
1000
0000
0001
0010
0100
1000
0010
0000
2002
0000
3003
0000
1100
0000
0000
0000
,  // measure 73
0001
0000
0010
1000
0010
0100
0001
0010
0001
0100
0010
0100
0001
0100
0001
0000
,  // measure 74
1000
0000
0100
0010
0001
0000
0010
0000
0100
0000
1000
0010
0100
0000
0001
0000
,  // measure 75
0010
0100
1000
0001
0010
0001
0010
0100
0010
0100
0001
0100
0001
0100
1000
0100
,  // measure 76
0001
0100
0001
0000
0100
1000
0010
0100
0010
0000
0100
0000
0001
0000
0100
0000
,  // measure 77
0010
1000
0010
0100
0001
0000
0000
0000
2001
0000
0000
0000
3100
0000
0010
0000
,  // measure 78
1000
0000
0001
0010
0100
0010
0001
1000
0001
0000
0100
0000
0010
0000
0100
0000
,  // measure 79
0001
1000
0010
0100
0010
0000
0000
0000
1001
0000
1000
0000
0100
0000
0010
0000
,  // measure 80
0001
0100
0001
0010
0001
0100
0001
0010
0001
0100
0001
0010
0001
0000
0100
0000
,  // measure 81
0001
0010
0001
0100
0001
0010
0100
1000
0100
0010
0001
0100
0010
0000
1000
0000
,  // measure 82
0001
0010
0100
1000
0010
1000
0001
1000
0010
1000
0100
0010
0001
0100
0010
1000
,  // measure 83
0010
0100
0001
1000
0001
0010
0100
0010
0001
0010
0100
1000
0001
0000
0100
0000
,  // measure 84
2002
3003
0000
0000
0000
0000
0000
0000
;
