#TITLE:ΔMAX;
#SUBTITLE:;
#ARTIST:DM Ashura;
#TITLETRANSLIT:deltaMAX;
#SUBTITLETRANSLIT:;
#ARTISTTRANSLIT:;
#GENRE:;
#CREDIT:;
#BANNER:deltaMAX.png;
#BACKGROUND:deltaMAX-bg.png;
#LYRICSPATH:;
#CDTITLE:;
#MUSIC:deltaMAX.ogg;
#OFFSET:0.000000;
#SAMPLESTART:87.889923;
#SAMPLELENGTH:15.000000;
#SELECTABLE:YES;
#DISPLAYBPM:100.000000:573.000000;
#BPMS:0.000000=100.000000
,20.000000=101.124001
,21.000000=102.273003
,23.000000=104.651001
,25.000000=105.882004
,26.000000=107.142998
,27.000000=108.433998
,29.000000=109.755997
,30.000000=111.111000
,31.000000=112.500000
,33.000000=113.924004
,34.000000=115.385002
,36.000000=116.883003
,37.000000=118.420998
,38.000000=120.000000
,41.000000=121.622002
,42.000000=123.288002
,43.000000=124.999992
,46.000000=126.761002
,47.000000=128.570999
,49.000000=130.434998
,51.000000=132.352997
,52.000000=134.328003
,55.000000=136.363998
,57.000000=138.462006
,59.000000=140.625000
,62.000000=142.856995
,63.000000=145.160995
,66.000000=147.541000
,68.000000=150.000000
,71.000000=152.542007
,73.000000=155.171997
,76.000000=157.895004
,79.000000=160.714005
,82.000000=163.636002
,84.000000=166.667007
,85.000000=163.636002
,86.000000=169.811005
,87.000000=166.667007
,88.000000=169.811005
,91.000000=173.076996
,94.000000=176.470993
,98.000000=180.000000
,101.000000=183.673004
,105.000000=187.500000
,106.000000=183.673004
,107.000000=191.488998
,108.000000=187.500000
,109.000000=191.488998
,110.000000=187.500000
,111.000000=195.651993
,112.000000=191.488998
,113.000000=195.651993
,114.000000=191.488998
,115.000000=195.651993
,116.000000=200.000000
,117.000000=195.651993
,118.000000=200.000000
,121.000000=204.544998
,122.000000=200.000000
,123.000000=204.544998
,125.000000=209.302002
,126.000000=204.544998
,127.000000=209.302002
,131.000000=214.285995
,136.000000=219.511993
,137.000000=214.285995
,138.000000=219.511993
,140.000000=225.000000
,141.000000=219.511993
,142.000000=225.000000
,147.000000=230.768997
,148.000000=225.000000
,149.000000=230.768997
,152.000000=236.841995
,153.000000=230.768997
,154.000000=236.841995
,159.000000=243.242996
,161.000000=236.841995
,162.000000=243.242996
,163.000000=249.999985
,164.000000=243.242996
,166.000000=249.999985
,167.000000=243.242996
,168.000000=249.999985
,171.000000=257.143005
,172.000000=249.999985
,173.000000=257.143005
,174.000000=249.999985
,175.000000=257.143005
,178.000000=264.705994
,179.000000=257.143005
,180.000000=264.705994
,181.000000=257.143005
,182.000000=264.705994
,187.000000=272.726990
,188.000000=264.705994
,189.000000=272.726990
,195.000000=281.250000
,196.000000=272.726990
,197.000000=281.250000
,198.000000=272.726990
,199.000000=281.250000
,202.000000=290.322998
,203.000000=281.250000
,205.000000=290.322998
,206.000000=281.250000
,207.000000=290.322998
,212.000000=300.000000
,213.000000=290.322998
,215.000000=300.000000
,218.000000=290.322998
,219.000000=300.000000
,220.000000=310.345001
,221.000000=300.000000
,224.000000=310.345001
,225.000000=300.000000
,226.000000=310.345001
,233.000000=321.428986
,234.000000=310.345001
,235.000000=321.428986
,236.000000=310.345001
,237.000000=321.428986
,240.000000=310.345001
,241.000000=333.333008
,242.000000=321.428986
,245.000000=333.333008
,246.000000=321.428986
,247.000000=333.333008
,248.000000=321.428986
,249.000000=333.333008
,257.000000=346.153992
,258.000000=333.333008
,259.000000=346.153992
,260.000000=333.333008
,261.000000=346.153992
,270.000000=360.000000
,271.000000=346.153992
,272.000000=360.000000
,273.000000=346.153992
,274.000000=360.000000
,275.000000=346.153992
,276.000000=360.000000
,283.000000=375.000000
,284.000000=360.000000
,286.000000=375.000000
,287.000000=360.000000
,288.000000=375.000000
,291.000000=360.000000
,292.000000=375.000000
,297.000000=391.303986
,298.000000=375.000000
,301.000000=391.303986
,302.000000=375.000000
,303.000000=391.303986
,305.000000=375.000000
,306.000000=391.303986
,316.000000=409.091003
,317.000000=391.303986
,318.000000=409.091003
,319.000000=391.303986
,320.000000=409.091003
,321.000000=391.303986
,322.000000=409.091003
,324.000000=391.303986
,325.000000=409.091003
,332.000000=428.571014
,333.000000=409.091003
,336.000000=428.571014
,337.000000=409.091003
,338.000000=428.571014
,339.000000=409.091003
,340.000000=428.571014
,342.000000=409.091003
,343.000000=428.571014
,353.000000=450.000000
,354.000000=428.571014
,356.000000=450.000000
,357.000000=428.571014
,358.000000=450.000000
,359.000000=428.571014
,360.000000=450.000000
,361.000000=428.571014
,362.000000=450.000000
,366.000000=428.571014
,367.000000=450.000000
,372.000000=473.683990
,373.000000=450.000000
,377.000000=473.683990
,378.000000=450.000000
,379.000000=473.683990
,380.000000=450.000000
,381.000000=473.683990
,382.000000=450.000000
,383.000000=473.683990
,384.000000=450.000000
,385.000000=473.683990
,388.000000=450.000000
,389.000000=473.683990
,397.000000=499.999969
,398.000000=473.683990
,401.000000=499.999969
,402.000000=473.683990
,404.000000=499.999969
,405.000000=473.683990
,406.000000=499.999969
,407.000000=473.683990
,408.000000=499.999969
,410.000000=473.683990
,411.000000=499.999969
,414.000000=473.683990
,415.000000=499.999969
,424.000000=529.411987
,425.000000=499.999969
,428.000000=529.411987
,429.000000=499.999969
,431.000000=529.411987
,432.000000=499.999969
,433.000000=529.411987
,434.000000=499.999969
,435.000000=529.411987
,436.000000=499.999969
,437.000000=529.411987
,439.000000=499.999969
,440.000000=529.411987
,443.000000=499.999969
,444.000000=529.411987
,454.000000=562.500000
,455.000000=529.411987
,458.000000=562.500000
,459.000000=529.411987
,461.000000=562.500000
,462.000000=529.411987
,463.000000=562.500000
,464.000000=529.411987
,465.000000=562.500000
,466.000000=529.411987
,467.000000=562.500000
,468.000000=529.411987
,469.000000=562.500000
,471.000000=529.411987
,472.000000=562.500000
,475.000000=529.411987
,476.000000=562.500000
,488.000000=600.000000
,489.000000=562.500000
,492.000000=573.450989
;
#STOPS:
;
#BGCHANGES:0.000=deltaMAX.avi=1.000=0=0=0=StretchNoLoop====,
99999=-nosongbg-=1.000=0=0=0 // don't automatically add -songbackground-
;
#KEYSOUNDS:;
#ATTACKS:;

//---------------dance-single - ----------------
#NOTES:
     dance-single:
     :
     Beginner:
     3:
     0.147015,0.241565,0.007856,0.000000,0.000000,131.000000,130.000000,1.000000,0.000000,0.000000,0.000000,0.147015,0.241565,0.007856,0.000000,0.000000,131.000000,130.000000,1.000000,0.000000,0.000000,0.000000:
0000
0000
0000
0000
,
0000
0000
0000
0000
,
0000
0000
0000
0000
,
0000
0000
0000
0000
,
0000
0000
0000
0000
,
0010
0000
0010
0000
,
1000
0000
1000
0000
,
0001
0000
0000
0000
,
0010
0000
0010
0000
,
0100
0000
0000
0000
,
0100
0000
0100
0000
,
1000
0000
1000
0000
,
0001
0000
0001
0000
,
0100
0000
0000
0000
,
0010
0000
0000
0000
,
1000
0000
0000
0000
,
0001
0000
0000
0000
,
0010
0000
0000
0000
,
0100
0000
0000
0000
,
0100
0000
0000
0000
,
0100
0000
0000
0000
,
0100
0000
1000
0000
,
0100
0000
0000
0000
,
0010
0000
0001
0000
,
0010
0000
0000
0000
,
0001
0000
1000
0000
,
0001
0000
0000
0000
,
0100
0000
0001
0000
,
0100
0000
0000
0000
,
0010
0000
0010
0000
,
0010
0000
0000
0000
,
1000
0000
0001
0000
,
1000
0000
0000
0000
,
0001
0000
0001
0000
,
0001
0000
0000
0000
,
0010
0000
0100
0000
,
0010
0000
0100
0000
,
1000
0000
0000
0000
,
0001
0000
0000
0000
,
0100
0000
0000
0000
,
0010
0000
1000
0000
,
0001
0000
0000
0000
,
0010
0000
0000
0000
,
0100
0000
0000
0000
,
1000
0000
0001
0000
,
0100
0000
0000
0000
,
0010
0000
0000
0000
,
1000
0000
0000
0000
,
0100
0000
1000
0000
,
0100
0000
0000
0000
,
0010
0000
0000
0000
,
0001
0000
0000
0000
,
1000
0000
0001
0000
,
1000
0000
0000
0000
,
0001
0000
0000
0000
,
1000
0000
0000
0000
,
0010
0000
0000
0000
,
0100
0000
0000
0000
,
0010
0000
0000
0000
,
0100
0000
0000
0000
,
0001
0000
0000
0000
,
1000
0000
0000
0000
,
0100
0000
0000
0000
,
1000
0000
0000
0000
,
0100
0000
0000
0000
,
0010
0000
0000
0000
,
0001
0000
0000
0000
,
0010
0000
0000
0000
,
0100
0000
1000
0000
,
0001
0000
0000
0000
,
0100
0000
0000
0000
,
0001
0000
0000
0000
,
1000
0000
0000
0000
,
0001
0000
0000
0000
,
0010
0000
0000
0000
,
0001
0000
0000
0000
,
0100
0000
0000
0000
,
0010
0000
0000
0000
,
1000
0000
0000
0000
,
0001
0000
0000
0000
,
1000
0000
0000
0000
,
0100
0000
0000
0000
,
0010
0000
0000
0000
,
0001
0000
0000
0000
,
0010
0000
0000
0000
,
0100
0000
0000
0000
,
0100
0000
0000
0000
,
0100
0000
0000
0000
,
0000
0000
0000
0000
,
1000
0000
0000
0000
,
1000
0000
0000
0000
,
1000
0000
0000
0000
,
0000
0000
0000
0000
,
0001
0000
0000
0000
,
0001
0000
0000
0000
,
0001
0000
0000
0000
,
0000
0000
0000
0000
,
0100
0000
0000
0000
,
0100
0000
0000
0000
,
0010
0000
0000
0000
,
0010
0000
0000
0000
,
1000
0000
0000
0000
,
0001
0000
0000
0000
,
1000
0000
0000
0000
,
0000
0000
0000
0000
,
0001
0000
0000
0000
,
0100
0000
0000
0000
,
0001
0000
0000
0000
,
0000
0000
0000
0000
,
0100
0000
0000
0000
,
0010
0000
0000
0000
,
0100
0000
0000
0000
,
0000
0000
0000
0000
,
0010
0000
0000
0000
,
1000
0000
0000
0000
,
0010
0000
0000
0000
,
0000
0000
0000
0000
,
0100
0000
0000
0000
,
0000
0000
0000
0000
,
0001
0000
0000
0000
,
0000
0000
0000
0000
,
1000
0000
0000
0000
,
0001
0000
0000
0000
,
1001
0000
0000
0000
,
0000
0000
0000
0000
;

//---------------dance-single - ----------------
#NOTES:
     dance-single:
     :
     Easy:
     5:
     0.194150,0.338191,0.078558,0.000000,0.000000,173.000000,163.000000,10.000000,0.000000,0.000000,0.000000,0.194150,0.338191,0.078558,0.000000,0.000000,173.000000,163.000000,10.000000,0.000000,0.000000,0.000000:
0000
0000
0000
0000
,
0000
0000
0000
0000
,
0000
0000
0000
0000
,
0000
0000
0000
0000
,
0000
0000
0000
0000
,
1001
0000
1000
0000
,
0010
0000
0100
0000
,
0110
0000
0010
0000
,
1000
0000
0100
0000
,
0110
0000
0010
0000
,
0001
0000
1000
0000
,
1001
0000
0001
0000
,
1000
0000
1000
0000
,
1001
0000
1000
0000
,
0010
0000
0100
0000
,
0110
0000
0010
0000
,
0100
0000
0001
0000
,
1001
0000
0001
0000
,
0010
0000
0100
0000
,
0110
0000
0100
0000
,
1000
0000
0001
0000
,
1001
0000
1000
0000
,
1000
0000
0010
0000
,
0100
0000
0100
0000
,
0001
0000
0010
0000
,
0100
0000
0100
0000
,
0010
0000
0001
0000
,
1000
0000
1000
0000
,
0010
0000
0100
0000
,
0001
0000
0001
0000
,
0001
0000
0000
0000
,
1000
0000
1000
0000
,
1000
0000
0000
0000
,
0100
0000
0100
0000
,
0100
0000
0000
0000
,
0010
0000
0010
0000
,
0010
0000
0000
0000
,
0001
0000
1000
0000
,
0001
0000
1000
0000
,
0001
0000
0000
0000
,
0100
0000
0010
0000
,
1000
0000
0001
0000
,
1000
0000
0001
0000
,
1000
0000
0000
0000
,
0100
0000
0010
0000
,
0100
0000
1000
0000
,
0100
0000
1000
0000
,
0001
0000
0000
0000
,
0100
0000
0001
0000
,
1000
0000
0010
0000
,
1000
0000
0010
0000
,
1000
0000
0000
0000
,
0001
0000
0010
0000
,
0100
0000
0000
0000
,
0100
0000
0000
0000
,
1000
0000
0000
0000
,
0001
0000
0001
0000
,
0100
0000
0000
0000
,
0100
0000
0000
0000
,
0010
0000
0000
0000
,
0010
0000
1000
0000
,
0100
0000
0000
0000
,
0100
0000
0000
0000
,
0010
0000
0000
0000
,
0010
0000
0001
0000
,
1000
0000
0000
0000
,
1000
0000
0000
0000
,
0001
0000
0000
0000
,
0001
0000
0100
0000
,
0010
0000
0000
0000
,
0010
0000
0000
0000
,
1000
0000
0000
0000
,
0001
0000
1000
0000
,
0001
0000
0000
0000
,
1000
0000
0000
0000
,
0100
0000
0000
0000
,
0010
0000
0001
0000
,
0010
0000
0000
0000
,
0100
0000
0000
0000
,
1000
0000
0000
0000
,
0001
0000
1000
0000
,
0001
0000
0000
0000
,
0100
0000
0000
0000
,
0010
0000
1000
0000
,
0010
0000
1000
0000
,
0001
0000
0000
0000
,
1000
0000
0000
0000
,
0001
0000
0000
0000
,
1000
0000
0000
0000
,
0100
0000
0000
0000
,
0010
0000
0000
0000
,
0100
0000
0000
0000
,
0010
0000
0000
0000
,
0001
0000
0000
0000
,
0010
0000
0000
0000
,
0001
0000
0000
0000
,
0010
0000
0000
0000
,
0001
0000
0000
0000
,
0100
0000
0000
0000
,
0001
0000
0000
0000
,
0100
0000
0000
0000
,
0010
0000
0000
0000
,
0010
0000
0000
0000
,
1000
0000
0000
0000
,
0000
0000
0000
0000
,
0001
0000
0000
0000
,
0001
0000
0000
0000
,
1000
0000
0000
0000
,
0000
0000
0000
0000
,
0100
0000
0000
0000
,
0100
0000
0000
0000
,
0010
0000
0000
0000
,
0000
0000
0000
0000
,
0001
0000
0000
0000
,
0001
0000
0000
0000
,
1000
0000
0000
0000
,
1000
0000
0000
0000
,
0010
0000
0000
0000
,
0000
0000
0000
0000
,
0100
0000
0000
0000
,
0000
0000
0000
0000
,
0001
0000
0000
0000
,
1000
0000
0000
0000
,
1001
0000
0000
0000
,
0000
0000
0000
0000
;

//---------------dance-single - ----------------
#NOTES:
     dance-single:
     :
     Medium:
     13:
     0.561126,0.773008,0.282808,0.125692,0.000000,500.000000,464.000000,36.000000,16.000000,0.000000,0.000000,0.561126,0.773008,0.282808,0.125692,0.000000,500.000000,464.000000,36.000000,16.000000,0.000000,0.000000:
0000
0000
0000
0000
,
0000
0000
0000
0000
,
0000
0000
0000
0000
,
0000
0000
0000
0000
,
0000
0000
0000
0000
,
1001
0000
1010
0000
0010
0100
0001
0000
,
0100
0000
0001
0000
1000
0001
1000
0000
,
1001
0000
0001
0000
0010
0100
1000
0000
,
0100
0000
1000
0000
0001
1000
0001
0000
,
0110
0000
0001
0000
1000
0100
0010
0000
,
0100
0000
1000
0001
0100
0000
0001
0000
,
0010
0110
0100
1100
,
1000
0001
1000
0000
0010
0100
0001
1000
,
1001
0000
0101
0000
0100
0010
0100
0000
,
0010
0000
1000
0000
0001
1000
0001
0000
,
1001
0000
1000
0000
0100
0010
0100
0000
,
0010
0000
0001
0000
1000
0001
0100
0000
,
0110
0000
1000
0000
0001
0010
0100
0000
,
0010
0000
0001
1000
0010
0000
1000
0000
,
0100
0110
0010
0011
,
0001
0000
1001
0000
0001
1000
0001
1000
,
0001
0100
0000
0100
0010
0000
0010
1000
,
0000
1000
0001
0000
0020
0000
0230
0000
,
0300
1000
0001
1000
0001
0000
0001
0010
,
0000
0010
0100
0000
0200
0000
0320
0000
,
0030
0001
0000
0001
1000
0000
1000
0010
,
0000
0100
0001
0000
2000
0000
3020
0000
,
0130
0000
0001
1000
0000
1000
0100
0000
,
0100
0000
0000
0000
0000
0000
0000
0000
0010
0000
0000
0000
0000
0000
0000
0000
0000
0000
0000
0000
0000
0000
0000
0000
0001
0000
0000
0000
0000
0000
0000
0000
2000
0000
0000
0000
0000
0000
0000
0000
0000
0000
0000
0000
0000
0000
0000
0000
3002
0000
0000
0000
0000
0000
0000
0000
0000
0000
0000
0000
0000
0000
0000
0003
,
1000
0100
0000
0100
0010
0000
0010
0001
,
0000
0001
1000
0000
0200
0000
0320
0000
,
0030
0001
1000
0010
1000
0000
1000
0100
,
0000
0100
0010
0000
0002
0000
0203
0000
,
0300
0010
0000
1000
0001
0000
0001
0100
,
0000
0010
1000
0000
0002
0000
2003
0000
,
3100
0000
1000
0001
0000
0001
0010
0000
,
0010
0000
0000
0000
0000
0000
0000
0000
0100
0000
0000
0000
0000
0000
0000
0000
0000
0000
0000
0000
0000
0000
0000
0000
1000
0000
0000
0000
0000
0000
0000
0000
0002
0000
0000
0000
0000
0000
0000
0000
0000
0000
0000
0000
0000
0000
0000
0000
2003
0000
0000
0000
0000
0000
0000
0000
0000
0000
0000
0000
0000
0000
0000
3000
,
0010
0000
0110
0000
0000
0100
0000
0100
,
0010
0100
0010
0001
,
0010
0000
1010
0000
0000
1000
0000
1000
,
0001
1000
0001
0000
0011
0000
0000
0000
,
0010
0000
0110
0000
0000
0100
0000
0100
,
1000
0001
0100
1000
,
0100
0000
0110
0000
0000
0010
0000
0010
,
1000
0010
1000
0001
0100
0000
0000
0000
,
0001
0000
1001
0000
0000
1000
0000
0100
,
0010
0100
0010
1000
,
0010
0000
0110
0000
0000
0100
0000
1000
,
0001
0100
0001
0000
0101
0000
0000
0000
,
1000
0000
1010
0000
0000
0010
0000
0100
,
0001
1000
0010
0001
,
0010
0000
0110
0000
0000
0100
0000
0001
,
1000
0100
1000
0100
1000
0001
1000
0001
,
0100
0010
1000
0010
,
0100
0010
1000
0001
,
0010
0100
1000
0100
,
0010
0000
0000
0001
0000
0000
1000
0000
,
0001
0010
0100
0010
,
0001
0010
0100
1000
,
0001
1000
0100
1000
,
0001
0000
1000
0001
0000
0100
0001
0000
,
1000
0100
0010
0100
,
1000
0100
0010
0001
,
1000
0001
0100
0001
,
1000
0000
0000
0100
0000
0000
0010
0000
,
0001
1000
0010
1000
,
0001
0100
0010
0100
,
0001
1000
0001
0000
1000
0001
1000
0000
,
0010
0100
0010
0100
0000
0001
1000
0000
,
0100
0010
1001
0000
,
0001
0100
1010
0000
,
1000
0010
0110
0000
,
0001
0000
0000
0001
0000
0000
0010
0000
,
0100
1000
1001
0000
,
0001
0010
1100
0000
,
1000
0010
0101
0000
,
0001
1000
0001
1000
0001
0000
0000
0000
,
1000
0100
0110
0000
,
0010
0001
0101
0000
,
0100
0010
0110
0000
,
0100
0000
0000
0100
0000
0000
0001
0000
,
1000
0001
1001
0000
,
1000
0100
1100
0000
,
1000
0001
0101
0000
,
0100
0010
0100
0010
,
1000
0001
1000
0001
,
0000
0100
0000
0010
,
1000
0001
1000
0100
,
0000
0010
0100
0000
,
1000
0001
1000
0010
,
0000
0100
0000
0001
,
0010
0100
0010
0001
,
0100
0010
1000
0000
,
0001
0100
0001
0100
,
0000
0010
0000
1000
,
0001
0010
0001
0100
,
0000
0010
1000
0000
,
0001
1000
0001
0010
,
0000
0100
0000
0010
,
0100
1000
0100
0010
,
0001
1000
0001
0000
,
1000
0010
1000
0001
,
0000
0100
0000
0010
,
1000
0001
0100
0010
,
0000
1000
0100
0000
,
0010
0001
0010
0001
,
0000
1000
0000
0001
,
0010
0100
0010
0001
,
0010
0100
1000
0000
,
0001
1000
0001
0100
,
0000
0001
0000
0010
,
0100
1000
0010
0100
,
0000
0010
1000
0000
,
0001
1000
0001
0010
,
0000
0100
0000
0010
,
0100
1000
0100
0010
,
0001
1000
0001
0000
,
0100
0010
0100
0010
,
0100
0000
0000
0000
,
0001
1000
0001
1000
,
0001
0000
0000
0000
,
1000
0100
0010
0001
,
0010
0100
1000
0000
,
1001
0000
0000
0000
,
0000
0000
0000
0000
;

//---------------dance-single - ----------------
#NOTES:
     dance-single:
     :
     Hard:
     16:
     0.754154,1.207824,0.777721,0.864134,0.192466,672.000000,573.000000,99.000000,110.000000,0.000000,0.000000,0.754154,1.207824,0.777721,0.864134,0.192466,672.000000,573.000000,99.000000,110.000000,0.000000,0.000000:
0000
0000
0000
0000
,
0000
0000
0000
0000
,
0000
0000
0000
0000
,
0000
0000
0000
0000
,
0000
0000
0000
0000
,
1020
0030
0000
2000
3001
0000
1000
0000
0101
0000
0100
0000
0010
0000
1010
0000
,
0120
0030
0000
2000
3010
0000
2000
3000
1002
0003
0000
0001
2000
3000
1001
0000
,
0120
0030
0000
2000
3001
0000
1000
0000
1100
0000
0001
0000
0100
0001
0200
0300
,
1020
0030
0000
2000
3001
0000
0000
0000
0120
0030
0000
2000
3100
0000
0011
0000
,
1020
0030
0000
2000
3010
0000
0100
0000
0001
0020
0030
0000
0020
0030
0120
0030
,
1002
0003
0000
0200
0301
0000
0010
0000
1002
0003
0000
0200
1300
0000
0011
0000
,
1002
0003
0000
0200
0301
0000
0000
0000
0021
0030
0000
2000
3010
0000
0101
0000
,
1020
0030
0000
0020
0130
0000
0201
0300
0001
2000
3000
0001
2000
3000
2010
3000
,
1002
0003
0000
0200
0310
0000
1000
0000
1100
0000
0010
0000
0001
0000
2100
3000
,
1020
0030
0000
2000
3001
0000
2000
3000
0102
0003
0000
1000
0020
0030
0100
0000
,
1002
0003
0000
0200
0310
0000
0100
0000
0101
0000
0001
0000
1000
0100
2000
3000
,
1002
0003
0000
0200
0310
0000
0000
0000
0120
0030
0000
2000
3001
0000
0101
0000
,
1020
0030
0000
2000
3100
0000
1000
0000
0001
0200
0300
0000
0210
0300
0201
0300
,
1020
0030
0000
0200
1300
0000
0000
0000
1002
0003
0000
0200
0310
0000
0001
0000
,
0012
0003
0000
0002
0103
0000
0000
0020
1030
0000
0000
0002
0013
0000
0000
0200
,
1300
0000
0000
0002
0013
0000
0000
2000
3010
0000
0000
0002
0103
0000
0000
2000
,
3010
0200
0000
0301
2001
0000
3100
0020
,
0100
0000
1030
0000
0200
0000
0000
0000
0320
0000
0000
0001
2030
0000
0001
3000
,
1001
0000
0100
0010
0100
0000
0010
0000
2010
0000
0000
0000
3010
0000
0200
0000
,
0001
0000
1300
0000
0002
0000
0000
0000
0023
0000
0000
0001
2030
0000
0010
3000
,
1010
2000
0000
3001
0201
0000
0301
0020
,
0100
0000
1030
0001
2000
0000
0000
0000
3020
0000
0000
0100
0032
0000
1000
0003
,
2010
0000
3001
0020
0100
1030
0002
0100
,
0010
0000
0203
0000
0000
0000
0310
1000
0020
0000
0000
1000
0032
0000
0100
0003
,
0110
0020
0000
1030
1002
0000
0103
0020
,
1000
0000
0031
0000
0020
0000
0000
0000
0032
0000
0000
0010
0103
0000
1000
0000
,
1100
0000
0100
1000
0100
0000
0010
0000
0002
0000
0100
0000
0013
0000
2000
0000
,
0010
0000
3100
0000
0002
0000
0000
0000
0203
0000
0000
0010
2300
0000
0100
3000
,
0110
0020
0001
0130
0210
0000
0301
2000
,
0100
0000
3010
0100
0020
0000
0000
0000
0032
0000
0000
0100
0023
0000
1000
0030
,
1002
0000
0103
0020
1000
0031
2000
0010
,
3100
0000
0002
0000
0010
0000
0103
1000
0200
0000
0000
0010
0301
0000
1000
0000
,
1001
0000
1000
0000
0001
0100
0000
0100
,
0101
1001
1100
1001
,
0011
0000
0100
0000
1000
0001
0000
0001
,
1000
0010
0100
0000
1001
0000
0000
0000
,
0101
0000
0001
0000
1000
0100
0000
0100
,
1100
1001
0101
1001
,
1010
0000
0010
0000
0100
0001
0000
0001
,
0010
0100
1000
0001
1001
0000
0000
0000
,
0011
0000
0001
0000
1000
0010
0000
0010
,
1010
1001
0011
1001
,
1100
0000
0100
0000
0010
0001
0000
0001
,
0010
0100
1000
0000
1010
0000
0000
0000
,
0110
0000
0100
0000
0001
0010
0000
0010
,
0011
1001
1010
1001
,
0101
0000
0001
0000
1000
0100
0000
0100
,
0010
0001
0010
0001
1000
0100
1000
0100
,
0010
0100
1000
0100
,
0010
0000
0100
0000
1000
0100
1000
0000
,
0001
0100
0001
0100
,
1001
0000
0000
0101
0000
0000
0110
0000
,
0010
0100
0001
0100
,
0010
0000
0100
0000
0001
0100
0001
0000
,
1000
0100
1000
0100
,
1001
0000
1000
0010
0000
0100
0001
0000
,
0010
0100
1000
0100
,
0010
0000
0100
0000
1000
0001
1000
0000
,
0010
0100
0001
0100
,
0101
0000
0000
1010
0000
0000
0110
0000
,
0010
0100
0001
0100
,
0010
1000
0001
1000
,
0010
1000
0010
0000
0100
0001
0100
0000
,
0001
1000
0001
1000
0000
1000
0010
0000
,
1000
0010
0001
0010
,
1000
0010
0001
0010
,
1000
0001
0100
0010
,
1001
0000
0000
1010
0000
0000
0101
0000
,
0001
0100
1000
0100
,
0001
0100
1000
0100
,
0001
1000
0100
0010
,
0001
1000
0001
1000
0001
0000
1000
0000
,
0001
0010
1000
0010
,
0001
0010
1000
0010
,
0001
1000
0010
0100
,
1010
0000
0000
0101
0000
0000
1010
0000
,
1000
0100
0001
0100
,
1000
0100
0001
0100
,
1000
0010
0100
0001
,
1000
0001
1000
0001
,
0100
0010
1000
0010
,
0000
0101
0000
0010
,
1000
0001
0010
0001
,
0000
1000
0100
0000
,
0010
0001
1000
0001
,
0000
1001
0000
1000
,
0001
0100
0001
0010
,
0100
0010
1000
0000
,
0010
0001
0100
0001
,
0000
1010
0000
0100
,
0001
1000
0100
0010
,
0000
0001
1000
0000
,
0010
0100
0001
0100
,
0000
1001
0000
0010
,
1000
0001
1000
0100
,
0001
0100
1000
0000
,
0010
1000
0001
0100
,
0000
1010
0000
1000
,
0001
0010
0100
1000
,
0000
0001
0100
0000
,
0010
1000
0001
1000
,
0000
0101
0000
0100
,
0001
0010
0001
0100
,
0001
0100
1000
0000
,
0100
0010
1000
0001
,
0000
1001
0000
1000
,
0100
0010
0100
1000
,
0000
0010
0100
0000
,
0001
0010
0100
0010
,
0000
0011
0000
0001
,
0010
0100
1000
0010
,
0001
0010
1000
0000
,
0001
0010
0001
0010
,
0001
0000
0000
0000
,
1000
0010
1000
0010
,
1000
0000
0000
0000
,
0100
0010
0100
1000
,
0001
1000
0001
0000
,
1001
0000
0000
0000
;

//---------------dance-single - ----------------
#NOTES:
     dance-single:
     :
     Challenge:
     18:
     0.823733,1.207824,1.091952,0.471346,0.176755,734.000000,595.000000,139.000000,60.000000,0.000000,0.000000,0.823733,1.207824,1.091952,0.471346,0.176755,734.000000,595.000000,139.000000,60.000000,0.000000,0.000000:
// measure 0
0000
0000
0000
0000
,  // measure 1
0000
0000
0000
0000
,  // measure 2
0000
0000
0000
0000
,  // measure 3
0000
0000
0000
0000
,  // measure 4
0000
0000
0000
0000
,  // measure 5
1001
0000
0000
0110
0000
0000
0010
0000
0100
0001
1000
0000
0010
0000
1010
0000
,  // measure 6
0101
0000
0000
1100
0000
0000
0100
0000
1001
0000
0000
1000
0101
0000
1000
0000
,  // measure 7
1100
0000
0000
1010
0000
0000
0010
0000
0100
0001
1000
0000
0010
0100
0110
0000
,  // measure 8
0101
0000
0000
1100
0000
0000
0000
0000
1001
0000
0000
0110
0000
0000
0001
0000
,  // measure 9
0011
0000
0000
1010
0000
0000
0100
0000
0001
0110
0000
0000
1010
0000
0100
0000
,  // measure 10
1001
0000
0000
0101
0000
0000
0010
0000
1001
0000
0000
1100
0000
0000
0010
0000
,  // measure 11
1010
0000
0000
0101
0000
0000
0000
0000
0011
0000
0000
1100
0000
0000
0001
0000
,  // measure 12
0011
0000
0000
1000
0000
0000
1010
0000
0001
0100
0000
1000
0100
0000
0001
0000
,  // measure 13
1001
0000
0000
0110
0000
0000
1000
0000
0100
0010
0001
0000
0100
0000
1010
0000
,  // measure 14
0011
0000
0000
1100
0000
0000
1000
0000
0110
0000
0000
1000
1001
0000
0100
0000
,  // measure 15
0011
0000
0000
0101
0000
0000
0100
0000
0010
1000
0100
0000
0010
0100
0110
0000
,  // measure 16
0011
0000
0000
1010
0000
0000
0000
0000
0110
0000
0000
1001
0000
0000
0100
0000
,  // measure 17
1010
0000
0000
1100
0000
0000
0010
0000
0001
0100
0000
0000
0110
0000
1000
0000
,  // measure 18
0101
0000
0000
1010
0000
0000
0000
0000
1001
0000
0000
1100
0000
0000
0010
0000
,  // measure 19
0011
0000
0000
0001
0100
0000
0000
1000
0010
0000
0000
1000
0100
0000
0000
0001
,  // measure 20
0010
0000
0000
0100
0001
0000
0000
0010
0001
0000
0000
0100
0010
0000
0000
0001
,  // measure 21
1000
0020
0000
0230
0002
0300
0023
2000
,  // measure 22
0030
3020
0002
0033
0101
1000
1100
0000
,  // measure 23
1000
0000
0010
0100
0010
0000
0100
0000
0102
0000
0000
0000
2003
0000
0200
0000
,  // measure 24
3000
0302
0200
0303
1100
0001
0011
0000
,  // measure 25
0010
2001
0000
3200
0002
0300
0203
0020
,  // measure 26
0330
0000
0001
0100
0001
0000
0000
0000
0101
0000
0100
0000
0110
0000
0000
0000
,  // measure 27
1020
0000
0032
2000
0003
3200
0002
0300
,  // measure 28
0023
0000
0200
0000
0330
0000
1000
0100
0010
0000
0000
0000
1001
0000
0000
0000
,  // measure 29
0001
2000
0000
3020
0200
0030
2300
0200
,  // measure 30
3000
0302
2000
3003
0110
0100
0101
0000
,  // measure 31
0001
0000
1000
0010
0100
0000
0001
0000
0201
0000
0000
0000
0320
0000
0002
0000
,  // measure 32
0030
0023
2000
3030
1100
0001
1001
0000
,  // measure 33
1000
0012
0000
0023
0200
0030
2300
0002
,  // measure 34
3000
0000
0103
0010
0100
0000
0000
0000
0110
0000
1000
0000
1001
0000
0000
0000
,  // measure 35
2010
0000
3200
0002
0300
0203
0020
0300
,  // measure 36
2030
0000
0020
0000
3030
0000
0001
0100
0010
0000
0000
0000
1001
0000
0000
0000
,  // measure 37
1020
0000
0130
0000
0100
0001
0000
1000
,  // measure 38
1100
0101
1010
0101
,  // measure 39
2001
0000
3010
0000
0100
0001
0000
0001
,  // measure 40
1000
0100
0010
0000
0011
0000
0000
0000
,  // measure 41
0120
0000
1030
0000
0100
0010
0000
0001
,  // measure 42
1001
0011
1010
0011
,  // measure 43
1002
0000
0103
0000
0010
1000
0000
0100
,  // measure 44
0001
0100
1000
0100
0110
0000
0000
0000
,  // measure 45
2100
0000
3001
0000
0100
0010
0000
1000
,  // measure 46
1010
0011
0101
0110
,  // measure 47
2001
0000
3100
0000
0001
0100
0000
0010
,  // measure 48
1000
0100
0010
0000
1001
0000
0000
0000
,  // measure 49
0102
0000
1003
0000
0100
0001
0000
0100
,  // measure 50
1100
1001
0101
1010
,  // measure 51
0012
0000
1003
0000
1000
0010
0000
0100
,  // measure 52
0001
0010
1000
0010
0001
0100
1000
0100
,  // measure 53
0001
0010
0001
1000
0001
0010
0001
0000
,  // measure 54
1000
0100
1000
0001
1000
0100
1000
0000
,  // measure 55
0010
0100
1000
0100
0010
1000
0001
0000
,  // measure 56
0101
0000
0000
1001
0000
0000
1100
0000
,  // measure 57
0001
0010
0100
1000
0100
0010
0001
0000
,  // measure 58
1000
0100
0010
0001
0010
0100
1000
0000
,  // measure 59
0010
0100
1000
0100
0001
0010
0100
0000
,  // measure 60
1100
0000
1000
0001
0000
0001
0100
0000
,  // measure 61
0001
0100
0010
1000
0100
0010
0001
0000
,  // measure 62
1000
0010
0100
0001
0010
0100
1000
0000
,  // measure 63
0010
0001
0010
1000
0001
0010
0100
0000
,  // measure 64
1001
0000
0000
0101
0000
0000
0110
0000
,  // measure 65
0100
0001
0010
1000
0010
0100
1000
0000
,  // measure 66
0010
1000
0100
0001
0100
0010
0001
0000
,  // measure 67
1000
0010
0100
0000
0001
0010
0100
0000
,  // measure 68
1000
0010
1000
0010
0000
0100
0001
0000
,  // measure 69
1000
0001
1000
0000
0100
0000
0010
0001
,  // measure 70
0010
0000
0100
0000
1000
0010
1000
0000
,  // measure 71
0001
0000
0100
0010
0100
0000
0001
0000
,  // measure 72
1001
0000
0000
1010
0000
0000
0110
0000
,  // measure 73
0001
1000
0001
0000
0100
0000
0010
1000
,  // measure 74
0010
0000
1000
0000
0100
0010
0100
0000
,  // measure 75
1000
0000
0001
0010
0001
0000
0100
0000
,  // measure 76
0010
0100
1000
0100
0010
0000
1000
0000
,  // measure 77
0001
0100
0001
0000
1000
0000
0100
0001
,  // measure 78
0100
0000
1000
0000
0010
0100
0010
0000
,  // measure 79
0001
0000
0010
1000
0010
0000
1000
0000
,  // measure 80
1100
0000
0000
1001
0000
0000
0101
0000
,  // measure 81
1000
0100
1000
0000
0001
0000
0010
1000
,  // measure 82
0010
0000
0100
0000
1000
0010
1000
0000
,  // measure 83
0001
0000
0100
1000
0100
0000
0001
0000
,  // measure 84
1000
0001
1000
0001
,  // measure 85
1000
0001
0100
0110
,  // measure 86
0000
0000
1001
0000
0000
0000
0001
0100
,  // measure 87
0001
0010
0100
0110
,  // measure 88
0000
0001
2100
0000
,  // measure 89
3010
0100
0001
0011
,  // measure 90
0000
0000
1100
0000
0000
0000
0100
0001
,  // measure 91
0100
1000
0010
0100
,  // measure 92
1000
0100
0101
0000
,  // measure 93
0010
0001
0100
1100
,  // measure 94
0000
0000
0101
0000
0000
0000
0001
0010
,  // measure 95
0001
1000
0100
0110
,  // measure 96
0000
0001
1200
0000
,  // measure 97
0310
0001
0100
0101
,  // measure 98
0000
0000
1010
0000
0000
0000
0010
1000
,  // measure 99
0010
0001
1000
0100
,  // measure 100
0010
1000
1001
0000
,  // measure 101
0001
1000
0010
0110
,  // measure 102
0000
0000
1100
0000
0000
0000
0010
1000
,  // measure 103
0001
0100
1000
1100
,  // measure 104
0000
0010
0102
0000
,  // measure 105
0013
1000
0010
0110
,  // measure 106
0000
0000
0011
0000
0000
0000
1000
0001
,  // measure 107
0100
0010
0001
0010
,  // measure 108
1000
0100
0101
0000
,  // measure 109
0010
0100
1000
1001
,  // measure 110
0000
0000
0110
0000
0000
0000
1000
0010
,  // measure 111
0100
0001
0100
1100
,  // measure 112
0000
0001
0210
0000
,  // measure 113
0301
1000
0001
0011
,  // measure 114
0000
0000
1100
0000
0000
0000
0010
0100
,  // measure 115
0001
1000
0100
0010
,  // measure 116
0001
1000
1001
0000
,  // measure 117
0001
0100
0010
1000
,  // measure 118
0010
0001
1000
0100
,  // measure 119
0010
1000
0100
0010
,  // measure 120
0001
0010
1000
0010
,  // measure 121
0100
1000
0010
0100
,  // measure 122
0001
0010
0100
0000
,  // measure 123
1001
0000
0000
0000
;

//---------------dance-double - ----------------
#NOTES:
     dance-double:
     :
     Easy:
     7:
     0.301886,0.434817,0.054990,0.047135,0.000000,269.000000,262.000000,7.000000,6.000000,0.000000,0.000000,0.301886,0.434817,0.054990,0.047135,0.000000,269.000000,262.000000,7.000000,6.000000,0.000000,0.000000:
00000000
00000000
00000000
00000000
,
00000000
00000000
00000000
00000000
,
00000000
00000000
00000000
00000000
,
00000000
00000000
00000000
00000000
,
00000000
00000000
00000000
00000000
,
00100000
10000000
01000000
00000000
,
00100000
00001000
00010000
00000000
,
00001000
00010000
00000010
00000000
,
00000100
00000001
00000010
00000000
,
00000001
00001000
00000010
00000000
,
00000100
00000010
00010000
00000000
,
00001000
00100000
01000000
00000000
,
00100000
00010000
10000000
00000000
,
00100000
10000000
01000000
10000000
,
00010000
01000000
00001000
00000000
,
00010000
00000100
00001000
00000001
,
00000100
00000001
00000010
00000000
,
00000100
00000010
00000001
00000100
,
00000010
00010000
00001000
00000000
,
00010000
00001000
00010000
00001000
,
01000000
00100000
01000000
00100000
,
10000000
00000000
01000000
00000000
,
00100000
00001000
00100000
00001000
,
00010000
00000000
00000010
00000000
,
00001000
00000100
00001000
00000100
,
00000001
00000000
00000100
00000000
,
00001000
00000010
00001000
00000010
,
00000100
00000000
00000001
00000000
,
00000010
00000100
00000010
00000100
,
00010000
00000000
00001000
00000000
,
01000000
00100000
01000000
00100000
,
10000000
00000000
01000000
00000000
,
00100000
00001000
00100000
00001000
,
01000000
00000000
00100000
00000000
,
10000000
00010000
10000000
00010000
,
01000000
00000000
00001000
00000000
,
00010000
00000010
00010000
00000010
,
00001000
00000000
00000100
00000000
,
00000010
00000000
00000001
00000000
,
00000100
00000000
00000010
00000000
,
00010000
00010000
00010000
00000000
,
00001000
00000000
00100000
00000000
,
00010000
00000000
01000000
00000000
,
00100000
00000000
10000000
00000000
,
01000000
01000000
01000000
00000000
,
00100000
00000000
00001000
00000000
,
00010000
00001000
00010000
00000000
,
00000010
00000000
00000100
00000000
,
00000001
00001000
00000001
00000000
,
00000010
00000000
00000100
00000000
,
00010000
00001000
00010000
00000000
,
00000100
00000000
00010000
00000000
,
00001000
00010000
00001000
00000000
,
01000000
00000000
00100000
00000000
,
01000000
00000000
00100000
00000000
,
01000000
00000000
00100000
00000000
,
10000000
01000000
00100000
00000000
,
00001000
00000000
00010000
00000000
,
00001000
00000000
00010000
00000000
,
00001000
00000000
00010000
00000000
,
00000100
00000010
00000001
00000000
,
00000100
00000000
00000010
00000000
,
00000100
00000000
00000010
00000000
,
00000100
00000000
00000010
00000000
,
00010000
00001000
00010000
00000000
,
00000100
00000000
00000010
00000000
,
00000100
00000000
00000010
00000000
,
00000001
00000001
00001000
00001000
,
00001001
00000000
00000000
00000000
,
00000001
00000000
00000010
00000000
,
00000100
00000000
00010000
00000000
,
00001000
00000000
01000000
00000000
,
00100000
00100000
10000000
00000000
,
00010000
00000000
10000000
00000000
,
01000000
00000000
00100000
00000000
,
00001000
00000000
00010000
00000000
,
00000010
00000010
00001000
00000000
,
00000100
00000000
00000010
00000000
,
00000001
00000000
00000100
00000000
,
00000010
00000000
00010000
00000000
,
00001000
00001000
00100000
00000000
,
01000000
00000000
10000000
00000000
,
00100000
00000000
01000000
00000000
,
00010000
00010000
10000000
10000000
,
10010000
00000000
00000000
00000000
,
00010000
00000000
10000000
00000000
,
02000000
00000000
03000000
00000000
,
00010000
00000000
00001000
00000000
,
00200000
00000000
00300000
00000000
,
00001000
00000000
00010000
00000000
,
00000020
00000000
00000030
00000000
,
00000100
00000000
00000100
00000000
,
00000001
00000000
00000001
00000000
,
00000010
00000000
00000100
00000000
,
00020000
00000000
00030000
00000000
,
00001000
00000000
00010000
00000000
,
00000200
00000000
00000300
00000000
,
00000010
00000000
00000001
00000000
,
00002000
00000000
00003000
00000000
,
00000100
00000000
00000100
00000000
,
00010000
00000000
00010000
00000000
,
00001000
00000000
00000000
00000000
,
01000000
00000000
00000000
00000000
,
00100000
00000000
00000000
00000000
,
10000000
00000000
00000000
00000000
,
01000000
00000000
00000000
00000000
,
00100000
00000000
00000000
00000000
,
00001000
00000000
00001000
00000000
,
00001000
00000000
00000000
00000000
,
00010000
00000000
00000000
00000000
,
01000000
00000000
00000000
00000000
,
10000000
00000000
00000000
00000000
,
00100000
00000000
00000000
00000000
,
00010000
00000000
00000000
00000000
,
00001000
00000000
00000000
00000000
,
00010000
00000000
00010000
00000000
,
00010000
00000000
00000000
00000000
,
00011000
00000000
00000000
00000000
,
00000100
00000000
00000000
00000000
,
00001001
00000000
00000000
00000000
,
00000100
00000000
00000000
00000000
,
00001001
00000000
00000000
00000000
,
00000110
00000000
00000000
00000000
,
00001001
00000000
00000000
00000000
,
00000000
00000000
00000000
00000000
;

//---------------dance-double - ----------------
#NOTES:
     dance-double:
     :
     Medium:
     13:
     0.533070,0.821321,0.094269,0.314231,0.102125,475.000000,463.000000,12.000000,40.000000,0.000000,0.000000,0.533070,0.821321,0.094269,0.314231,0.102125,475.000000,463.000000,12.000000,40.000000,0.000000,0.000000:
00000000
00000000
00000000
00000000
,
00000000
00000000
00000000
00000000
,
00000000
00000000
00000000
00000000
,
00000000
00000000
00000000
00000000
,
00000000
00000000
00000000
00000000
,
00002000
00000000
00000000
00003001
00000000
00000000
00000000
00000000
00000100
00000000
00000010
00000000
00000100
00000000
00000001
00000000
,
00000020
00000000
00000000
00000130
00000000
00000000
00010000
00000000
00010000
00000000
00000000
00000000
00001000
00000000
00000000
00000000
,
02000000
00000000
00000000
03100000
00000000
00000000
00000000
00000000
10000000
00000000
01000000
00000000
10000000
00000000
00010000
00000000
,
00200000
00000000
00000000
01300000
00000000
00000000
00000000
00000000
20000000
00000000
00000000
30010000
00000000
00000000
00000000
00000000
,
02000000
00000000
00000000
03100000
00000000
00000000
00000000
00000000
00010000
00000000
00001000
00000000
00010000
00000000
00000100
00000000
,
00000020
00000000
00000000
00000031
00000000
00000000
00000000
00000000
00000200
00000000
00000000
00001300
00000000
00000000
00000000
00000000
,
00020000
00000000
00000000
00031000
00000000
00000000
00000000
00000000
02000000
00000000
00000000
03100000
00000000
00000000
00000000
00000000
,
10000000
00000000
00000000
00010000
00000000
00000000
10000000
00000000
00000000
00010000
00000000
00000000
01000000
00000000
00100000
00000000
,
02000000
00000000
00000000
03001000
00000000
00000000
00000000
00000000
00010000
00000000
00001000
00000000
00010000
00000000
00000100
00000000
,
00000020
00000000
00000000
00000031
00000000
00000000
00000100
00000000
00000100
00000000
00000000
00000000
00000010
00000000
00000000
00000000
,
00020000
00000000
00000000
00031000
00000000
00000000
00000000
00000000
00100000
00000000
00010000
00000000
00100000
00000000
00001000
00000000
,
00020000
00000000
00000000
00130000
00000000
00000000
00000000
00000000
20000000
00000000
00000000
31000000
00000000
00000000
00000000
00000000
,
00200000
00000000
00000000
00301000
00000000
00000000
00000000
00000000
00010000
00000000
00000010
00000000
00010000
00000000
00000100
00000000
,
00002000
00000000
00000000
00003010
00000000
00000000
00000000
00000000
00000200
00000000
00000000
00000301
00000000
00000000
00000000
00000000
,
00000011
00000101
00001100
00011000
,
01010000
11000000
10100000
01100000
,
01000000
00001000
00000000
00001000
00100000
00000000
00100000
01000000
,
00000000
01000000
20000000
00000000
30200000
00000000
02300000
00000000
,
03000000
00000000
00001000
00010000
00001000
00000000
00010000
00000000
00000010
00000000
00000000
00000000
00000010
00000000
00000100
00000000
,
00000000
00000100
00000002
00000000
00000023
00000000
00000230
00000000
,
00000300
00010000
00000000
00010000
00001000
00000000
00001000
01000000
,
00000000
00000000
01000000
00100000
02000000
00000000
00000000
00000000
03020000
00000000
00000000
00000000
00230000
00000000
00000000
00000000
,
01300000
00000000
01000000
10000000
00000000
10000000
00100000
00000000
,
00100000
00000000
00010000
00000000
00000000
00000000
00010000
00001000
00020000
00000000
00000000
00000000
00032000
00000000
00000000
00000000
,
00003000
00010000
00000000
00010000
00000100
00000000
00000100
00000010
,
00000000
00000010
00000002
00000000
00000203
00000000
00002300
00000000
,
00003000
00000000
00010000
00001000
00010000
00000000
00001000
00000000
00100000
00000000
00000000
00000000
00100000
00000000
01000000
00000000
,
00000000
01000000
20000000
00000000
30200000
00000000
02300000
00000000
,
03000000
00001000
00000000
00001000
00100000
00000000
00100000
00010000
,
00000000
00000000
00010000
10000000
00020000
00000000
00000000
00000000
00230000
00000000
00000000
00000000
00302000
00000000
00000000
00000000
,
00013000
00000000
00010000
00000010
00000000
00000010
00000100
00000000
,
00000100
00000000
00000001
00000000
00000000
00000000
00000001
00001000
00000002
00000000
00000000
00000000
00000023
00000000
00000000
00000000
,
00000130
00000000
00000100
00000000
00000000
00000010
00000000
00000001
,
00001000
00000001
00001000
00000001
,
00000100
00000000
00000100
00000000
00000000
00000010
00000000
00010000
,
00001000
00010000
00001000
00000000
00011000
00000000
00000000
00000000
,
00010000
00000000
00010000
00000000
00000000
00000100
00000000
00010000
,
00001000
01000000
00001000
01000000
,
00100000
00000000
00100000
00000000
00000000
10000000
00000000
00010000
,
01000000
00100000
01000000
00100000
10000000
00000000
00000000
00000000
,
01000000
00000000
01000000
00000000
00000000
00100000
00000000
00001000
,
00010000
00000010
00010000
00000010
,
00001000
00000000
00001000
00000000
00000000
00000100
00000000
00000010
,
00000001
00000010
00000001
00000000
00001001
00000000
00000000
00000000
,
00001000
00000000
00001000
00000000
00000000
00000010
00000000
00001000
,
00000100
00010000
00000100
00010000
,
00001000
00000000
00001000
00000000
00000000
01000000
00000000
00100000
,
10000000
00010000
10000000
00010000
01000000
00100000
01000000
00100000
,
10000000
01000000
00100000
00001000
,
00010000
00001000
01000000
00100000
,
10000000
00010000
00100000
01000000
,
00100000
00000000
00000000
00001000
00000000
00000000
00010000
00000000
,
00001000
00010000
00000010
00001000
,
00000100
00000010
00000001
00000100
,
00000010
00010000
00000100
00000010
,
00000001
00000000
00001000
00000001
00000000
00000001
00001000
00000000
,
00000010
00010000
00001000
00100000
,
00010000
01000000
00100000
10000000
,
01000000
00100000
00001000
00010000
,
00000010
00000000
00000000
00001000
00000000
00000000
00000001
00000000
,
00000010
00000100
00000010
00000001
,
00000100
00000010
00010000
00001000
,
00100000
00100000
01000000
01000000
,
01100000
00000000
00000000
00000000
,
00100000
00010000
10000000
00000000
,
00100000
01000000
00000000
00001000
,
00100000
00000000
00001000
00010000
,
00000010
00000000
00000000
00000100
00000000
00000000
00000001
00000000
,
00001000
00000100
00000010
00000000
,
00000001
00000100
00000000
00001000
,
00010000
00000000
01000000
10000000
,
00100000
01000000
00100000
01000000
00100000
00000000
10000000
00000000
,
01000000
00100000
00001000
00000000
,
00010000
00001000
00000000
00010000
,
00000010
00000000
00001000
00000100
,
00000010
00000000
00000000
00000001
00000000
00000000
00000100
00000000
,
00000010
00000100
00000001
00000000
,
00000010
00000100
00000000
00010000
,
00001000
00000000
01000000
00100000
,
10000000
00010000
10000000
00010000
,
01000000
00100000
10000000
01000000
,
00000000
00100000
00000000
00001000
,
00010000
00000010
00001000
00000100
,
00000000
00000010
00000100
00000000
,
00001000
00000010
00001000
00000001
,
00000000
00000010
00000000
00000100
,
00010000
00000010
00010000
00000010
,
00001000
00000100
00001000
00000000
,
00000010
00010000
00001000
00100000
,
00000000
01000000
00000000
10000000
,
00100000
10000000
01000000
00100000
,
00000000
00001000
00010000
00000000
,
00000010
00010000
00001000
00010000
,
00000000
00000100
00000000
00000010
,
00000001
00001000
00000010
00001000
,
00000001
00000010
00000100
00010000
,
00001000
01000000
00100000
01000000
,
00000000
00010000
00000000
10000000
,
01000000
00100000
00010000
10000000
,
00000000
01000000
10000000
00000000
,
00100000
01000000
00001000
00100000
,
00000000
00001000
00000000
00010000
,
00000010
00001000
00000010
00000100
,
00000001
00000010
00000100
00000000
,
00010000
00001000
00010000
00000010
,
00000000
00010000
00000000
00001000
,
00100000
01000000
10000000
00010000
,
00000000
01000000
00001000
00000000
,
00010000
00000100
00000010
00000001
,
00000000
00000100
00000000
00001000
,
00010000
00001000
00100000
01000000
,
00100000
00010000
10000000
00010000
,
10000000
01000000
10000000
01000000
,
10000000
00000000
00000000
00000000
,
00100000
00001000
00100000
00001000
,
00100000
00000000
00000000
00000000
,
00001000
00010000
00001000
00010000
,
00000010
00000000
00000100
00000000
,
00001001
00000000
00000000
00000000
,
00000000
00000000
00000000
00000000
;

//---------------dance-double - ----------------
#NOTES:
     dance-double:
     :
     Hard:
     17:
     0.744053,1.111198,0.707019,0.109981,0.145332,663.000000,573.000000,90.000000,14.000000,0.000000,0.000000,0.744053,1.111198,0.707019,0.109981,0.145332,663.000000,573.000000,90.000000,14.000000,0.000000,0.000000:
00000000
00000000
00000000
00000000
,
00000000
00000000
00000000
00000000
,
00000000
00000000
00000000
00000000
,
00000000
00000000
00000000
00000000
,
00000000
00000000
00000000
00000000
,
00000011
00000000
00000000
00001001
00000000
00000000
00001000
00000000
00000010
00000000
00000100
00000000
00000001
00000000
00000010
00000000
,
00000110
00000000
00000000
00010100
00000000
00000000
00010000
00000000
00011000
00000000
00000000
00000000
01001000
00000000
00000000
00000000
,
10100000
00000000
00000000
10010000
00000000
00000000
00010000
00000000
00100000
00000000
01000000
00000000
10000000
00000000
00100000
00000000
,
01100000
00000000
00000000
01010000
00000000
00000000
00000000
00000000
00110000
00000000
00000000
00101000
00000000
00000000
00000000
00000000
,
00011000
00000000
00000000
00010010
00000000
00000000
00000010
00000000
00001000
00000001
00000000
00000000
00000100
00000000
00001000
00000000
,
00011000
00000000
00000000
00010100
00000000
00000000
00000000
00000000
00000110
00000000
00000000
00000011
00000000
00000000
00000000
00000000
,
00000101
00000000
00000000
00001100
00000000
00000000
00000000
00000000
00011000
00000000
00000000
01010000
00000000
00000000
00000000
00000000
,
11000000
00000000
00000000
10100000
00000000
00000000
01100000
00000000
00000000
01001000
00000000
00000000
00011000
00000000
00011000
00000000
,
00011000
00000000
00000000
00010100
00000000
00000000
00000100
00000000
00000010
00000000
00000001
00000000
00001000
00000000
00000010
00000000
,
00000110
00000000
00000000
00000101
00000000
00000000
00000001
00000000
00001001
00000000
00000000
00000000
00001100
00000000
00000000
00000000
,
00010100
00000000
00000000
00011000
00000000
00000000
00001000
00000000
01000000
00000000
00100000
00000000
10000000
00010000
10000000
00000000
,
11000000
00000000
00000000
01100000
00000000
00000000
00000000
00000000
00101000
00000000
00000000
00011000
00000000
00000000
00000000
00000000
,
00110000
00000000
00000000
10100000
00000000
00000000
10000000
00000000
01000000
00100000
00000000
00000000
00001000
00000000
00010000
00000000
,
00010010
00000000
00000000
00001010
00000000
00000000
00000000
00000000
00001001
00000000
00000000
00000011
00000000
00000000
00000000
00000000
,
00000010
00000000
00000000
00000001
00000100
00000000
00000000
00000010
00010000
00000000
00000000
00001000
00100000
00000000
00000000
00010000
,
01000000
00000000
00000000
00100000
10000000
00000000
00000000
01000000
00010000
00000000
00000000
00001000
00000100
00000000
00000000
00000001
,
00000010
00000100
00000010
00000001
00000100
00001000
00000100
00000010
,
00010000
00001000
00100000
00001000
01000000
00010000
00100000
00000000
,
00000000
00000000
01000000
10000000
01000000
00000000
00100000
00000000
00001000
00000000
01000000
00000000
00100000
00000000
00010000
00000000
,
00100000
10000000
01000000
00100000
00001000
00010000
00001000
00000000
,
00000000
01000000
00001000
00010000
00000100
00000010
00000001
00000100
,
00000010
00000000
00010000
00001000
00010000
00000000
00000100
00000000
00000010
00000000
00000001
00000000
00001000
00000000
00000000
00000000
,
00000100
00001000
00000010
00000001
00000010
00010000
00001000
00000000
,
00100000
00000000
00010000
00000000
10000000
00000000
01000000
00100000
01000000
00000000
10000000
00000000
00010000
00000000
00000000
00000000
,
01000000
00100000
10000000
01000000
00100000
00001000
00010000
00100000
,
10000000
01000000
00100000
00001000
00010000
00000010
00000100
00000000
,
00000000
00000000
00000001
00001000
00000001
00000000
00000010
00000000
00000100
00000000
00010000
00000000
00000010
00000000
00001000
00000000
,
00000100
00000001
00000100
00001000
00000010
00000100
00000001
00000000
,
00000010
00001000
00000010
00000001
00000100
00000010
00010000
00001000
,
00100000
00000000
00010000
10000000
00010000
00000000
01000000
00000000
00100000
00000000
10000000
00000000
01000000
00000000
00000000
00000000
,
10000000
00100000
00010000
00001000
00100000
00001000
01000000
00100000
,
10000000
00000000
01000000
00000000
00100000
00000000
00001000
00010000
00001000
00000000
01000000
00000000
00100000
00000000
00000000
00000000
,
10010000
00000000
01100000
00000000
00000000
10010000
00000000
10000000
,
11000000
01100000
00101000
00011000
,
00000110
00000000
00001001
00000000
00000000
00000110
00000000
00000001
,
00000010
00000100
00001000
00000000
00000101
00000000
00000000
00000000
,
00000011
00000000
00001100
00000000
00000000
00000011
00000000
00000001
,
00000101
00000110
00010010
00011000
,
01100000
00000000
10010000
00000000
00000000
11000000
00000000
00100000
,
00010000
01000000
10000000
01000000
01010000
00000000
00000000
00000000
,
00110000
00000000
11000000
00000000
00000000
10100000
00000000
01000000
,
01001000
00101000
01100000
11000000
,
00101000
00000000
00010010
00000000
00000000
00001010
00000000
00001000
,
00000100
00000010
00000001
00000000
00000101
00000000
00000000
00000000
,
00001010
00000000
00000101
00000000
00000000
00000011
00000000
00000100
,
00010100
00010010
00000110
00000101
,
00010010
00000000
00101000
00000000
00000000
00110000
00000000
00010000
,
01000000
00100000
10000000
01000000
10000000
00010000
01000000
00100000
,
10000000
01000000
00100000
00001000
,
00010000
00000000
00000010
00000000
00000100
00000001
00000100
00000001
,
00001000
00000100
00000010
00000001
,
00000200
00000000
00000000
00001000
00000000
00000000
00000001
00000000
,
00000301
00000010
00000100
00010000
,
00001000
00000000
01000000
00000000
00100000
10000000
00100000
10000000
,
00010000
00100000
01000000
10000000
,
00100000
00000000
01000000
00001000
00000000
00001000
00010000
00000000
,
00000100
00000010
00000100
00010000
,
00000010
00000000
00000100
00000000
00000010
00010000
00000010
00010000
,
00001000
00000010
00000001
00000100
,
00000020
00000000
00000000
00000001
00000000
00000000
00001000
00000000
,
00001030
00000100
00000010
00001000
,
00000010
00000001
00000100
00001000
,
00010000
00000100
00010000
00000000
00001000
01000000
00001000
00000000
,
00100000
00010000
00100000
01000000
00000000
01000000
10000000
00010000
,
01000000
00010000
10000000
00100000
,
00010000
00000000
00001000
00000000
00100000
00010000
00100000
01000000
,
00100000
00001000
00010000
00000100
,
00000020
00000000
00000000
00000001
00000000
00000000
00001000
00000000
,
00001030
00010000
00000010
00001000
,
00000001
00000000
00000100
00000000
00001000
00010000
00001000
01000000
,
00001000
00100000
01000000
10000000
,
00100000
01000000
00100000
01000000
00100000
00000000
10000000
00000000
,
01000000
00100000
00001000
01000000
,
00001000
00000000
00010000
00000000
00000010
00001000
00000010
00000100
,
00000010
00010000
00000100
00000010
,
00000200
00000000
00000000
00000001
00000000
00000000
00001000
00000000
,
00001300
00000010
00000100
00000001
,
00001000
00000000
00000001
00000000
00001000
00000100
00001000
00000010
,
00001000
00000100
00010000
00001000
,
00100000
01000000
00100000
01000000
00100000
01000000
00100000
01000000
,
10000000
00100000
01000000
00001000
,
00010000
00001000
00100000
01000000
,
00010000
01000000
10000000
00100000
,
01000000
00001000
00020000
00030000
,
00000100
00000010
00000001
00000010
,
00000100
00010000
00000010
00000100
,
00001000
00000100
00000001
00000010
,
00001000
00010000
00002000
00003000
,
00100000
00010000
01000000
00100000
,
10000000
01000000
00100000
00001000
,
01000000
00100000
10000000
01000000
,
00010000
00001000
00020000
00030000
,
00100000
10000000
01000000
00100000
,
00001000
00010000
00000010
00001000
,
00000001
00001000
00000100
00000010
,
00000001
00000100
00002000
00003000
,
00010000
00000100
00010000
00001000
,
01000000
00001000
00100000
01000000
,
00100000
00010000
10000000
00010000
,
01000000
00100000
02000000
03000000
,
00100000
10000000
00100000
01000000
,
00001000
01000000
00010000
00100000
,
00010000
10000000
01000000
10000000
,
00100000
01000000
00200000
00300000
,
10000000
01000000
00100000
00001000
,
00010000
00001000
01000000
00010000
,
00100000
00001000
00010000
00000010
,
00001000
00000100
00000020
00000030
,
00000001
00001000
00000001
00000100
,
00001000
00010000
00000100
00010000
,
00000010
00001000
00000100
00010000
,
00000010
00001000
00000200
00000300
,
00001000
00000001
00001000
00000001
,
00000020
00000000
00000030
00000000
,
00001000
00010000
00001000
00010000
,
00200000
00000000
00300000
00000000
,
10000000
00010000
10000000
00010000
,
01000000
00000000
00001000
00000000
,
00011000
00000000
00000000
00000000
,
00000000
00000000
00000000
00000000
;

//---------------dance-double - ----------------
#NOTES:
     dance-double:
     :
     Challenge:
     18:
     0.823733,1.207824,1.091952,0.471346,0.176755,734.000000,595.000000,139.000000,60.000000,0.000000,0.000000,0.823733,1.207824,1.091952,0.471346,0.176755,734.000000,595.000000,139.000000,60.000000,0.000000,0.000000:
00000000
00000000
00000000
00000000
,
00000000
00000000
00000000
00000000
,
00000000
00000000
00000000
00000000
,
00000000
00000000
00000000
00000000
,
00000000
00000000
00000000
00000000
,
10010000
00000000
00000000
01100000
00000000
00000000
00100000
00000000
01000000
00010000
10000000
00000000
00100000
00000000
10100000
00000000
,
01010000
00000000
00000000
00101000
00000000
00000000
01000000
00000000
00011000
00000000
00000000
00001000
00010100
00000000
00001000
00000000
,
00001010
00000000
00000000
00000101
00000000
00000000
00000010
00000000
00000001
00001000
00000100
00000000
00000010
00000100
00000110
00000000
,
00001100
00000000
00000000
00000101
00000000
00000000
00000000
00000000
00001001
00000000
00000000
00000110
00000000
00000000
00001000
00000000
,
00001010
00000000
00000000
00001100
00000000
00000000
00010000
00000000
00001000
00010010
00000000
00000000
00001010
00000000
00001000
00000000
,
00001100
00000000
00000000
00011000
00000000
00000000
00100000
00000000
01010000
00000000
00000000
11000000
00000000
00000000
00100000
00000000
,
10010000
00000000
00000000
11000000
00000000
00000000
00000000
00000000
00101000
00000000
00000000
11000000
00000000
00000000
00100000
00000000
,
00011000
00000000
00000000
00001000
00000000
00000000
00001100
00000000
00010000
00001000
00000000
00000100
00000001
00000000
00001000
00000000
,
00001001
00000000
00000000
00000110
00000000
00000000
00000001
00000000
00001000
00000100
00000010
00000000
00000001
00000000
00001100
00000000
,
00000101
00000000
00000000
00001010
00000000
00000000
00001000
00000000
00000110
00000000
00000000
00010000
00010100
00000000
00001000
00000000
,
00011000
00000000
00000000
00110000
00000000
00000000
01000000
00000000
10000000
00010000
01000000
00000000
00100000
01000000
01100000
00000000
,
10100000
00000000
00000000
11000000
00000000
00000000
00000000
00000000
00110000
00000000
00000000
11000000
00000000
00000000
00100000
00000000
,
10010000
00000000
00000000
01010000
00000000
00000000
00100000
00000000
00001000
00010000
00000000
00000000
00011000
00000000
01000000
00000000
,
10010000
00000000
00000000
01100000
00000000
00000000
00000000
00000000
00011000
00000000
00000000
00000110
00000000
00000000
00000010
00000000
,
00001001
00000000
00000000
00000001
00000100
00000000
00000000
00001000
00010000
00000000
00000000
00100000
10000000
00000000
00000000
01000000
,
00010000
00000000
00000000
00001000
00000010
00000000
00000000
00000001
00000100
00000000
00000000
00001000
00010000
00000000
00000000
00100000
,
10000000
00020000
00000000
00230000
20000000
00300000
30020000
02000000
,
00030000
03200000
00002000
00303000
00011000
01000000
01010000
00000000
,
10000000
00000000
00100000
00010000
00100000
00000000
01000000
00000000
01002000
00000000
00000000
00000000
00203000
00000000
20000000
00000000
,
00300000
30020000
02000000
03030000
11000000
00010000
01010000
00000000
,
00100000
20010000
00000000
30200000
00020000
00300000
00032000
00200000
,
00303000
00000000
00001000
00010000
00001000
00000000
00000000
00000000
01001000
00000000
01000000
00000000
01100000
00000000
00000000
00000000
,
00120000
00000000
00032000
00000200
00003000
00000320
00020000
00000030
,
00032000
00000000
00000020
00000000
00003030
00000000
00000001
00000100
00000010
00000000
00000000
00000000
00001001
00000000
00000000
00000000
,
00001000
00000002
00000000
00000203
00002000
00000300
00023000
00000200
,
00030000
00000320
00002000
00003030
00000110
00000010
00000011
00000000
,
00001000
00000000
00000100
00010000
00001000
00000000
00000010
00000000
00000012
00000000
00000000
00000000
00002003
00000000
00000020
00000000
,
00003000
00000230
00020000
00030300
00001100
00000010
00001010
00000000
,
00001000
00010200
00000000
00000302
00000203
00000000
00020300
00002000
,
00033000
00000000
00010000
00000010
00010000
00000000
00000000
00000000
00011000
00000000
01000000
00000000
01010000
00000000
00000000
00000000
,
00012000
00000000
00023000
00200000
00030000
02300000
00002000
03000000
,
00023000
00000000
02000000
00000000
03030000
00000000
10000000
01000000
00100000
00000000
00000000
00000000
10010000
00000000
00000000
00000000
,
20100000
00000000
31000000
00000000
00100000
00010000
00000000
01000000
,
01010000
00011000
00110000
01100000
,
01020000
00000000
00031000
00000000
01000000
00010000
00000000
00010000
,
10000000
01000000
00100000
00000000
00110000
00000000
00000000
00000000
,
00012000
00000000
00103000
00000000
01000000
10000000
00000000
00010000
,
01010000
00011000
00001100
00000110
,
00002010
00000000
00013000
00000000
01000000
10000000
00000000
01000000
,
00010000
00001000
00000100
00001000
00011000
00000000
00000000
00000000
,
00002100
00000000
00003001
00000000
00000100
00000010
00000000
00001000
,
00001100
00000101
00001010
00011000
,
02001000
00000000
03100000
00000000
00010000
00001000
00000000
00000100
,
00000001
00000010
00000100
00000000
00001001
00000000
00000000
00000000
,
00000120
00000000
00010030
00000000
00001000
00000100
00000000
00000010
,
00001010
00011000
01010000
11000000
,
00120000
00000000
01030000
00000000
00100000
00010000
00000000
00010000
,
00100000
00010000
00001000
00000010
00001000
00010000
01000000
10000000
,
00010000
01000000
00010000
10000000
00010000
01000000
00010000
00000000
,
10000000
01000000
10000000
00010000
10000000
01000000
10000000
00000000
,
00100000
00010000
00001000
00010000
00100000
01000000
00010000
00000000
,
01010000
00000000
00000000
10010000
00000000
00000000
11000000
00000000
,
00100000
01000000
00010000
00001000
00010000
01000000
00100000
00000000
,
00001000
00010000
00000010
00000100
00000010
00010000
00001000
00000000
,
00000010
00000100
00000001
00001000
00000010
00000100
00001000
00000000
,
00001001
00000000
00000001
00000100
00000000
00000100
00000010
00000000
,
00001000
00000100
00000010
00000001
00000100
00000010
00001000
00000000
,
00000001
00000010
00000100
00001000
00000010
00000100
00000001
00000000
,
00000100
00001000
00010000
00000100
00010000
00001000
01000000
00000000
,
00011000
00000000
00000000
00001100
00000000
00000000
00000101
00000000
,
00000100
00001000
00010000
00000100
00000010
00001000
00010000
00000000
,
00000100
00010000
00001000
00100000
01000000
10000000
00010000
00000000
,
10000000
00100000
01000000
00000000
00010000
00100000
01000000
00000000
,
10000000
00100000
10000000
00100000
00000000
01000000
00010000
00000000
,
10000000
00100000
10000000
00000000
01000000
00000000
00010000
00001000
,
00010000
00000000
00100000
00000000
10000000
01000000
10000000
00000000
,
00100000
00000000
00010000
00001000
00010000
00000000
01000000
00000000
,
11000000
00000000
00000000
01010000
00000000
00000000
00011000
00000000
,
00001000
00010000
00001000
00000000
00000100
00000000
00000010
00001000
,
00000010
00000000
00000100
00000000
00000001
00000010
00000001
00000000
,
00001000
00000000
00000100
00010000
00000100
00000000
00000010
00000000
,
00000001
00000100
00000010
00000100
00000001
00000000
00001000
00000000
,
00000001
00000100
00000001
00000000
00000010
00000000
00001000
00010000
,
00001000
00000000
00000100
00000000
00000001
00000010
00000001
00000000
,
00000100
00000000
00001000
00010000
00001000
00000000
00000010
00000000
,
00000011
00000000
00000000
00001010
00000000
00000000
00011000
00000000
,
00010000
00001000
00010000
00000000
00100000
00000000
01000000
00010000
,
01000000
00000000
00100000
00000000
10000000
01000000
10000000
00000000
,
00010000
00000000
00100000
00001000
00100000
00000000
01000000
00000000
,
10000000
00010000
10000000
00010000
,
10000000
00100000
00010000
00011000
,
00000000
00000000
01010000
00000000
00000000
00000000
00100000
01000000
,
00100000
10000000
01000000
01010000
,
00000000
00100000
21000000
00000000
,
30100000
00010000
00001000
00001100
,
00000000
00000000
00010010
00000000
00000000
00000000
00000010
00000100
,
00000010
00001000
00000001
00000010
,
00001000
00010000
00010010
00000000
,
00000010
00001000
00000100
00000101
,
00000000
00000000
00001100
00000000
00000000
00000000
00000010
00000001
,
00000010
00000100
00001000
00001010
,
00000000
00001000
00010200
00000000
,
00000310
00000001
00001000
00001100
,
00000000
00000000
00010010
00000000
00000000
00000000
00001000
00010000
,
00001000
00010000
01000000
10000000
,
00100000
01000000
01010000
00000000
,
00010000
10000000
00100000
10100000
,
00000000
00000000
01100000
00000000
00000000
00000000
01000000
00100000
,
10000000
00100000
01000000
01001000
,
00000000
00010000
00102000
00000000
,
00003100
00000001
00001000
00001100
,
00000000
00000000
00000101
00000000
00000000
00000000
00001000
00000001
,
00000100
00000001
00000100
00010000
,
00000100
00000001
00000011
00000000
,
00000010
00000001
00000100
00000110
,
00000000
00000000
00001100
00000000
00000000
00000000
00010000
00000100
,
00001000
00000010
00010000
00011000
,
00000000
00010000
00201000
00000000
,
00310000
10000000
00100000
01100000
,
00000000
00000000
10010000
00000000
00000000
00000000
00100000
01000000
,
00010000
10000000
00100000
00001000
,
00100000
10000000
10010000
00000000
,
00010000
01000000
00100000
10000000
,
01000000
00010000
01000000
00100000
,
00001000
00010000
00000010
00000100
,
00001000
00000100
00000010
00001000
,
00000001
00000010
00001000
00010000
,
01000000
10000000
00100000
00000000
,
10010000
00000000
00000000
00000000
,
00000000
00000000
00000000
00000000
;

//---------------dance-single - ANOTHER----------------
#NOTES:
     dance-single:
     :
     Edit:
     19:
     1.082974,1.718449,1.696846,0.785577,0.318159,965.000000,749.000000,216.000000,100.000000,0.000000,0.000000,1.082974,1.718449,1.696846,0.785577,0.318159,965.000000,749.000000,216.000000,100.000000,0.000000,0.000000:
// measure 0
0000
0000
0000
0000
,  // measure 1
0000
0000
0000
0000
,  // measure 2
0000
0000
0000
0000
,  // measure 3
0000
0000
0000
0000
,  // measure 4
0000
0000
0000
0000
,  // measure 5
1001
0000
0000
0000
0000
0000
1000
0000
1010
0000
0000
0000
0001
0100
0010
0100
0001
0000
0000
0000
0100
0000
0000
0000
0110
0000
0000
0000
0010
0000
1000
0000
,  // measure 6
2020
0000
3030
0000
0001
0000
2002
0000
3003
0000
0000
0000
0202
0000
0303
0000
0022
0000
0033
0000
0010
0000
0100
1000
0100
0000
0000
0000
1000
0000
0000
0000
,  // measure 7
0022
0000
0033
0000
0000
0000
0101
0000
0110
0000
0000
0000
1010
0000
0000
0000
1100
0000
0000
0000
0100
0010
0001
0100
0010
0000
1000
0000
1010
0000
0000
0000
,  // measure 8
2002
0000
3003
0000
0100
0000
0202
0000
0303
0000
0000
0000
0000
0000
0000
0000
2002
0000
3003
0000
0000
0000
1010
0000
2020
0000
3030
0000
0100
0001
1000
0000
,  // measure 9
2002
3003
0100
0220
0330
0000
1010
0000
1000
0101
0000
0000
0011
0000
0110
0000
,  // measure 10
2200
3300
0001
0202
0303
0000
0010
0000
1001
0000
0100
0220
0330
0000
0010
0000
,  // measure 11
1010
0000
1000
2002
3003
0000
0001
0000
0202
0303
0010
0002
1003
0000
1000
0000
,  // measure 12
2200
3300
0010
0110
0000
0100
0101
0000
0001
2002
3003
0000
1100
1010
0000
0000
,  // measure 13
0220
0330
0000
0001
1010
0000
0010
0000
0101
0000
0100
0000
1010
0000
1000
0000
,  // measure 14
0202
0000
0303
0000
0110
0000
2020
0000
3030
0000
1100
0000
0000
0000
0110
0000
0011
0000
0000
0000
0001
1000
0010
0000
1000
0000
0100
0000
0010
0000
0000
0000
,  // measure 15
0022
0000
0033
0000
0000
0000
0101
0000
2020
0000
3030
0000
1000
0000
0000
0000
0001
0000
0000
0000
0010
0000
0100
1000
0100
0000
1000
0000
1010
0000
0000
0000
,  // measure 16
0110
0000
0000
0202
0303
0000
0011
0000
2200
3300
0000
2020
3030
0000
0101
0000
,  // measure 17
0022
0033
0000
2200
3300
0000
1010
0000
0100
0202
0303
0000
0011
0000
1010
0000
,  // measure 18
0011
0000
0000
2020
3030
0000
0001
0000
1100
0000
0000
1010
0000
0000
0100
0000
,  // measure 19
0101
0000
0000
0001
0011
0000
0000
1000
1100
0000
0000
0010
1010
0000
0000
0100
,  // measure 20
0110
0000
0000
0001
0011
0000
0000
0100
1100
0000
0000
1000
1001
0000
0000
0010
,  // measure 21
0101
0220
0330
1010
2200
3300
0110
0202
,  // measure 22
0303
0000
1010
0000
2002
0000
3003
0000
1100
0000
0100
0010
0001
0000
0010
0000
,  // measure 23
0001
0000
1000
0010
0100
0000
0001
0000
2002
0000
3003
0000
1100
0000
0022
0000
,  // measure 24
0033
0000
0110
0000
2002
0000
3003
0000
1010
0000
0100
0010
1000
0000
0001
0000
,  // measure 25
0100
0220
0330
1001
2002
3003
1010
2020
,  // measure 26
3030
0000
0100
0001
0022
0000
0033
0000
1010
0000
0010
0000
0100
0000
0001
0000
,  // measure 27
0021
0000
0130
1100
0000
1010
1010
0000
,  // measure 28
0101
0000
0101
0000
0000
0000
0010
0010
0100
0000
0000
0000
1100
0000
0000
0000
,  // measure 29
1000
0101
0000
0011
2020
3030
0110
0022
,  // measure 30
0033
1001
2200
3300
0110
0100
0101
0000
,  // measure 31
0001
0000
0010
1000
0010
0001
0100
0000
0120
0000
0000
0000
1030
0000
2100
0000
,  // measure 32
0000
0000
3001
0000
1001
0000
0000
0000
1010
0000
0000
0010
0100
0000
0001
0000
,  // measure 33
0010
0011
0000
1000
1100
0000
1000
1010
,  // measure 34
0000
0000
0100
0010
0001
0000
0000
0000
0101
0000
0000
0000
1010
0000
0000
0000
,  // measure 35
1100
0000
0110
0011
0000
0101
1100
0000
,  // measure 36
0101
0000
0011
0000
0000
0000
0010
0100
1000
0100
1000
0000
0001
0000
0000
0000
,  // measure 37
1001
0000
1001
0000
0100
0001
0000
1001
,  // measure 38
1001
0110
1010
1100
,  // measure 39
0110
0000
0011
0000
0100
0001
0000
1000
,  // measure 40
0010
0001
0010
1000
0010
0000
0000
0000
1010
0000
0000
0000
1100
0000
0000
0000
,  // measure 41
0110
0000
1001
0000
0100
0101
0000
0011
,  // measure 42
0011
0110
1100
1010
,  // measure 43
0011
0000
1010
0000
0100
0101
0000
0100
,  // measure 44
1000
0100
0010
0001
0100
0000
0001
0000
0022
0000
0000
0000
0033
0000
0000
0000
,  // measure 45
1010
0000
0101
0000
1000
1001
0000
0110
,  // measure 46
0110
0101
0011
0110
,  // measure 47
1100
0000
1001
0000
0001
0101
0000
0100
,  // measure 48
0010
1000
0010
1000
0100
0000
0010
0000
0202
0000
0000
0000
0303
0000
0000
0000
,  // measure 49
1001
0000
1100
0000
0100
0101
0000
0011
,  // measure 50
0011
0110
0011
1100
,  // measure 51
0110
0000
1100
0000
1000
0001
0000
0100
,  // measure 52
0001
0010
0001
0010
0001
1000
0001
1000
0001
0100
0001
0100
0001
0000
1000
0000
,  // measure 53
0010
0100
0001
0100
0010
1000
0100
0000
,  // measure 54
1000
0000
0010
0000
0001
0000
0010
0000
1000
0000
0100
0000
0010
0001
0010
0000
,  // measure 55
0100
1000
0100
0010
0001
0100
1000
0100
,  // measure 56
0101
0000
0001
1001
0000
0000
1010
0000
,  // measure 57
1000
0000
0100
0000
0010
0000
0001
0000
0010
0100
1000
0000
0010
0000
0100
0000
,  // measure 58
0001
0010
0100
1000
0010
0100
0001
0000
,  // measure 59
0100
0010
1000
0100
1000
0001
0011
0000
,  // measure 60
0101
0000
0110
1010
0000
1100
0110
0000
,  // measure 61
0001
0010
1000
0001
0100
1000
0010
0000
,  // measure 62
1000
0100
0001
1000
0010
0001
0100
0000
,  // measure 63
0010
1000
0001
0100
0010
1000
0001
0000
,  // measure 64
1001
0000
0000
0110
0000
0000
0101
0000
,  // measure 65
0001
0010
0100
0001
0100
1000
0010
0000
,  // measure 66
1000
0100
0010
1000
0010
0001
0100
0000
,  // measure 67
0010
1000
0010
0000
1000
0000
0001
0000
1000
0100
1000
0000
0010
0000
0100
0000
,  // measure 68
0001
0010
0001
0010
0100
0000
1000
0000
0000
0000
1000
0000
1010
0000
0000
0000
,  // measure 69
0100
0001
0010
0001
1000
0010
1000
0001
,  // measure 70
0100
0001
0010
0000
0100
1000
0010
1000
,  // measure 71
0100
0000
0010
0001
0100
0000
0010
0000
,  // measure 72
1010
0000
0000
1100
0000
0000
0011
0000
,  // measure 73
0001
1000
0010
1000
0100
0000
0010
0000
,  // measure 74
0001
0100
1000
0100
0001
0100
1000
0100
,  // measure 75
0001
0000
1000
0000
0010
0000
0100
0001
,  // measure 76
0010
0100
1000
0001
1000
0010
1000
0001
,  // measure 77
1000
1000
1010
0100
,  // measure 78
0010
0001
0100
1000
0100
0000
0001
0010
,  // measure 79
0100
1000
0010
1000
,  // measure 80
1001
0000
0000
0011
0000
0000
0110
0000
,  // measure 81
0100
0000
1000
0010
0100
0001
0100
0000
,  // measure 82
0110
0000
0010
1000
0100
0000
1001
0000
,  // measure 83
0001
0010
1000
0000
0011
0000
0001
0100
,  // measure 84
1000
0100
0001
0010
0100
1000
0001
0000
,  // measure 85
0100
0010
0100
0010
0100
0010
0100
0000
,  // measure 86
0000
0000
1001
0000
0000
0000
1000
0100
,  // measure 87
1000
0100
0010
0001
0010
0001
0100
0000
,  // measure 88
0000
1010
1002
0000
,  // measure 89
0103
0010
1000
0010
0100
0010
1000
0000
,  // measure 90
0000
0000
1001
0000
0000
0000
0001
0010
,  // measure 91
1000
0010
0001
0100
1000
0100
0001
1000
,  // measure 92
0100
1000
0010
0100
0001
0000
0000
0000
,  // measure 93
1000
0100
0010
0001
1000
0100
0010
0000
,  // measure 94
0000
0000
0011
0000
0000
0000
0100
1000
,  // measure 95
0010
1000
0100
0010
0001
0100
0010
0000
,  // measure 96
0000
1001
0210
0000
,  // measure 97
0310
1000
0001
1000
0010
0100
0001
0000
,  // measure 98
0000
0000
1001
0000
0000
0000
1000
0010
,  // measure 99
0100
0010
0001
0010
0100
0010
1000
0010
,  // measure 100
0100
0001
0010
0100
1000
0000
0000
0000
,  // measure 101
0010
1000
0001
1000
0010
1000
0001
0000
,  // measure 102
0000
0000
1001
0000
0000
0000
0100
0010
,  // measure 103
1000
0010
0100
0001
0010
0100
1100
0000
,  // measure 104
0000
1001
1001
1001
,  // measure 105
0010
0100
0001
0100
0010
1000
0010
0000
,  // measure 106
0000
0000
0110
0000
0000
0000
0001
0001
,  // measure 107
0100
0010
1000
0010
0100
1000
0100
0010
,  // measure 108
1000
0001
1000
0100
1000
0000
0000
0000
,  // measure 109
0001
0010
0001
0010
0001
0010
0001
0000
,  // measure 110
0000
0000
0110
0000
0000
0000
1000
0010
,  // measure 111
1000
0010
1000
0010
1000
0010
1000
0000
,  // measure 112
0000
0110
1001
0000
,  // measure 113
0010
0100
0010
1000
0010
0100
0010
0000
,  // measure 114
0000
0000
1100
0000
0000
0000
0010
0001
,  // measure 115
0010
0100
0010
0001
0010
0100
1000
0010
,  // measure 116
0100
0001
0100
0010
1000
0000
0000
0000
,  // measure 117
0001
0010
0001
0010
0100
1000
0100
1000
,  // measure 118
0010
0100
0010
0100
0001
0000
0000
0000
,  // measure 119
1000
0010
1000
0010
0100
0001
0100
0001
,  // measure 120
0010
0100
0010
0100
1000
0000
0000
0000
,  // measure 121
0010
0100
0001
0010
0001
1000
0010
1000
,  // measure 122
0010
0100
0001
0010
0100
0000
0000
0000
,  // measure 123
2002
0000
0000
0000
,  // measure 124
0000
0000
0000
0000
,  // measure 125
3003
0000
0000
0000
;
