#TITLE:Dazzlin' Darlin-秋葉工房mix-;
#SUBTITLE:;
#ARTIST:Remixed by DJ Command;
#TITLETRANSLIT:Dazzlin' Darlin-AKBKmix-;
#SUBTITLETRANSLIT:;
#ARTISTTRANSLIT:;
#GENRE:;
#CREDIT:;
#BANNER:Dazzlin' Darlin-AKBKmix-.png;
#BACKGROUND:Dazzlin' Darlin-AKBKmix--bg.png;
#LYRICSPATH:;
#CDTITLE:./CDTITLES/DanceDanceRevolution X2.png;
#MUSIC:Dazzlin' Darlin-AKBKmix-.ogg;
#OFFSET:0.000000;
#SAMPLESTART:82.860001;
#SAMPLELENGTH:15.000000;
#SELECTABLE:YES;
#DISPLAYBPM:160.000000;
#BPMS:0.000000=160.000000
;
#STOPS:
;
#BGCHANGES:;
#KEYSOUNDS:;
#ATTACKS:;

//---------------dance-single - ----------------
#NOTES:
     dance-single:
     :
     Beginner:
     3:
     0.145423,0.161027,0.036034,0.000000,0.000000,109.000000,4.000000,0.000000,0.000000,0.000000,0.000000,0.145423,0.161027,0.036034,0.000000,0.000000,109.000000,4.000000,0.000000,0.000000,0.000000,0.000000:
0000
0000
0000
0000
,
0000
0000
0000
0000
,
0000
0000
0000
0000
,
0000
0000
0000
0000
,
0000
0000
0000
0000
,
0000
0000
0000
0000
,
0001
0000
1000
0000
,
0001
0000
0000
0000
,
1000
0000
0001
0000
,
1001
0000
0000
0000
,
0001
0000
1000
0000
,
0001
0000
0000
0000
,
0001
0000
1000
0000
,
0001
0000
0000
0000
,
0001
0000
1000
0000
,
0001
0000
1000
0000
,
0001
0000
1000
0000
,
0001
0000
0000
0000
,
1001
0000
0000
0000
,
0001
0000
0001
0000
,
1000
0000
0000
0000
,
0001
0000
1000
0000
,
1000
0000
0000
0000
,
0010
0000
0010
0000
,
0100
0000
0000
0000
,
0010
0000
0010
0000
,
0100
0000
0000
0000
,
0001
0000
1000
0000
,
0001
0000
0000
0000
,
0001
0000
1000
0000
,
0001
0000
0000
0000
,
0010
0000
0010
0000
,
0010
0000
0000
0000
,
0100
0000
0100
0000
,
0100
0000
0000
0000
,
1001
0000
0000
0000
,
0010
0000
0000
0000
,
0100
0000
0000
0000
,
0010
0000
0000
0000
,
0100
0000
0100
0000
,
0001
0000
0000
0000
,
1000
0000
0000
0000
,
0001
0000
0000
0000
,
1000
0000
0000
0000
,
0001
0000
1000
0000
,
0001
0000
1000
0000
,
0001
0000
1000
0000
,
0001
0000
1000
0000
,
0010
0000
0100
0000
,
0010
0000
0000
0000
,
0010
0000
0100
0000
,
0010
0000
0000
0000
,
0010
0000
0000
0000
,
0001
0000
0001
0000
,
1000
0000
1000
0000
,
1001
0000
0000
0000
,
0001
0000
1000
0000
,
0001
0000
1000
0000
,
0001
0000
1000
0000
,
0100
0000
1000
0000
,
0010
0000
1000
0000
,
0001
0000
0100
0000
,
0001
0000
0010
0000
,
0001
0000
0000
0000
,
0001
0001
0001
0000
,
0100
0000
0100
0000
,
1000
1000
1000
0000
,
0100
0000
0100
0000
,
0010
0010
0010
0000
,
0001
0000
1000
0000
,
0100
0100
0100
0000
,
1000
0000
0001
0000
,
;

//---------------dance-single - ----------------
#NOTES:
     dance-single:
     :
     Easy:
     5:
     0.250952,0.324307,0.045043,0.099094,0.000000,179.000000,5.000000,11.000000,0.000000,0.000000,0.000000,0.250952,0.324307,0.045043,0.099094,0.000000,179.000000,5.000000,11.000000,0.000000,0.000000,0.000000:
0000
0000
0000
0000
,
0000
0000
0000
0000
,
0000
0000
0000
0000
,
0000
0000
0000
0000
,
0000
0000
0000
0000
,
0000
0000
0000
0000
,
0001
0000
0100
0100
,
0100
0000
1000
0000
,
0100
0100
0100
0000
,
0020
0000
0000
0030
,
0001
0100
0001
0000
,
1000
0100
1000
0000
,
0100
0010
0100
0000
,
0001
1000
0001
0000
,
1000
0010
1000
0000
,
0001
0100
0001
0000
,
0100
0100
0010
0010
,
0100
0010
1000
0001
,
1001
0000
0000
0000
,
0001
0010
0100
0000
,
1000
0000
0100
0000
,
0010
0001
0100
0000
,
0010
0000
1000
0000
,
0001
0010
0100
0000
,
1000
0000
0001
0000
,
1000
0100
0010
0000
,
0001
0000
1000
0000
,
0001
0100
0001
0001
,
0000
0000
0010
0000
,
1000
0100
1000
1000
,
0000
0000
0100
0000
,
0001
1000
0001
0001
,
0000
0000
0010
0000
,
0001
0000
1000
0000
,
0001
1000
0001
0000
,
1001
0000
0000
0000
,
2000
0000
3000
0000
,
0002
0000
0003
0000
,
2000
0000
3000
0000
,
0010
0100
0010
0000
,
0020
0000
0030
0000
,
0200
0000
0300
0000
,
0020
0000
0030
0000
,
1000
0001
1000
0000
,
1000
0100
0010
0000
,
1000
0100
0010
0000
,
0001
0100
0010
1000
,
0010
0000
0001
0000
,
0100
0010
1000
0000
,
0010
0001
0100
0000
,
1000
0100
0010
0100
,
0001
0000
1000
0000
,
0100
0010
0100
0000
,
0001
0001
1000
1000
,
0001
1000
2002
0000
,
3003
0000
0000
0000
,
1000
0100
0010
0010
,
0100
0010
0001
0000
,
0010
0100
0010
0010
,
0100
1000
0010
0000
,
0001
1000
0001
0001
,
1000
0100
0010
0000
,
0001
0001
1000
1000
,
0001
1000
1001
0000
,
0010
1000
0100
0100
,
0010
0100
0010
0000
,
0010
0001
0100
0100
,
0010
0100
0010
0000
,
0010
0100
0010
0010
,
1000
0100
0010
0000
,
1000
0001
0100
0010
,
1000
0001
2002
0000
,
3003
0000
0000
0000
,
;

//---------------dance-single - ----------------
#NOTES:
     dance-single:
     :
     Medium:
     8:
     0.405384,0.518891,0.504477,0.180170,0.000000,239.000000,56.000000,20.000000,0.000000,0.000000,0.000000,0.405384,0.518891,0.504477,0.180170,0.000000,239.000000,56.000000,20.000000,0.000000,0.000000,0.000000:
0000
0000
0000
0000
,
0000
0000
0000
0000
,
0000
0000
0000
0000
,
0000
0000
0000
0000
,
0000
0000
0000
0000
,
0000
0000
0000
0000
,
1000
0100
1000
1000
,
0010
0000
0100
0000
,
1000
0100
0010
0001
,
2002
0000
0000
3003
,
1000
0100
1000
0000
0001
0000
0000
0000
,
0001
1000
0001
0000
0100
0000
0000
0000
,
1000
0100
0001
0100
,
1000
0001
1000
0000
1001
0000
0000
0000
,
0010
1000
0001
0000
0100
0000
0000
0000
,
0100
0001
1000
0000
0100
0000
0000
0000
,
0010
0010
0100
0100
,
0010
0100
0010
0000
2002
0000
0000
0000
,
3003
0000
0000
0000
,
0010
0100
0010
0010
,
1000
0100
0010
1100
,
0010
0001
1000
0100
,
0010
1000
0010
0000
,
0010
0010
0100
0010
,
1000
0001
0100
1010
,
0100
0100
1000
0001
,
1001
0000
0110
0000
,
1001
0000
1001
0000
1000
0100
1000
0000
,
0010
0100
0010
0000
,
0101
0000
0101
0000
0001
0010
0001
0000
,
1000
0100
0001
0000
,
0110
0000
0110
0000
0010
0001
0010
0000
,
0001
1000
0100
0000
,
0001
1000
0010
0010
,
0100
0100
1001
0000
,
2002
0000
0000
3003
,
2100
0100
0010
3100
,
0020
0001
0130
0000
,
0012
0100
0010
0103
,
0020
1000
0130
0000
,
2100
3001
0102
1003
,
1020
0130
0201
0310
,
2010
3100
0012
0103
,
0010
0100
0010
0000
0110
0000
0000
0000
,
1000
0000
0100
0000
0010
0001
0100
0000
,
0010
1000
0100
0000
,
0010
0000
0100
0000
0001
0010
0100
0000
,
1000
0001
1001
0000
,
1000
0000
0001
0000
0010
0100
1000
0000
,
0010
0100
0010
0000
,
0001
1000
1000
0001
,
1000
0100
1000
0000
1100
0000
0000
0000
,
0001
0100
0001
0000
0101
0000
0000
0000
,
1000
1100
0001
0101
,
1100
0101
1100
0101
,
0220
0000
0000
0330
,
1001
0000
0010
0000
1000
0100
1000
0000
,
0001
0010
0100
0000
,
1100
0000
0010
0000
0001
0100
0001
0000
,
1000
0001
1001
0000
,
1010
0000
0100
0000
0001
0010
0001
0000
,
0100
0001
0010
0000
,
1000
0100
0010
0001
,
1000
0001
1000
0000
1001
0000
0000
0000
,
0010
1100
0010
0101
,
0010
1100
0101
0000
,
1000
0101
1000
0011
,
1000
0101
0011
0000
,
0001
1100
0001
1010
,
0001
1100
1010
0000
,
0010
1001
0100
1001
,
1100
0101
2002
0000
,
3003
0000
0000
0000
,
;

//---------------dance-single - ----------------
#NOTES:
     dance-single:
     :
     Hard:
     11:
     0.549520,0.582739,0.324307,0.018017,0.076572,389.000000,36.000000,2.000000,0.000000,0.000000,0.000000,0.549520,0.582739,0.324307,0.018017,0.076572,389.000000,36.000000,2.000000,0.000000,0.000000,0.000000:
// measure 0
0000
0000
0000
0000
,  // measure 1
0000
0000
0000
0000
,  // measure 2
0000
0000
0000
0000
,  // measure 3
0000
0000
0000
0000
,  // measure 4
0000
0000
0000
0000
,  // measure 5
0000
0000
0000
0000
,  // measure 6
1001
0000
0101
0000
0001
0010
0001
0010
,  // measure 7
0100
1000
0010
0100
,  // measure 8
1000
0100
0010
0100
0001
0100
1000
0000
,  // measure 9
0001
0000
0000
0001
0000
0000
1000
0000
0000
1000
0000
0000
0010
0000
0100
0000
,  // measure 10
0001
0100
0010
1000
0100
0000
1100
0000
,  // measure 11
1000
0100
0010
0001
0100
0000
0101
0000
,  // measure 12
0100
0001
0010
0000
0100
1000
0010
0000
,  // measure 13
0100
0001
0010
0100
1000
0000
1001
0000
,  // measure 14
0010
0001
1000
0010
0100
0000
0101
0000
,  // measure 15
0100
0001
0010
0100
1000
0000
1100
0000
,  // measure 16
0001
0001
0010
0000
1000
1000
0010
0000
,  // measure 17
1000
0000
0100
0000
0010
0000
0001
0000
0100
0000
0000
0010
0000
0000
0100
0000
,  // measure 18
0110
0000
0000
0000
,  // measure 19
0001
1000
0001
0100
0001
1000
0001
0000
,  // measure 20
0010
1000
0010
0100
0010
1000
0010
0000
,  // measure 21
0010
1000
0001
1000
0010
1000
0001
0000
,  // measure 22
0001
0100
1000
0100
1000
0100
0010
0000
,  // measure 23
1000
0010
1000
0001
0010
0001
0100
0000
,  // measure 24
0100
1000
0100
1000
0100
0001
0010
0000
,  // measure 25
0010
0001
0100
1000
0100
0001
1000
0000
,  // measure 26
1000
0000
0100
0000
0001
0000
0100
0000
1000
0000
0000
0001
0000
0000
1000
0000
,  // measure 27
1100
0000
0011
0000
0100
0001
0010
0001
,  // measure 28
0100
0000
0010
0000
1000
0100
0001
0000
,  // measure 29
0011
0000
1100
0000
0100
1000
0010
1000
,  // measure 30
0100
0000
0010
0000
0001
0100
1000
0000
,  // measure 31
0110
0000
1001
0000
0100
0010
0100
0010
,  // measure 32
0100
0001
0100
0010
,  // measure 33
1000
0000
0001
0000
1000
0010
0001
0000
,  // measure 34
0100
0000
0010
0000
0100
0000
0010
0000
1000
0000
0000
0001
0000
0000
1000
0000
,  // measure 35
2002
0000
0000
3003
,  // measure 36
0100
0000
0000
0010
0000
0000
1000
0000
0001
0000
0000
0000
0100
0000
0000
0000
,  // measure 37
0010
0000
0000
1000
0000
0000
0100
0000
0010
0000
0000
0000
0100
0000
0010
0000
,  // measure 38
0001
0000
0000
1000
0000
0000
0001
0000
0100
0000
0000
0010
0000
0000
0100
0000
,  // measure 39
0001
0010
0100
1000
1001
0000
0100
0010
,  // measure 40
0100
0000
0000
0010
0000
0000
0001
0000
1000
0000
0000
0000
0100
0000
0000
0000
,  // measure 41
0010
0000
0000
0001
0000
0000
0100
0000
0010
0000
0000
0000
0100
0000
0010
0000
,  // measure 42
1000
0000
0000
0001
0000
0000
1000
0000
0100
0000
0000
0010
0000
0000
0100
0000
,  // measure 43
1000
0100
0010
0001
1001
0000
0000
0000
,  // measure 44
0001
1000
0100
0010
0001
0000
0100
0000
,  // measure 45
0010
1000
0001
0100
0010
0000
1000
0000
,  // measure 46
0001
1000
0010
0100
0010
1000
0100
0000
,  // measure 47
0001
0010
0100
1000
1001
0000
0000
0000
,  // measure 48
0001
1000
0100
0001
0100
0000
0010
0000
,  // measure 49
0001
0010
1000
0010
0100
0000
0010
0000
,  // measure 50
0001
0100
1000
0001
1000
0100
0001
0000
,  // measure 51
0001
0000
1000
0000
0100
0000
0010
0000
0100
0000
0000
0100
0000
0000
0100
0000
,  // measure 52
1000
0000
0010
0000
0100
0000
0001
0000
1000
0000
0000
1000
0000
0000
1000
0000
,  // measure 53
0001
0010
0100
1000
0100
0010
0001
1000
,  // measure 54
0001
0001
1000
1000
0010
0100
0010
0100
,  // measure 55
0110
0000
0000
0000
,  // measure 56
1001
0000
1100
0000
1000
0010
1000
0010
,  // measure 57
0100
0001
0010
0100
,  // measure 58
1001
0000
1010
0000
0100
0010
0100
0010
,  // measure 59
1000
0100
0010
0001
,  // measure 60
1001
0000
0101
0000
0010
1000
0010
1000
,  // measure 61
0001
1000
0010
0001
,  // measure 62
0100
0001
0010
0000
0100
1000
0010
0000
,  // measure 63
1000
0000
0001
0000
0010
0000
0100
0000
1000
0000
0000
0001
0000
0000
1000
0000
,  // measure 64
1001
0000
0010
0100
1000
0010
1000
0010
,  // measure 65
0100
0001
0010
0100
1000
0000
1100
0000
,  // measure 66
0101
0000
1000
0010
0100
0001
0010
0100
,  // measure 67
1000
0001
0100
0010
1000
0000
0101
0000
,  // measure 68
1010
0000
0001
0100
1000
0001
0010
0100
,  // measure 69
1000
0100
0001
0010
0100
0000
1100
0000
,  // measure 70
0011
0001
0100
0000
1010
1000
0100
0000
,  // measure 71
0010
0000
0001
0000
1000
0000
0100
0000
1100
0000
0000
1010
0000
0000
1001
0000
;

//---------------dance-double - ----------------
#NOTES:
     dance-double:
     :
     Easy:
     5:
     0.244517,0.259445,0.045043,0.144136,0.000000,169.000000,5.000000,16.000000,0.000000,0.000000,0.000000,0.244517,0.259445,0.045043,0.144136,0.000000,169.000000,5.000000,16.000000,0.000000,0.000000,0.000000:
00000000
00000000
00000000
00000000
,
00000000
00000000
00000000
00000000
,
00000000
00000000
00000000
00000000
,
00000000
00000000
00000000
00000000
,
00000000
00000000
00000000
00000000
,
00000000
00000000
00000000
00000000
,
00010000
00000000
00010000
00000000
,
00001000
00000000
00001000
00000000
,
00010000
00000000
00001000
00000000
,
00022000
00000000
00033000
00000000
,
00000100
00000000
00000100
00000000
,
00000010
00000001
00000010
00000000
,
00000100
00000000
00000100
00000000
,
00010000
00001000
00010000
00000000
,
01000000
00000000
01000000
00000000
,
00100000
10000000
00100000
00000000
,
01000000
00000000
01000000
00000000
,
00010000
00001000
00010000
00000000
,
00011000
00000000
00000000
00000000
,
00010000
00001000
00000100
00000010
,
00000100
00000000
00000001
00000000
,
00000010
00000000
00000100
00000000
,
00010000
00001000
00010000
00000000
,
00001000
00010000
00100000
01000000
,
00100000
00000000
10000000
00000000
,
01000000
00000000
00010000
00000000
,
00001000
00010000
00001000
00000000
,
00010000
00010000
00000100
00001000
,
00000100
00000000
00000010
00000000
,
00000001
00000001
00000100
00000001
,
00001000
00000000
00000100
00010000
,
00001000
00001000
00100000
00010000
,
01000000
00000000
00100000
00000000
,
10000000
10000000
00010000
01000000
,
00010000
00000000
00022000
00000000
,
00033000
00000000
00000000
00000000
,
00000020
00000000
00000000
00000030
,
00000200
00000000
00000000
00000300
,
00000002
00000003
00000200
00000300
,
00002000
00000000
00003000
00000000
,
00200000
00000000
00000000
00300000
,
02000000
00000000
00000000
03000000
,
20000000
30000000
02000000
03000000
,
00020000
00000000
00000000
00030000
,
01000000
00100000
00010000
00000000
,
00100000
00001000
00010000
00000000
,
00000100
00001000
00000100
00000010
,
00000001
00000010
00000100
00000000
,
00001000
00010000
00001000
00000000
,
00100000
01000000
00010000
00000000
,
10000000
01000000
00100000
00010000
,
01000000
00100000
01000000
00000000
,
00100000
01000000
00100000
00000000
,
00010000
00001000
00010000
00001000
,
00010000
00010000
00001000
00001000
,
00011000
00000000
00000000
00000000
,
00001000
00000000
00010000
00000100
,
00001000
00000000
00000010
00000000
,
00000100
00000000
00000001
00000010
,
00000100
00000000
00001000
00000000
,
00000001
00000000
00000100
00001000
,
00010000
00000000
00001000
00000000
,
00100000
00000000
00010000
00000000
,
10000000
01000000
00100000
00000000
,
00010000
01000000
00010000
00010000
,
10000000
01000000
00010000
00000000
,
00001000
00010000
00001000
00001000
,
00010000
00000100
00001000
00000000
,
00000001
00000100
00000001
00000001
,
00001000
00000010
00000100
00000000
,
00000001
00000000
00001000
00000000
,
00010000
00001000
00022000
00000000
,
00033000
00000000
00000000
00000000
,
;

//---------------dance-double - ----------------
#NOTES:
     dance-double:
     :
     Medium:
     7:
     0.382219,0.421599,0.234222,0.108102,0.000000,259.000000,26.000000,12.000000,0.000000,0.000000,0.000000,0.382219,0.421599,0.234222,0.108102,0.000000,259.000000,26.000000,12.000000,0.000000,0.000000,0.000000:
00000000
00000000
00000000
00000000
,
00000000
00000000
00000000
00000000
,
00000000
00000000
00000000
00000000
,
00000000
00000000
00000000
00000000
,
00000000
00000000
00000000
00000000
,
00000000
00000000
00000000
00000000
,
10000000
01000000
10000000
01000000
,
00100000
00010000
00100000
00010000
,
00010000
00001000
00010000
00001000
,
00022000
00000000
00000000
00033000
,
00010000
00010000
00001000
00000100
,
00000010
00000100
00000010
00000000
00000100
00000000
00000000
00000000
,
00000001
00000001
00000100
00000010
,
00001000
00000100
00001000
00000000
00001100
00000000
00000000
00000000
,
00001000
00001000
00010000
00100000
,
01000000
00100000
01000000
00000000
00100000
00000000
00000000
00000000
,
10000000
10000000
01000000
00100000
,
00010000
00001000
00022000
00000000
,
00033000
00000000
00000000
00000000
,
00010000
00001000
00000100
00000010
,
00001000
00000100
00000010
00000001
,
00000100
00000010
00001000
00000100
,
00010000
00001000
00010000
00000000
,
00001000
00010000
00100000
01000000
,
00010000
00100000
01000000
10000000
,
00100000
01000000
00010000
00100000
,
00001000
00010000
00001000
00000000
,
00011000
00011000
00001000
00000100
,
00000001
00000010
00001000
00010000
,
00011000
00011000
00010000
01000000
,
10000000
00100000
00010000
00001000
,
00011000
00011000
00001000
00000010
,
00000001
00000100
00001000
00010000
,
00011000
00011000
00010000
00100000
,
10000000
01000000
00010000
00001000
,
00022000
00000000
00000000
00033000
,
00001000
00000200
00000001
00000310
,
00001000
00000001
00000101
00000000
,
00000010
00002000
00000100
00013000
,
00001000
00010000
01010000
00000000
,
00010000
00200000
10000000
01300000
,
00010000
10000000
10100000
00000000
,
01000000
00020000
00100000
00031000
,
00010000
00001000
00011000
00000000
,
00001000
00000000
00010000
00000000
00000100
00001000
00000001
00000000
,
00000100
00000000
00000010
00000000
00001000
00000001
00000010
00000000
,
00000100
00001000
00010000
00000000
00100000
00000000
10000000
00000000
,
01000000
10000000
10010000
00000000
,
00100000
00000000
00001000
00000000
00010000
00000100
00001000
00000000
,
00000100
00000000
00000010
00000000
00000001
00001000
00000010
00000000
,
00000100
00001000
00010000
00000000
00100000
00000000
10000000
00000000
,
01000000
10000000
10010000
00000000
,
00100000
00001000
00011000
00000000
,
00000010
00000001
00001000
00000100
,
00010000
00001000
00010000
00000000
00100000
00010000
10000000
01000000
,
01000000
00000000
00000000
00000000
,
10000000
00000000
11000000
00000000
00010000
00001000
00010000
00001000
,
00000000
00000010
00000001
00000100
,
00000001
00000000
00000101
00000000
00001000
00010000
00001000
00010000
,
00000000
00100000
10000000
01000000
,
00100000
00000000
01100000
00000000
00010000
00001000
00010000
00001000
,
00000000
00000100
00000001
00000010
,
00000100
00000000
00001000
00000000
00000001
00000100
00001000
00000000
,
00010000
00001000
00011000
00000000
,
00001000
00000000
00010000
00000000
00001000
00100000
00010000
00100000
,
00010000
01000000
00100000
10000000
,
00010000
00000000
01000000
00000000
00100000
10000000
01000000
10000000
,
01000000
00010000
00001000
00010000
,
00000010
00000000
00000100
00000000
00000001
00000100
00000010
00000100
,
00000010
00001000
00000001
00000100
,
00001000
00000000
00010000
00000000
00100000
01000000
00100000
00000000
,
01100000
01100000
20020000
00000000
,
30030000
00000000
00000000
00000000
,
;

//---------------dance-double - ----------------
#NOTES:
     dance-double:
     :
     Hard:
     12:
     0.564963,0.485616,0.288273,0.054051,0.076572,401.000000,32.000000,6.000000,0.000000,0.000000,0.000000,0.564963,0.485616,0.288273,0.054051,0.076572,401.000000,32.000000,6.000000,0.000000,0.000000,0.000000:
00000000
00000000
00000000
00000000
,
00000000
00000000
00000000
00000000
,
00000000
00000000
00000000
00000000
,
00000000
00000000
00000000
00000000
,
00000000
00000000
00000000
00000000
,
00000000
00000000
00000000
00000000
,
22000000
00000000
33000000
00000000
01000000
00100000
01000000
00100000
,
00001000
00010000
00001000
00000010
,
00000001
00000010
00000100
00010000
00001000
00100000
00010000
00100000
,
01000000
00000000
00000000
01000000
00000000
00000000
00100000
00000000
00000000
00100000
00000000
00000000
00001000
00000000
00010000
00000000
,
00001000
00000000
00010000
00000000
00001000
00000100
00000001
00000000
,
00001000
00000100
00000010
00000001
00000100
00000000
00000101
00000000
,
00000010
00001000
00000010
00000000
00010000
00000100
00010000
00000000
,
00001000
00010000
00100000
01000000
00100000
00000000
10000000
00000000
,
01000000
00000000
00010000
00000000
00001000
00010000
00000100
00000000
,
00000010
00000001
00000100
00001000
00010000
00000000
00011000
00000000
,
00000100
00010000
00000100
00000000
00001000
00100000
00001000
00000000
,
00100000
00000000
00001000
00000000
00010000
00000000
01000000
00000000
10000000
00000000
00000000
10000000
00000000
00000000
10000000
00000000
,
22000000
00000000
00000000
33000000
,
10000000
00100000
01000000
00100000
00010000
00001000
00000100
00000010
,
00000100
00000001
00000100
00000010
00001000
00000001
00001000
00000000
,
00000001
00000010
00001000
00000010
00000001
00000010
00000100
00000010
,
00001000
00010000
01000000
00100000
01000000
10000000
00100000
00000000
,
10000000
01000000
00100000
00010000
10000000
00100000
00010000
00100000
,
01000000
00010000
00001000
00000100
00000001
00000100
00000010
00000000
,
00000001
00000100
00001000
00000100
00000001
00000010
00001000
00010000
,
00100000
00000000
00000000
00000000
00000000
00000000
00000000
00000000
01000000
00000000
00000000
01000000
00000000
00000000
01000000
00000000
,
10010000
00000000
10100000
00000000
00100000
00010000
00001000
00010000
,
00001000
00000010
00001100
00000011
,
00001001
00000000
00000011
00000000
00001000
00010000
00001000
00010000
,
00100000
01100000
10100000
01010000
,
10010000
00000000
11000000
00000000
00010000
00100000
00001000
00010000
,
00001000
00000000
00011000
00000000
00010100
00000000
00000010
00000001
,
00000100
00000010
00000100
00000001
00000100
00001000
00010000
00000000
,
00001000
00000000
00100000
00000000
00010000
00000000
01000000
00000000
00100000
00000000
00000000
00100000
00000000
00000000
00100000
00000000
,
02200000
00000000
00000000
03300000
,
10000000
00000000
00000000
01000000
00000000
00000000
00010000
00000000
00001000
00000000
00000000
00000000
00010000
00000000
00001000
00000000
,
00000100
00000000
00000000
00000001
00000000
00000000
00000010
00000000
00001000
00000000
00000000
00000000
00000010
00000000
00001000
00000000
,
00010000
00000000
00000000
01000000
00000000
00000000
00100000
00000000
00010000
00000000
00000000
01000000
00000000
00000000
00100000
00000000
,
10000000
01000000
00010000
00001000
00000010
00000000
00000000
00000000
,
00000001
00000000
00000000
00000010
00000000
00000000
00001000
00000000
00010000
00000000
00000000
00000000
00001000
00000000
00010000
00000000
,
00100000
00000000
00000000
10000000
00000000
00000000
01000000
00000000
00010000
00000000
00000000
00000000
01000000
00000000
00010000
00000000
,
00001000
00000000
00000000
00000010
00000000
00000000
00000100
00000000
00001000
00000000
00000000
00000010
00000000
00000000
00000100
00000000
,
00000001
00000010
00001000
00010000
01000000
00000000
00000000
00000000
,
10000000
01000000
10000000
01000000
00010000
01000000
10000000
01000000
,
00010000
00001000
00000100
00000010
00000100
00000000
00000010
00000000
,
00001000
00000001
00001000
00000010
00001000
00000001
00001000
00000100
,
00010000
00001000
00010000
01000000
10000000
00000000
00100000
00000000
,
10000000
01000000
00100000
01000000
00010000
01000000
10000000
01000000
,
00010000
00001000
00010000
00000010
00000100
00000000
00000001
00000000
,
00000100
00000001
00000010
00001000
00000010
00000001
00000010
00001000
,
00010000
00000000
00000010
00000000
00000100
00000000
00001000
00000000
00010000
00000000
00000000
00010000
00000000
00000000
00010000
00000000
,
00001000
00000000
01000000
00000000
00100000
00000000
00010000
00000000
00001000
00000000
00000000
00001000
00000000
00000000
00001000
00000000
,
00010000
01000000
10000000
01000000
00010000
00001000
00000100
00000001
,
00000100
00000010
00010000
00001000
01000000
00100000
10000000
00010000
,
10010000
00000000
00000000
00000000
,
00011000
00000000
00101000
00000000
10000000
01000000
00010000
00001000
,
00010000
00011000
00000010
00001000
,
00001001
00000000
00000101
00000000
00000010
00000001
00000100
00001000
,
00010000
00011000
00100000
01000000
,
10100000
00000000
11000000
00000000
00010000
01000000
00001000
00010000
,
00001000
00011000
00010000
00000010
,
00001000
00000001
00000100
00001000
00010000
01000000
00100000
00000000
,
10000000
00000000
00100000
00000000
01000000
00000000
00010000
00000000
10000000
00000000
00000000
00010000
00000000
00000000
10000000
00000000
,
10010000
00000000
10000000
01000000
00100000
00010000
01000000
00001000
,
00010000
00000100
00001000
00000001
00000010
00000100
00001000
00000000
,
00001001
00000000
00000001
00000010
00000100
00010000
00001000
00100000
,
00010000
01000000
00100000
10000000
01000000
00100000
00010000
00000000
,
01100000
00000000
10000000
00010000
00100000
00001000
00010000
01000000
,
00100000
00001000
00010000
00001000
00000100
00000010
00001000
00000000
,
00000001
00000010
00001000
00010000
01000000
10000000
00100000
00000000
,
10000000
00000000
01000000
00000000
00100000
00000000
00010000
00000000
00001000
00000000
00000000
00010000
00000000
00000000
00011000
00000000
,
;

//---------------dance-single - ----------------
#NOTES:
     dance-single:
     :
     Challenge:
     14:
     0.748994,0.679862,0.351332,0.099094,0.499973,532.000000,39.000000,11.000000,0.000000,0.000000,0.000000,0.748994,0.679862,0.351332,0.099094,0.499973,532.000000,39.000000,11.000000,0.000000,0.000000,0.000000:
// measure 0
0000
0000
0000
0000
,  // measure 1
0000
0000
0000
0000
,  // measure 2
0000
0000
0000
0000
,  // measure 3
0000
0000
0000
0000
,  // measure 4
0000
0000
0000
0000
,  // measure 5
0000
0000
0000
0000
,  // measure 6
1001
0000
0101
0000
0010
1000
0010
0100
,  // measure 7
0001
1001
1010
0110
,  // measure 8
0001
0100
1000
0010
1000
0100
0001
0010
,  // measure 9
0100
0000
0000
1100
0000
0000
1001
0000
0000
0101
0000
0000
0110
0000
0010
0000
,  // measure 10
1000
0001
0100
0000
0010
0000
0100
0000
0001
0000
0000
0000
0101
0000
0000
0000
,  // measure 11
0010
1000
0001
0000
1000
0000
0001
0000
0200
0000
0000
0000
0310
0000
1000
0000
,  // measure 12
0001
0100
0001
0000
1000
0000
0010
0000
0100
0010
0100
0000
0001
0000
1000
0000
,  // measure 13
0001
0100
0000
0100
0010
0000
1000
0000
0020
0000
0000
0000
0130
0001
0100
0000
,  // measure 14
1000
0001
0000
0001
0100
0000
0010
0000
0100
0000
0000
0000
1001
0000
0000
0000
,  // measure 15
0010
0100
0001
0000
1000
0000
0001
0000
0200
0000
0000
0000
0310
0000
1000
0000
,  // measure 16
0001
0100
0001
0000
1000
0000
0010
0000
0100
0010
0100
0000
0001
0000
0010
0000
,  // measure 17
0001
0000
1000
0000
0010
0000
0100
0000
0010
0000
0000
1010
0000
0000
1001
0000
,  // measure 18
0101
0000
0000
0000
,  // measure 19
1000
0100
0001
0010
0001
0100
1000
1000
,  // measure 20
0001
0010
1000
0100
1000
0010
0001
0001
,  // measure 21
0100
0001
0010
0001
1000
0010
1000
1000
,  // measure 22
0001
0100
0010
0100
0001
1000
0001
0001
,  // measure 23
0100
0010
1000
0001
1000
0010
0100
0100
,  // measure 24
0001
0100
1000
0010
1000
0100
0001
0001
,  // measure 25
1000
0010
0001
0100
0001
0010
1000
1000
,  // measure 26
0001
0010
0100
0010
0100
0010
0001
1000
,  // measure 27
0101
0000
0000
0000
0110
0000
0000
0000
1000
0001
0000
0001
0100
0000
0010
0000
,  // measure 28
0100
0000
0001
0000
1000
0010
0000
0010
0100
0000
0001
0000
0100
0000
0010
0000
,  // measure 29
1000
0001
1000
0000
0010
0000
0100
0000
0001
1000
0001
0000
0100
0000
0010
0000
,  // measure 30
1000
0001
0000
0001
0100
0000
0010
0000
0100
0000
0001
0000
1000
0000
0000
0000
,  // measure 31
1010
0000
0100
0010
1000
0010
0100
0001
,  // measure 32
0100
0010
0000
0010
1000
0000
0001
0100
0002
0000
0000
0000
1003
0000
0000
0000
,  // measure 33
0010
0100
0000
0100
0001
0000
1000
0000
0010
0100
0000
0100
0010
0000
1000
0000
,  // measure 34
0100
0000
0001
0000
0010
0001
0000
0001
0100
0000
0000
1100
0000
0000
1001
0000
,  // measure 35
0101
0000
0000
0000
0000
0000
0010
1000
,  // measure 36
0001
0000
0000
0101
0000
0000
0100
0000
0010
0000
0000
0000
1010
0000
0000
0000
,  // measure 37
1001
0000
0001
0100
0000
0001
0100
0000
0020
0000
0000
0000
1030
0000
0010
0000
,  // measure 38
0100
0000
0010
1000
0000
0001
1000
0000
0010
0000
0100
0010
0000
0000
0100
0000
,  // measure 39
0001
0010
1000
0010
0002
0000
0103
0010
,  // measure 40
1000
0001
0000
0001
1000
0000
0010
0000
0200
0000
0000
0000
0301
0000
0100
0000
,  // measure 41
0010
0000
0100
0001
0000
0001
1000
0000
0002
0000
0000
0000
1003
0000
0010
0000
,  // measure 42
0001
0100
0000
0100
0001
0000
0010
0000
1000
0001
0000
0001
0100
0000
0010
0000
,  // measure 43
1000
0000
0010
0000
0100
0000
0001
0000
1000
0001
1000
0001
1000
0001
1000
0000
,  // measure 44
0001
0100
0000
0100
0010
0000
1000
0000
0010
0000
0100
0000
0001
0000
0000
0000
,  // measure 45
1000
0010
0000
0010
0100
0000
0001
0000
0100
0000
0000
0000
0010
0000
1000
0000
,  // measure 46
0001
0100
0000
0100
0010
0000
1000
0000
0001
1000
0000
1000
0010
0000
0100
0000
,  // measure 47
0010
1000
0100
0010
0200
0000
1300
0010
,  // measure 48
0001
0100
0000
0100
0001
0000
0010
0000
1000
0000
0000
0000
0110
0000
0000
0000
,  // measure 49
0001
1000
0000
1000
0010
0000
0100
0000
0010
0000
1000
0000
0100
0000
0010
0000
,  // measure 50
0001
1000
0000
1000
0100
0000
1000
0000
0001
0100
0000
0100
0010
0000
1000
0000
,  // measure 51
0100
0000
0001
0000
0100
0000
1000
0000
1010
0000
0000
0011
0000
0000
1001
0000
,  // measure 52
0010
0000
0100
0000
0001
0000
0100
0000
0010
0000
0000
1010
0000
0000
1001
0000
,  // measure 53
0001
0100
0010
0100
0001
1000
0010
1000
,  // measure 54
0001
0000
0100
0000
1000
0000
0100
0000
0001
1000
0001
1000
0001
1000
0001
1000
,  // measure 55
0001
0000
0000
0000
0000
1000
0001
1000
,  // measure 56
0001
0100
0000
0100
0010
0000
1000
0000
0001
0100
0001
0000
0100
0000
0010
0000
,  // measure 57
1000
0001
0000
0001
0100
0000
0010
0000
0100
0000
0001
0000
1000
0000
0001
0000
,  // measure 58
0100
0010
0000
0010
1000
0000
0001
0000
0100
0001
0000
0001
0010
0000
0001
0000
,  // measure 59
0100
1000
0100
0001
1001
0000
0110
0010
,  // measure 60
1000
0001
0000
0001
0100
0000
0001
0000
1000
0010
1000
0000
0010
0000
0100
0000
,  // measure 61
0001
1000
0000
1000
0010
0000
0100
0000
0001
0000
1000
0000
0001
0000
0100
0000
,  // measure 62
0010
1000
0000
1000
0001
0000
0100
0000
0010
1000
0000
1000
0001
0000
0100
0000
,  // measure 63
0010
0000
0100
0000
0001
0000
0010
0000
1100
0000
0000
1001
0000
0000
0101
0000
,  // measure 64
0010
1000
0010
0000
0100
0001
0000
0001
1000
0000
0001
0000
0100
0000
0010
0000
,  // measure 65
0100
0001
0100
0000
0010
1000
0000
1000
0002
0000
0000
0000
0103
0000
0010
0000
,  // measure 66
1000
0001
0000
0001
0100
0000
0010
0000
1000
0001
0000
0001
0100
0000
0010
0000
,  // measure 67
1000
0001
0100
0000
0010
1000
0001
0000
2000
0000
0000
0000
3010
0100
0010
0000
,  // measure 68
1000
0001
0000
0001
0010
0000
0001
0000
0100
0000
0000
0000
0101
0000
0000
0000
,  // measure 69
1000
0001
1000
0001
0100
0000
0010
0000
0100
0000
0000
0000
0101
0000
1000
0000
,  // measure 70
0010
0100
0001
0000
0100
0000
0010
0000
1000
0100
0010
0000
0001
0000
0100
0000
,  // measure 71
0010
0000
0010
0000
1000
0000
0001
0000
0101
0000
0000
0110
0000
0000
1010
0000
;
