#TITLE:Dancer in the flare;
#SUBTITLE:;
#ARTIST:猫叉Master;
#TITLETRANSLIT:;
#SUBTITLETRANSLIT:;
#ARTISTTRANSLIT:Nekomata Master;
#GENRE:;
#CREDIT:;
#BANNER:Dancer in the flare.png;
#BACKGROUND:Dancer in the flare-bg.png;
#LYRICSPATH:;
#CDTITLE:;
#MUSIC:Dancer in the flare.ogg;
#OFFSET:0.000000;
#SAMPLESTART:74.544998;
#SAMPLELENGTH:15.000000;
#SELECTABLE:YES;
#DISPLAYBPM:132.000000;
#BPMS:0.000000=132.000000
;
#STOPS:
;
#BGCHANGES:;
#KEYSOUNDS:;
#ATTACKS:;

//---------------dance-single - ----------------
#NOTES:
     dance-single:
     :
     Beginner:
     3:
     0.124623,0.173820,0.056893,0.018964,0.000000,92.000000,86.000000,6.000000,2.000000,0.000000,0.000000,0.124623,0.173820,0.056893,0.018964,0.000000,92.000000,86.000000,6.000000,2.000000,0.000000,0.000000:
// measure 0
0000
0000
0000
0000
,  // measure 1
0000
0000
0000
0000
,  // measure 2
0000
0000
0000
0000
,  // measure 3
0000
0000
0000
0000
,  // measure 4
0000
0000
0000
0000
,  // measure 5
0001
0000
0000
0000
,  // measure 6
0001
0000
0000
0000
,  // measure 7
1000
0000
0000
0000
,  // measure 8
1000
0000
0000
0000
,  // measure 9
0001
0000
0001
0000
,  // measure 10
0001
0000
0000
0000
,  // measure 11
1000
0000
1000
0000
,  // measure 12
1000
0000
0000
0000
,  // measure 13
0010
0000
0010
0000
,  // measure 14
0010
0000
0000
0000
,  // measure 15
0100
0000
0100
0000
,  // measure 16
0100
0000
0000
0000
,  // measure 17
0001
0000
0000
0000
,  // measure 18
1000
0000
1000
0000
,  // measure 19
0001
0000
0000
0000
,  // measure 20
0001
0000
0001
0000
,  // measure 21
1000
0000
0000
0000
,  // measure 22
0010
0000
0010
0000
,  // measure 23
0100
0000
0000
0000
,  // measure 24
0100
0000
0100
0000
,  // measure 25
0010
0000
0010
0000
,  // measure 26
1000
1000
1000
0000
,  // measure 27
0010
0000
0010
0000
,  // measure 28
0001
0001
0001
0000
,  // measure 29
0100
0000
0100
0000
,  // measure 30
1000
1000
1000
0000
,  // measure 31
0100
0000
0100
0000
,  // measure 32
0001
0001
0001
0000
,  // measure 33
1000
0000
0001
0000
,  // measure 34
1001
0000
0000
0000
,  // measure 35
0001
0000
1000
0000
,  // measure 36
1001
0000
0000
0000
,  // measure 37
0010
0000
0100
0000
,  // measure 38
0110
0000
0000
0000
,  // measure 39
0100
0000
0010
0000
,  // measure 40
0110
0000
0000
0000
,  // measure 41
0001
0000
1000
0000
,  // measure 42
0010
0010
0010
0000
,  // measure 43
1000
0000
0001
0000
,  // measure 44
0100
0100
0100
0000
,  // measure 45
0010
0000
0010
0000
,  // measure 46
0010
0000
0010
0000
,  // measure 47
1000
0001
1000
0000
,  // measure 48
0010
0100
0010
0000
,  // measure 49
1000
0000
0001
0000
,  // measure 50
1001
0000
0000
0000
,  // measure 51
0001
0000
1000
0000
,  // measure 52
2002
0000
0000
3003
0000
0000
0000
0000
;

//---------------dance-single - ----------------
#NOTES:
     dance-single:
     :
     Easy:
     7:
     0.223508,0.275754,0.180161,0.075857,0.000000,165.000000,146.000000,19.000000,8.000000,0.000000,0.000000,0.223508,0.275754,0.180161,0.075857,0.000000,165.000000,146.000000,19.000000,8.000000,0.000000,0.000000:
// measure 0
0000
0000
0000
0000
,  // measure 1
0000
0000
0000
0000
,  // measure 2
0000
0000
0000
0000
,  // measure 3
0000
0000
0000
0000
,  // measure 4
0000
0000
0000
0000
,  // measure 5
0001
0000
1000
0000
,  // measure 6
0010
0100
0010
0000
,  // measure 7
1000
0000
0001
0000
,  // measure 8
0010
0100
0010
0000
,  // measure 9
0001
0100
0010
0000
,  // measure 10
1000
0001
1000
0001
,  // measure 11
1000
0100
0010
0000
,  // measure 12
0001
1000
0001
1000
,  // measure 13
0001
0010
0100
0000
,  // measure 14
1000
0001
1000
0001
,  // measure 15
1000
0010
0100
0000
,  // measure 16
0001
1000
0001
0010
,  // measure 17
0200
0000
0310
0000
,  // measure 18
0001
0100
1000
0010
,  // measure 19
0200
0000
0310
0000
,  // measure 20
1000
0100
0001
0010
,  // measure 21
0200
0000
0310
0000
,  // measure 22
0001
0100
1000
0010
,  // measure 23
0100
0000
0010
0000
,  // measure 24
2002
0000
3003
0000
,  // measure 25
0001
0010
0100
1000
,  // measure 26
0010
0100
0010
0000
,  // measure 27
1000
0010
0100
0001
,  // measure 28
0010
0100
0010
0000
,  // measure 29
0001
0100
0010
1000
,  // measure 30
0001
0100
0010
0000
,  // measure 31
1000
0100
0010
0001
,  // measure 32
1000
0100
0010
0000
,  // measure 33
1001
0000
1001
0000
,  // measure 34
1001
0000
0010
0100
,  // measure 35
0110
0000
0110
0000
,  // measure 36
0110
0000
1000
0001
,  // measure 37
1001
0000
0110
0000
,  // measure 38
1001
0000
0001
1000
,  // measure 39
1001
0000
0110
0000
,  // measure 40
1001
0000
0000
0000
,  // measure 41
1000
0100
0010
0000
,  // measure 42
0001
0100
0010
0100
,  // measure 43
0001
0100
0010
0000
,  // measure 44
1000
0100
0010
0100
,  // measure 45
2000
3000
0100
1000
0000
0100
2000
3000
,  // measure 46
0100
1000
0000
0100
2000
3000
0001
0000
,  // measure 47
1000
0010
0100
0001
,  // measure 48
0100
1000
0100
0001
,  // measure 49
1001
0000
1001
0000
,  // measure 50
1001
0000
1000
0100
,  // measure 51
0110
0000
0110
0000
,  // measure 52
1001
0000
0000
0000
0000
0000
0000
0100
;

//---------------dance-single - ----------------
#NOTES:
     dance-single:
     :
     Medium:
     11:
     0.363032,0.433217,0.274983,0.056893,0.000000,268.000000,239.000000,29.000000,6.000000,0.000000,0.000000,0.363032,0.433217,0.274983,0.056893,0.000000,268.000000,239.000000,29.000000,6.000000,0.000000,0.000000:
// measure 0
0000
0000
0000
0000
,  // measure 1
0000
0000
0000
0000
,  // measure 2
0000
0000
0000
0000
,  // measure 3
0000
0000
0000
0000
,  // measure 4
0000
0000
0000
0000
,  // measure 5
1000
0000
0001
0010
0100
0000
1000
0000
,  // measure 6
0001
0000
1000
0010
0100
0000
0000
0000
,  // measure 7
0101
0000
1100
0000
,  // measure 8
1001
1001
1001
0000
,  // measure 9
0001
0010
0100
1000
0010
0100
0000
0000
,  // measure 10
0001
0010
0100
1000
0010
0100
0001
0000
,  // measure 11
1000
0010
0100
0001
0010
0100
0000
0000
,  // measure 12
1000
0010
0100
0001
0010
0001
0100
0000
,  // measure 13
0001
0010
0100
1000
0001
0010
0000
0000
,  // measure 14
0001
0010
0100
1000
0010
0100
0001
0000
,  // measure 15
1000
0010
0100
0000
0001
0010
0100
0000
,  // measure 16
1000
0010
0100
0001
0010
0001
0100
0000
,  // measure 17
0200
0000
0301
0000
0000
0100
0001
0010
,  // measure 18
0000
0100
0001
0010
0001
1000
0100
0000
,  // measure 19
0200
0000
1300
0000
0000
0100
1000
0010
,  // measure 20
0000
0100
1000
0010
1000
0001
0100
0000
,  // measure 21
0002
0000
0013
0000
0000
0001
1000
0010
,  // measure 22
0000
0100
0001
0010
0001
1000
0100
0000
,  // measure 23
2000
0000
3000
0010
1000
0001
0100
0000
,  // measure 24
0001
0000
0010
0000
0000
0010
0100
1000
,  // measure 25
0001
0010
0100
1000
,  // measure 26
0010
0101
1100
0000
,  // measure 27
1000
0010
0100
0001
,  // measure 28
0010
1100
0101
0000
,  // measure 29
0001
0010
0100
1000
,  // measure 30
0010
1000
0001
0100
0010
0000
0000
0000
,  // measure 31
1000
0010
0100
0001
,  // measure 32
0010
0001
1000
0100
0010
0000
0000
0000
,  // measure 33
1100
0000
1100
0000
,  // measure 34
0011
0000
0010
0100
,  // measure 35
0101
0000
0101
0000
,  // measure 36
1010
0000
0000
0000
0010
1000
0100
0000
,  // measure 37
1100
0000
0000
1000
1100
0000
0000
0001
,  // measure 38
0011
0000
0000
0000
0010
0001
0100
0000
,  // measure 39
0101
0000
0000
0001
0101
0000
0000
1000
,  // measure 40
1010
0000
0000
0000
0010
0010
0100
0100
,  // measure 41
0001
0010
0100
1000
0010
0100
0000
0000
,  // measure 42
0001
0010
0100
1000
0010
0100
0001
0000
,  // measure 43
1000
0010
0100
0001
0010
0100
0000
0000
,  // measure 44
1000
0010
0100
0001
0010
0001
0100
0000
,  // measure 45
0001
0010
0100
1000
0010
0100
0001
0010
,  // measure 46
0100
1000
0010
0100
0001
0010
0100
1000
,  // measure 47
0010
0000
0100
0000
0010
1000
0100
0000
,  // measure 48
0010
0001
0100
1000
0100
0000
0001
0000
,  // measure 49
1100
0000
0000
1000
1100
0000
0000
0001
,  // measure 50
0011
0000
0000
0000
0010
0010
0100
0000
,  // measure 51
0101
0000
0000
0001
0101
0000
0000
1000
,  // measure 52
1010
0000
0000
0000
0001
1000
1100
2002
,  // measure 53
0000
0000
0000
3003
;

//---------------dance-single - ----------------
#NOTES:
     dance-single:
     :
     Hard:
     13:
     0.528293,0.586117,0.303430,0.037929,0.493073,390.000000,358.000000,32.000000,4.000000,0.000000,0.000000,0.528293,0.586117,0.303430,0.037929,0.493073,390.000000,358.000000,32.000000,4.000000,0.000000,0.000000:
// measure 0
0000
0000
0000
0000
,  // measure 1
0000
0000
0000
0000
,  // measure 2
0000
0000
0000
0000
,  // measure 3
0000
0000
0000
0000
,  // measure 4
0000
0000
0000
0000
0000
0000
0010
1000
,  // measure 5
0001
0000
0010
0000
0100
1000
0100
0000
0010
0000
0001
0010
,  // measure 6
0100
0000
1000
0000
0001
0000
0100
0000
0000
0110
0000
0000
,  // measure 7
1000
0000
0010
0000
0100
0001
0010
0000
0100
0000
1000
0000
,  // measure 8
1100
0011
0001
1000
,  // measure 9
1000
0010
1000
0000
0100
0000
0010
0001
0010
0000
0100
0000
0000
0000
1000
0100
,  // measure 10
1000
0000
0100
0010
0100
0000
0010
0000
0001
0000
0010
0100
1000
0000
0001
0000
,  // measure 11
1000
0010
1000
0000
0001
0000
0100
0001
0100
0000
0010
0000
0000
0000
1000
0010
,  // measure 12
1000
0000
0010
0100
0010
0000
1000
0000
0100
0000
0001
0000
0100
0000
1000
0000
,  // measure 13
0001
0010
0001
0000
0010
0000
0100
1000
0100
0000
1000
0000
0000
0000
0001
0100
,  // measure 14
0001
0000
1000
0010
1000
0000
0001
0000
0010
0000
0100
0000
1000
0100
1000
0100
,  // measure 15
0002
0000
0103
0000
1000
0010
0100
0000
,  // measure 16
0001
0000
0010
0100
0010
0000
1000
0000
0010
0000
0001
0000
0010
0000
0100
0000
,  // measure 17
1000
0000
0000
0000
0001
0000
0000
0000
0001
0000
1000
0100
1000
0000
0001
0000
,  // measure 18
1000
0000
0010
0100
0010
0000
0001
0000
0010
0000
0100
0010
1000
0000
0010
0000
,  // measure 19
0000
0000
0100
0010
1000
0000
0000
0000
0000
0000
0001
0100
0001
0000
1000
0000
,  // measure 20
0001
0000
0010
0100
0010
0000
0001
0000
0100
0000
0010
1000
0001
0000
0010
0001
,  // measure 21
1000
0000
0000
0000
0101
0000
0000
0000
0000
0000
1000
0100
1000
0000
0001
0000
,  // measure 22
0000
0000
0010
0100
0010
0000
0001
0000
0010
0000
0100
1000
0100
0000
0010
0000
,  // measure 23
0100
0000
0000
0000
1000
0000
0001
0000
0100
0000
1000
0100
1000
0000
0100
0000
,  // measure 24
0001
0000
0010
0000
0100
0000
0000
0000
1000
0000
0100
0010
0100
0000
1000
0000
,  // measure 25
0001
0000
0010
0000
0100
1000
0001
0000
0100
0000
0010
1000
,  // measure 26
0100
0000
0010
0000
0001
0000
0100
0000
0000
0010
0000
0000
,  // measure 27
1000
0000
0010
0000
0001
0010
0100
0000
1000
0000
0100
0000
,  // measure 28
0001
0000
0000
0000
0010
0000
0000
0000
0100
0000
1000
0000
0100
0000
0000
0000
0000
0000
0010
0000
0000
0001
0000
0000
,  // measure 29
1000
0000
0010
0000
0100
0001
0010
0000
0100
0000
1000
0010
,  // measure 30
1000
0000
0100
0000
0001
0000
0100
0000
0000
1000
0000
0000
,  // measure 31
0001
0000
0100
0000
0010
1000
0100
0000
0010
0000
0001
0000
,  // measure 32
0100
0000
0010
0000
1000
0001
0100
0000
0000
0010
0000
0000
,  // measure 33
1001
0000
0000
1010
0000
0000
1000
0000
1100
0000
0000
0110
0000
0000
0001
0000
,  // measure 34
0100
0000
0000
1001
0000
0000
0000
0000
0000
0000
0000
0000
0000
0000
0000
0000
,  // measure 35
0001
0000
0000
0011
0000
0000
0001
0000
0010
0000
0000
0110
0000
0000
1000
0001
,  // measure 36
1000
0000
0000
1001
0000
0000
0000
0000
0100
0000
0000
0000
0001
0000
0000
0000
,  // measure 37
0101
0000
0000
0110
0000
0000
1100
0000
0110
0000
0000
1001
0000
0000
1000
0000
,  // measure 38
0001
0000
0000
1001
0000
0000
0001
0000
0010
0000
0100
0000
1000
0000
0001
0000
,  // measure 39
1000
0000
0000
0010
0000
0000
0100
0000
0010
0000
0001
0000
0010
0000
0100
0000
,  // measure 40
1000
0100
0010
1000
0001
0100
0010
1000
,  // measure 41
0001
0010
0001
0000
0100
0000
0010
1000
0010
0000
0100
0000
0000
0000
0001
0100
,  // measure 42
0001
0000
0100
0010
0100
0000
0010
0000
1000
0000
0010
0100
0001
0000
1000
0000
,  // measure 43
0001
0010
0001
0000
1000
0000
0100
1000
0100
0000
0010
0000
0000
0000
0001
0010
,  // measure 44
0001
0000
0010
0100
0010
0000
1000
0000
0010
0000
0001
0000
0010
0000
1000
0000
,  // measure 45
0010
0001
0010
0000
0110
0000
1001
0000
0000
0000
0101
0000
0100
0000
0000
0000
,  // measure 46
0101
0000
1100
0000
1000
0000
0100
0000
0001
0000
1000
0000
0001
0010
0001
0010
,  // measure 47
0200
0000
1300
0000
0001
0100
1000
0000
,  // measure 48
0100
0001
0010
1000
0010
0001
0100
0001
,  // measure 49
0010
0000
0000
0011
0000
0000
0000
0000
0001
0000
0000
0101
0000
0000
0000
0000
,  // measure 50
1000
0000
0000
1100
0000
0000
0000
0000
0010
0000
0000
0110
0000
0000
0000
0000
,  // measure 51
1001
0000
0010
0001
0000
0000
0000
0000
1100
0000
0001
0100
0000
0000
0000
0000
,  // measure 52
0010
0000
1010
0000
0100
0000
0110
0000
1000
0000
0100
0010
0100
0000
2002
0000
,  // measure 53
0000
0000
0000
3003
;

//---------------dance-double - ----------------
#NOTES:
     dance-double:
     :
     Easy:
     7:
     0.223508,0.254834,0.199126,0.056893,0.000000,165.000000,144.000000,21.000000,6.000000,0.000000,0.000000,0.223508,0.254834,0.199126,0.056893,0.000000,165.000000,144.000000,21.000000,6.000000,0.000000,0.000000:
00000000
00000000
00000000
00000000
,
00000000
00000000
00000000
00000000
,
00000000
00000000
00000000
00000000
,
00000000
00000000
00000000
00000000
,
00000000
00000000
00000000
00000000
,
10000000
00100000
00010000
00000000
,
00001000
00000100
00000001
00000000
,
00000010
00001000
00010000
01000000
,
10000000
00100000
00010000
00000000
,
00001000
00010000
00100000
00000000
,
00010000
00001000
00000100
00000000
,
00000001
00001000
00000100
00000000
,
00000010
00001000
00010000
01000000
,
00010000
00001000
00000010
00000000
,
00001000
00010000
01000000
00000000
,
10000000
00010000
01000000
00000000
,
00100000
00010000
00001000
00000000
,
00020000
00000000
00000000
00030000
01000000
00000000
00000000
00000000
,
10000000
00100000
00010000
00001000
,
00000200
00000000
00000000
00000300
00000001
00000000
00000010
00000000
,
00001000
00010000
00100000
00010000
,
00002000
00000000
00000000
00003000
00000100
00000000
00000000
00000000
,
00000001
00000010
00001000
00010000
,
02000000
00000000
00000000
03000000
10000000
00000000
00100000
00000000
,
00010000
00001000
00000010
00000000
,
00000001
00000100
00001000
00000000
,
00010000
00001000
00010000
00000000
,
00010000
01000000
10000000
00000000
,
00100000
01000000
00100000
00000000
,
10000000
01000000
00010000
00000000
,
00001000
00010000
00001000
00000000
,
00001000
00000100
00000001
00000000
,
00000100
00000010
00000100
00000000
,
00000110
00000000
00001010
00000000
,
00011000
00000000
00010000
01000000
,
01100000
00000000
00110000
00000000
,
00011000
00000000
00001000
00000010
,
00000110
00000000
00001100
00000000
,
00011000
00000000
00010000
00100000
,
01100000
00000000
01010000
00000000
,
00011000
00000000
00010000
01000000
,
00010000
00001000
00000010
00000000
,
00001000
00010000
01000000
10000000
,
00100000
00010000
00001000
00000000
,
00000010
00000100
00001000
00000010
,
00000100
00001000
00010000
00100000
,
10000000
01000000
00010000
00001000
,
00000010
00000000
00001000
00010000
,
01000000
00000000
10000000
00100000
,
01100000
00000000
01010000
00000000
,
00011000
00000000
00001100
00000000
,
00000110
00000000
00000101
00000000
,
00001100
00000000
00000000
00000000
00011000
00000000
00000000
00022000
,
00000000
00000000
00000000
00033000
;

//---------------dance-double - ----------------
#NOTES:
     dance-double:
     :
     Medium:
     11:
     0.352195,0.433217,0.056893,0.018964,0.113786,260.000000,254.000000,6.000000,2.000000,0.000000,0.000000,0.352195,0.433217,0.056893,0.018964,0.113786,260.000000,254.000000,6.000000,2.000000,0.000000,0.000000:
00000000
00000000
00000000
00000000
,
00000000
00000000
00000000
00000000
,
00000000
00000000
00000000
00000000
,
00000000
00000000
00000000
00000000
,
00000000
00000000
00000000
00000000
,
10000000
00100000
10000000
01000000
,
10000000
00100000
00010000
00000000
,
00001000
00000010
00000001
00000100
,
00000010
00010000
00001000
00000000
,
00010000
01000000
00100000
01000000
10000000
00100000
00000000
00000000
,
10000000
01000000
00010000
00001000
00000010
00000001
00000100
00000000
,
00000001
00000100
00000010
00000100
00000001
00000010
00000000
00000000
,
00000001
00000100
00001000
00010000
00100000
10000000
01000000
00000000
,
10000000
01000000
10000000
00100000
00010000
00001000
00000000
00000000
,
00010000
00001000
00000100
00000001
00000010
00000100
00000010
00000000
,
00001000
00010000
01000000
00000000
10000000
01000000
10000000
00000000
,
00100000
00010000
00001000
00000100
00000001
00000000
00001000
00000000
,
00000001
00000000
00000010
00000000
00000000
00001000
00010000
00000000
,
00000000
00001000
00010000
00100000
10000000
00010000
10000000
00000000
,
00000000
01000000
00010000
00000000
00000000
00001000
00000010
00000000
,
00000000
00000001
00001000
00000001
00000010
00001000
00010000
01000000
,
10000000
00000000
00100000
00000000
00000000
00010000
00001000
00000000
,
00000000
00010000
00001000
00000010
00000001
00001000
00000001
00000000
,
00000100
00000000
00000000
00000001
00000010
00001000
00010000
00000000
,
00001000
00000000
00011000
00000000
00000000
00010000
01000000
10000000
,
01000000
00000000
00010000
00000000
00010000
00000000
00001000
00000000
00000010
00000000
00000010
00000000
,
00000001
00000000
00000000
00000000
00001000
00000000
00000000
00000000
00000001
00000000
00000000
00000000
00000010
00000000
00000000
00000000
00000000
00000000
00000000
00000000
00000000
00000001
00000000
00000000
,
00000100
00000000
00001000
00000000
00001000
00000000
00010000
00000000
00100000
00000000
00100000
00000000
,
10000000
00000000
00000000
00000000
00010000
00000000
00000000
00000000
01000000
00000000
00000000
00000000
00100000
00000000
00000000
00000000
00000000
00000000
00000000
00000000
00000000
10000000
00000000
00000000
,
00100000
00000000
00010000
00000000
00010000
00000000
00001000
00000000
00000100
00000000
00000100
00000000
,
00000001
00000000
00000000
00000000
00001000
00000000
00000000
00000000
00000001
00000000
00000000
00000000
00000010
00000000
00000000
00000000
00000000
00000000
00000000
00000000
00000000
00000001
00000000
00000000
,
00000010
00000000
00001000
00000000
00001000
00000000
00010000
00000000
01000000
00000000
01000000
00000000
,
10000000
00000000
00010000
00000000
01000000
00000000
00100000
00000000
00000000
00000000
00000000
00000000
,
11000000
00000000
00000000
00010000
00001000
00000000
00000000
00000010
,
00000001
00000000
00000001
00000100
,
00000101
00000000
00000000
00001000
00010000
00000000
00000000
00100000
,
10000000
00000000
00000000
00000000
00100000
10000000
01000000
00000000
,
10100000
00000000
00000000
00010000
00001000
00000000
00000000
00000100
,
00000001
00000000
00000000
00000000
00000010
00000001
00000100
00000000
,
00000011
00000000
00000000
00001000
00010000
00000000
00000000
01000000
,
10000000
00000000
00000000
00000000
10000000
01000000
00010000
00000000
,
00010000
01000000
00100000
01000000
10000000
00100000
00000000
00000000
,
10000000
01000000
00010000
00001000
00000010
00000001
00000100
00000000
,
00000001
00000100
00000010
00000100
00000001
00000010
00000000
00000000
,
00000001
00000100
00001000
00010000
00100000
10000000
01000000
10000000
,
01000000
00010000
00001000
00000100
00001000
00010000
00100000
00010000
,
00001000
00000010
00001000
00010000
01000000
00010000
00001000
00000010
,
00000001
00000100
00000001
00000000
00000010
00001000
00010000
01000000
,
10000000
00000000
00100000
01000000
,
01000000
00010000
00000000
00001000
00010000
00000000
00000100
00000000
,
00000010
00000001
00000000
00000100
00001000
00000000
00010000
00000000
,
01000000
10000000
00000000
01000000
00010000
00000000
00001000
00000000
,
00000100
00000001
00000000
00000100
00000000
00001000
00010000
00022000
,
00000000
00000000
00000000
00033000
;

//---------------dance-double - ----------------
#NOTES:
     dance-double:
     :
     Hard:
     13:
     0.489009,0.586117,0.170679,0.085340,0.483591,361.000000,343.000000,18.000000,9.000000,0.000000,0.000000,0.489009,0.586117,0.170679,0.085340,0.483591,361.000000,343.000000,18.000000,9.000000,0.000000,0.000000:
00000000
00000000
00000000
00000000
,
00000000
00000000
00000000
00000000
,
00000000
00000000
00000000
00000000
,
00000000
00000000
00000000
00000000
,
00000000
00000000
00000000
00001000
,
00010000
00000000
00100000
00000000
10000000
01000000
10000000
00000000
00100000
00000000
00010000
00001000
,
00010000
00000000
00000100
00000000
00000001
00000000
00000100
00000000
00000000
00010000
00000000
00000000
,
00001000
00000000
00000010
00000000
00000001
00000100
00000001
00000000
00000010
00000000
00001000
00000000
,
00010000
00100000
10000000
10010000
,
00010000
01000000
00100000
00000000
10000000
00000000
00100000
01000000
00100000
00000000
00010000
00000000
00000000
00000000
00001000
00000000
,
00000100
00001000
00010000
00100000
00010000
00001000
00000010
00000001
,
00001000
00000100
00000010
00000000
00000001
00000000
00000010
00000100
00000010
00000000
00001000
00000000
00000000
00000000
00010000
00000000
,
00100000
00010000
00001000
00000010
00001000
00010000
01000000
10000000
,
00010000
00100000
01000000
00000000
10000000
00000000
01000000
00100000
01000000
00000000
00010000
00000000
00000000
00000000
00001000
00000000
,
00000100
00001000
00010000
00100000
00010000
00001000
00000010
00000001
,
00000100
00000000
00001000
00010000
00001000
00000000
00000000
00000000
01000000
00000000
00100000
10000000
00100000
00000000
00000000
00000000
,
10000000
00000000
01000000
00100000
01000000
00000000
00010000
00000000
00001000
00000000
00000100
00000000
00000001
00000000
00000000
00000000
,
00000020
00000000
00000000
00000000
00001030
00000000
00000000
00000000
00000000
00000000
00001000
00010000
00001000
00000000
01000000
00000000
,
00000000
00000000
00010000
10000000
01000000
00000000
00100000
00000000
01000000
00000000
00010000
00000000
00001000
00000000
00000010
00000000
,
00000000
00000000
00000001
00000010
00000001
00000000
00000000
00000000
00000000
00000000
00001000
00000100
00000010
00000000
00000001
00000000
,
00000000
00000000
00000001
00000000
00000010
00000000
00001000
00000000
00010000
00000000
01000000
10000000
00000000
00010000
00100000
00000000
,
02000000
00000000
00000000
00000000
03010000
00000000
00000000
00000000
00000000
00000000
00010000
00001000
00010000
00000000
00000010
00000000
,
00000000
00000000
00000100
00000001
00000100
00000000
00001000
00000000
00010000
00000000
01000000
00000000
10000000
00000000
00010000
00000000
,
00200000
00000000
00300000
00000000
00000000
00000000
01000000
00000000
00010000
00000000
00001000
00010000
00001000
00000000
00000100
00000000
,
00000001
00000000
00000010
00000000
00000100
00000000
00000000
00000000
00000000
00000000
00001000
00000001
00000010
00000000
00001000
00000000
,
00010000
00000000
01000000
00000000
10000000
01000000
10000000
00000000
00100000
00000000
00010000
00001000
,
00010000
00000000
00001000
00000000
00000100
00000000
00000001
00000000
00000000
00000010
00000000
00000000
,
00001000
00000000
00000010
00000000
00001000
00010000
00001000
01000000
00000000
00000000
00100000
00000000
,
10000000
00000000
00010000
00000000
10000000
01000000
00010000
00000000
00000000
00001000
00000000
00000000
,
00010000
01000000
00000000
00000000
10000000
01000000
10000000
00100000
00000000
00000000
00010000
00001000
,
00010000
00000000
00000100
00000000
00000001
00000000
00000100
00000000
00000000
00010000
00000000
00000000
,
00001000
00000000
00000010
00000000
00000001
00000100
00000001
00000000
00000010
00000000
00001000
00000000
,
00010000
00000000
01000000
00000000
10000000
00010000
01000000
00000000
00000000
00000000
00000000
00000000
,
01010000
00000000
00000000
01100000
00000000
00000000
10000000
01000000
10000000
00000000
00000000
00110000
00000000
00000000
00001000
00010000
,
00001000
00000000
00000000
00001100
00000000
00000000
00000000
00000000
00000000
00000000
00000000
00000000
00000000
00000000
00000000
00000000
,
00001100
00000000
00000000
00000110
00000000
00000000
00000001
00000100
00000001
00000000
00000000
00001010
00000000
00000000
00010000
00001000
,
00010000
00000000
00000000
01010000
00000000
00000000
00000000
00000000
00000000
00000000
00000000
00000000
00000000
00000000
00000000
00000000
,
01010000
00000000
00000000
01100000
00000000
00000000
10000000
01000000
10000000
00000000
00000000
00110000
00000000
00000000
00001000
00010000
,
00001000
00000000
00000000
00001100
00000000
00000000
00000000
00000000
00000000
00000000
00000000
00000000
00000000
00000000
00000000
00000000
,
00001100
00000000
00000000
00000110
00000000
00000000
00000001
00000100
00000001
00000000
00000000
00001010
00000000
00000000
00010000
00000000
,
00001000
00000000
01010000
00000000
10000000
00100000
01000000
00010000
,
00001000
00000010
00000100
00000000
00000001
00000000
00000100
00000010
00000100
00000000
00001000
00000000
00000000
00000000
00010000
00000000
,
00100000
00010000
00001000
00000100
00001000
00010000
01000000
10000000
,
00010000
00100000
01000000
00000000
10000000
00000000
01000000
00100000
01000000
00000000
00010000
00000000
00000000
00000000
00001000
00000000
,
00000100
00001000
00010000
01000000
00010000
00001000
00000010
00000001
,
00001000
00000100
00000010
00000000
00000001
00000000
00000010
00000100
00000010
00000000
00001000
00000000
00010000
00001000
00010000
00000000
,
00100000
00000000
10000000
00010000
01000000
00000000
00100000
00000000
10000000
01000000
10000000
00000000
00010000
00100000
00010000
00000000
,
10000000
00000000
01000000
00100000
00010000
00000000
00001000
00000000
00000100
00000000
00000010
00000001
00000010
00000000
00000100
00000000
,
00001000
00000000
00000001
00000000
00000100
00000000
00000010
00001000
00000010
00000000
00000000
00000000
00010000
00000000
00000000
00000000
,
00200000
00000000
00000000
10300000
00000000
00000000
00000000
00000000
20000000
00000000
00000000
31000000
00000000
00000000
00010000
00000000
,
00001000
00000000
00000010
00000001
00000010
00000000
00000100
00000000
00001000
00000000
00000010
00000100
00000010
00000000
00000001
00000000
,
00000020
00000000
00000000
00001030
00000000
00000000
00000000
00000000
00002000
00000000
00000000
00003100
00000000
00000000
00000000
00000000
,
00010000
00000000
00000000
00001000
00010000
00000000
00100000
00000000
10000000
00000000
01000000
00000000
00010000
00000000
00022000
00000000
,
00000000
00000000
00000000
00033000
;

//---------------dance-single - ----------------
#NOTES:
     dance-single:
     :
     Challenge:
     14:
     0.692199,0.739017,0.549966,0.341358,0.858137,511.000000,453.000000,58.000000,36.000000,0.000000,0.000000,0.692199,0.739017,0.549966,0.341358,0.858137,511.000000,453.000000,58.000000,36.000000,0.000000,0.000000:
// measure 0
0000
0000
0000
0000
,  // measure 1
0000
0000
0000
0000
,  // measure 2
0000
0000
0000
0000
,  // measure 3
0000
0000
0000
0000
,  // measure 4
0000
0000
0000
0000
0000
0000
1000
0010
,  // measure 5
0011
0000
1000
0000
0100
0001
0010
0000
0110
0000
1000
0001
,  // measure 6
0100
0000
0010
0100
0001
0000
0100
0000
0000
1010
0000
0000
,  // measure 7
1000
0000
0010
0100
0000
0001
0010
0000
0010
0100
1000
0000
,  // measure 8
1001
0000
0000
0000
0001
0000
0100
0000
0000
0000
0000
0000
0110
0000
0000
0001
1000
0001
2000
0000
0000
0000
0000
0000
,  // measure 9
3010
0100
0001
0100
0001
0000
0010
1000
0010
1000
0010
0000
0000
0000
0001
0010
,  // measure 10
0001
1000
0010
1000
0010
0000
0100
0001
0100
0001
1000
0010
1000
0010
0200
0000
,  // measure 11
0301
0010
0001
0010
1000
0000
0010
0001
0010
0100
2000
0000
3000
0000
0102
0000
,  // measure 12
0013
0100
1000
0100
0020
0000
0032
0000
0203
0000
0310
1000
0001
1000
0010
0000
,  // measure 13
0100
0001
0010
0001
2000
0000
3010
0100
0001
0100
0020
0000
0030
0000
2010
0000
,  // measure 14
3100
0001
0100
1000
0100
0000
0020
0000
0032
0000
0013
1000
0010
0001
0010
1000
,  // measure 15
0010
0000
0000
0010
0001
0000
0000
0001
0100
0000
0000
0100
0010
0000
0000
0010
,  // measure 16
1000
0000
0000
0000
0000
0000
0000
0000
0000
1000
0000
0000
0001
0000
0000
0000
0000
0000
0010
0000
0000
0000
0000
0000
1000
0000
0000
0000
0010
0000
0000
0000
0001
0000
0000
0000
0010
0000
0000
0000
1000
0000
0000
0000
0010
0000
0000
0000
,  // measure 17
0002
0000
0000
0000
0203
0000
0000
0000
0310
0000
1000
0010
1000
0001
0100
0000
,  // measure 18
0010
0000
0100
0001
1000
0001
0100
0000
0010
0000
1000
0100
0010
0001
1000
0010
,  // measure 19
0200
0000
0301
0010
0002
0000
0000
0000
1003
0000
0010
0010
0100
0001
0200
0000
,  // measure 20
0310
0000
0100
0100
0010
1000
0002
0000
0013
0000
1000
0010
0001
0100
0001
0000
,  // measure 21
2010
0000
0000
0000
3020
0000
0000
0000
0031
0000
1000
1000
0100
0001
0100
0000
,  // measure 22
1000
0000
0010
0010
0100
0001
1000
0000
0002
0000
0103
0010
1000
0001
0100
0010
,  // measure 23
2000
0000
0000
0000
3001
0000
0010
0000
0110
0000
0100
1000
0001
0000
0010
0001
,  // measure 24
0200
0000
0310
1000
0002
0000
0000
0000
0013
0100
0010
0100
1000
0001
1000
0001
,  // measure 25
0010
0000
0110
0000
0100
1000
1001
0000
0101
0000
0100
0010
,  // measure 26
1010
0000
0000
0000
0000
0000
0000
0000
1100
0000
0000
0000
0000
0000
0000
0000
0101
0000
0000
0000
0000
0000
0000
0000
1100
0000
0000
0000
0000
0000
0000
0000
1000
0000
0000
0000
0001
0000
0000
0000
0000
0000
0100
0000
0000
0001
0000
0000
,  // measure 27
0010
0000
0100
1000
0001
0100
0101
0000
1010
0000
1000
0010
,  // measure 28
0001
0000
0000
0000
0000
0000
0000
0000
0101
0000
0000
0000
0000
0000
0000
0000
0100
0000
0000
0000
0010
0000
0000
0000
1000
0000
0000
0100
0000
0000
1000
0000
0000
0000
0000
0000
0001
0000
0000
0010
0000
0000
0001
0000
0000
0000
0000
0000
,  // measure 29
0100
0000
1010
0000
1000
0100
0101
0000
0011
0000
0010
0100
,  // measure 30
1100
0000
0000
0000
0000
0000
0000
0000
1001
0000
0000
0000
0000
0000
0000
0000
0101
0000
0000
0000
0000
0000
0000
0000
0110
0000
0000
0000
0000
0000
0010
0000
0000
1000
0000
0000
0100
0000
0000
0000
0000
0000
0010
0000
0000
0001
0000
0000
,  // measure 31
0200
0000
0310
1000
0100
0010
0001
0000
1001
0000
1000
0100
,  // measure 32
0110
0000
0000
0000
0000
0000
0000
0000
0011
0000
0000
0000
0000
0000
0000
0000
0010
0000
0000
0000
0100
0000
0000
0000
1000
0000
0000
0100
0000
0000
0010
0000
0000
0100
0000
0000
1000
0000
0000
0001
0000
0000
1000
0000
0000
0000
0000
0000
,  // measure 33
1001
0000
0000
0011
0000
0000
0110
0000
0110
0000
0000
1100
0000
0000
1000
0000
,  // measure 34
1010
0000
0000
0011
0000
0000
0001
0000
0200
0000
0000
0000
0310
0000
0000
0000
,  // measure 35
1001
0000
0000
1001
0000
0000
0100
0010
0100
0000
0000
0101
0000
0000
0001
0000
,  // measure 36
0011
0000
0000
1010
0000
0000
0000
0000
0001
0010
0100
1000
0001
0010
0100
1000
,  // measure 37
0001
0000
0000
0101
0000
0000
0010
1000
0100
0000
0000
0110
0000
0000
0011
0000
,  // measure 38
0011
0000
0000
0101
0000
0000
1100
0000
1000
0001
1000
0000
0010
1000
0010
0000
,  // measure 39
1001
0000
0000
0101
0000
0000
1000
0000
1001
0000
0000
0011
0000
0000
0010
0000
,  // measure 40
0220
0000
0000
0330
1000
0000
0100
0000
0001
0100
0001
0000
0100
1000
0010
0000
,  // measure 41
1000
0001
1000
0001
1000
0000
0001
0010
0001
0010
0200
0000
0300
0000
1000
0000
,  // measure 42
0001
0100
0001
0100
0010
0000
1000
0010
1000
0010
1000
0100
0010
0001
1000
0000
,  // measure 43
0100
0010
0001
1000
0100
0000
0010
0001
0100
0010
1000
0000
0000
0000
0001
0000
,  // measure 44
0100
0001
0100
0001
0010
0000
0200
0000
2300
0000
3001
0001
0100
0010
1000
0000
,  // measure 45
0100
0010
0100
1000
0100
0000
0010
0100
0010
0001
0010
0000
0100
1000
0100
0010
,  // measure 46
0100
0000
1000
0001
0010
0001
0100
0000
0001
0010
0001
1000
0100
1000
0010
1000
,  // measure 47
0002
0000
0023
0000
0130
1000
1002
0000
,  // measure 48
0103
0000
0010
0000
1010
0000
1000
0000
0001
0010
0001
0000
0100
0010
0100
0000
,  // measure 49
0010
0000
0000
1010
0000
0000
0000
0000
1001
0000
0000
0000
0001
0000
0000
0000
,  // measure 50
0110
0000
0110
0000
1000
0001
0010
0000
,  // measure 51
0002
0000
0000
0000
0000
0000
0000
0000
0000
0000
0000
0000
0000
0000
1003
0010
,  // measure 52
0100
0000
0100
0000
0001
0000
0001
0000
1000
0100
1000
0100
0010
0001
2000
0000
,  // measure 53
0000
0000
0000
3000
;
