#TITLE:Dance Celebration;
#SUBTITLE:;
#ARTIST:Bill Hamel feat. Kevens;
#TITLETRANSLIT:;
#SUBTITLETRANSLIT:;
#ARTISTTRANSLIT:;
#GENRE:;
#CREDIT:Ashura96;
#BANNER:Dance Celebration.png;
#BACKGROUND:Dance Celebration-bg.png;
#LYRICSPATH:;
#CDTITLE:./CDTITLES/DanceDanceRevolution X.png;
#MUSIC:Dance Celebration.ogg;
#OFFSET:0.000000;
#SAMPLESTART:49.740013;
#SAMPLELENGTH:15.000000;
#SELECTABLE:YES;
#DISPLAYBPM:130.000000;
#BPMS:0.000000=130.434998
,4.000000=130.000000
;
#STOPS:
;
#BGCHANGES:;
#KEYSOUNDS:;
#ATTACKS:;

//---------------dance-single - ----------------
#NOTES:
     dance-single:
     :
     Beginner:
     2:
     0.105262,0.102338,0.000000,0.000000,0.000000,72.000000,0.000000,0.000000,0.000000,0.000000,0.000000,0.105262,0.102338,0.000000,0.000000,0.000000,72.000000,0.000000,0.000000,0.000000,0.000000,0.000000:
0000
0000
0000
0000
,
0000
0000
0000
0000
,
0000
0000
0000
0000
,
0001
0000
0001
0000
,
0001
0000
0000
0000
,
0001
0000
0001
0000
,
0100
0000
0000
0000
,
0001
0000
0001
0000
,
1000
0000
0000
0000
,
0100
0000
0000
0000
,
0000
0000
0000
0000
,
1000
0000
1000
0000
,
1000
0000
0000
0000
,
1000
0000
1000
0000
,
0100
0000
0000
0000
,
1000
0000
1000
0000
,
0001
0000
0000
0000
,
1000
0000
0001
0000
,
1000
0000
0000
0000
,
0100
0000
0000
0000
,
0001
0000
0100
0000
,
0100
0000
0000
0000
,
1000
0000
0100
0000
,
0100
0000
0000
0000
,
0100
0000
0100
0000
,
0100
0000
0000
0000
,
0000
0000
0000
0000
,
0001
0000
1000
0000
,
0001
0000
0001
0000
,
1000
0000
0001
0000
,
1000
0000
1000
0000
,
0100
0000
0100
0000
,
0001
0000
1000
0000
,
0100
0000
0100
0000
,
0010
0000
0000
0000
,
1000
0000
0000
0000
,
0010
0000
0000
0000
,
0001
0000
0000
0000
,
0010
0000
0000
0000
,
1000
0000
1000
0000
,
0010
0000
0000
0000
,
0001
0000
0001
0000
,
0010
0000
0000
0000
,
1000
0000
1000
0000
,
0001
0000
0001
0000
,
1000
0000
1000
0000
,
0100
0000
0100
0000
,
0001
0000
0001
0000
,
1000
0000
1000
0000
,
0100
0000
0100
0000
,
0010
0000
0000
0000
,
0000
0000
0000
0000
;

//---------------dance-single - ----------------
#NOTES:
     dance-single:
     :
     Easy:
     5:
     0.238302,0.259684,0.133040,0.092105,0.000000,141.000000,13.000000,9.000000,0.000000,0.000000,0.000000,0.238302,0.259684,0.133040,0.092105,0.000000,141.000000,13.000000,9.000000,0.000000,0.000000,0.000000:
0000
0000
0000
0000
,
0000
0000
0000
0000
,
0000
0000
0000
0000
,
0100
0100
0000
0100
,
0001
1000
0001
0000
,
0010
0010
0000
0010
,
0001
1000
0001
0000
,
0001
0001
1000
1000
,
0001
1000
0001
0000
,
0020
0000
0000
0030
,
0200
0000
0000
0300
,
1000
1000
0000
0001
,
0010
0100
0010
0000
,
1000
1000
0000
0100
,
0001
0100
0010
0000
,
1000
1000
0000
0010
,
1000
0010
0100
0010
,
1000
1000
0001
0001
,
0100
0010
0200
0300
,
0001
0001
0001
0000
,
1000
1000
1000
0100
,
0010
0010
0010
0000
,
0100
0100
0100
1000
,
0001
0001
0100
0000
,
0010
0010
0100
0100
,
2000
0000
0000
3000
,
0002
0000
0000
0003
,
0010
0000
0010
0100
,
0100
0100
1000
0000
,
0010
0000
0010
0100
,
0100
0100
0001
0000
,
0100
0000
0100
0010
,
0010
0010
1000
0001
,
0100
0100
0000
0010
,
0010
0200
0000
0300
,
1000
1001
0000
0001
,
1000
1001
0000
0100
,
0010
0110
0000
0010
,
0100
0110
0000
0100
,
1001
0000
1000
0001
,
1001
0000
0100
0001
,
1001
0000
1000
0100
,
0220
0000
0000
0330
,
1000
1000
0001
1000
,
0010
0010
1000
0010
,
1000
1000
0100
1000
,
0001
0001
0100
0000
,
1001
0000
0100
0001
,
1001
0000
0100
1000
,
1001
1001
1001
0000
,
0200
0000
0000
0300
,
0000
0000
0000
0000
;

//---------------dance-single - ----------------
#NOTES:
     dance-single:
     :
     Medium:
     8:
     0.396196,0.363557,0.337717,0.204677,0.030702,218.000000,33.000000,20.000000,0.000000,0.000000,0.000000,0.396196,0.363557,0.337717,0.204677,0.030702,218.000000,33.000000,20.000000,0.000000,0.000000,0.000000:
0000
0000
0000
0000
,
0000
0000
0000
0000
,
0000
0000
0000
0000
,
1000
0100
0001
1100
,
0001
0100
1000
0100
0001
0000
0000
0000
,
1000
0010
0001
1010
,
1000
0010
0001
0010
1000
0000
0000
0000
,
1000
0001
0100
1001
,
1000
0001
0100
0001
1000
0000
0000
0000
,
0001
0000
0000
0001
0000
0000
1000
0000
0000
1000
0000
0000
0200
0000
0000
0000
,
0000
0000
0000
0300
,
1000
0101
0002
1003
,
0010
1000
0100
1000
0010
0000
0000
0000
,
0010
1001
2000
3010
,
0100
0010
0001
0010
0100
0000
0000
0000
,
1001
0110
0200
0301
,
1000
0001
0010
0001
1000
0000
0000
0000
,
0101
1010
0020
0130
,
0001
0100
1000
0000
0001
1000
0100
0000
,
1000
1100
1000
0101
,
1000
0100
1000
0000
1000
0100
0001
0000
,
0001
0101
0001
1100
,
0001
0100
0001
0000
0001
0100
1000
0000
,
1000
1100
1010
0110
,
0100
0010
0001
0000
0001
0010
0100
0000
,
0010
0100
0010
0100
0010
0100
0001
1000
,
0020
0000
0000
0030
,
0001
1100
2000
3001
,
0020
0001
0000
0100
0000
0001
0030
0000
,
0010
1001
0002
0013
,
0200
0010
0000
1000
0000
0010
0300
0000
,
1000
0110
0200
1300
,
0002
1000
0000
0010
0000
1000
0003
0000
,
0100
0011
0020
0130
,
2000
0100
0000
0001
0000
0100
3000
0100
,
0001
0101
0100
1100
,
1000
1010
0010
0011
,
0001
0001
0100
0000
0100
0100
1000
0000
,
1000
1000
0010
0000
0010
0010
0001
0000
,
0001
0000
1100
0000
0001
0100
1000
0000
,
0100
0000
1010
0000
0100
1000
0010
0000
,
1000
0010
0001
0000
0010
0001
0100
0000
,
0200
0000
0000
0001
0000
0000
0010
0000
0000
1000
0000
0000
0310
0000
0000
0000
,
1000
0101
0002
1003
,
0001
1100
2000
3001
,
0010
0101
0200
0310
,
0100
1010
0020
0130
,
0001
0000
1100
0000
0001
0100
1000
0000
,
0001
0000
1010
0000
0001
0010
1000
0000
,
0100
0000
1001
0000
0010
0100
0001
0000
,
0020
0000
0000
1000
0000
0000
0100
0000
0000
0001
0000
0000
0130
0000
0000
0000
,
0000
0000
0000
0000
;

//---------------dance-single - ----------------
#NOTES:
     dance-single:
     :
     Hard:
     11:
     0.545318,0.520007,0.327483,0.112572,0.291665,330.000000,32.000000,11.000000,0.000000,0.000000,0.000000,0.545318,0.520007,0.327483,0.112572,0.291665,330.000000,32.000000,11.000000,0.000000,0.000000,0.000000:
// measure 0
0000
0000
0000
0000
,  // measure 1
0000
0000
0000
0000
,  // measure 2
0000
0000
0000
0000
,  // measure 3
1000
0000
0000
1000
0010
0000
0000
0000
1000
0000
0000
1000
0010
0000
0000
0000
,  // measure 4
0001
0000
0001
0000
0100
0010
0000
1000
0000
0000
0000
0000
0000
0000
0000
0000
,  // measure 5
0010
0000
0000
0010
0001
0000
0000
0000
0100
0000
0000
0100
1000
0000
0000
0000
,  // measure 6
0001
0000
0001
0000
0100
0010
0000
1000
0000
0000
0001
0000
0010
0000
0000
0000
,  // measure 7
0100
0000
0000
0010
1000
0000
0000
0000
0100
0000
0000
0001
1000
0000
0000
0000
,  // measure 8
0100
0000
0001
0000
0100
0010
0000
1000
0000
0000
0000
0000
0000
0000
0000
0000
,  // measure 9
0010
0000
0000
1000
0000
0000
0101
0000
0000
1010
0000
0000
2002
0000
0000
0000
,  // measure 10
0000
0000
0000
3003
,  // measure 11
0011
0000
0000
0010
0100
0000
0001
0000
0100
0000
0000
0100
0010
0000
0001
0000
,  // measure 12
0100
0000
0100
0000
0001
1000
0000
0110
0000
0000
0000
0000
0000
0000
0000
0000
,  // measure 13
1010
0000
0000
0001
0100
0000
1000
0000
0100
0000
0000
0100
0001
0000
1000
0000
,  // measure 14
0100
0000
0100
0000
1000
0001
0000
0110
0000
0000
0010
0000
1000
0000
0001
0000
,  // measure 15
1001
0000
0000
0010
0100
0000
0100
0000
1000
0000
0000
0100
0010
0000
0010
0000
,  // measure 16
0001
0000
1000
0000
0001
1000
0000
1001
0000
0000
0100
0000
0010
0000
0010
0000
,  // measure 17
1100
0000
0000
0010
0001
0000
0100
0000
0010
0000
0000
0001
0100
0000
1000
0000
,  // measure 18
0001
0001
0100
0010
0001
0000
1001
0000
,  // measure 19
0010
0000
1001
0000
0100
0100
0100
0000
,  // measure 20
0001
1000
0001
0100
0010
1000
0100
0001
,  // measure 21
0100
0000
1010
0000
0001
0001
0001
0000
,  // measure 22
0100
0001
0010
0100
0001
1000
0010
0001
,  // measure 23
1000
0000
1100
0000
0010
0010
0010
0000
,  // measure 24
1000
1000
0001
0100
0010
0001
1000
0000
,  // measure 25
0001
1000
0000
0001
1000
0000
0001
1000
0000
0001
1000
0000
0001
0000
1000
0000
,  // measure 26
0210
0000
0000
0001
0000
0000
0010
0000
0000
1000
0000
0000
0310
0000
0000
0000
,  // measure 27
0001
1000
0010
0100
0001
0010
2000
0001
,  // measure 28
3001
0100
1000
0100
0002
0100
0103
0000
,  // measure 29
0010
1000
0100
1000
0010
0100
0002
1000
,  // measure 30
1003
0010
0001
0010
2000
0100
3100
0000
,  // measure 31
0110
0000
1001
0001
0100
0010
2000
0010
,  // measure 32
3001
0100
0010
0100
0020
1000
1030
0000
,  // measure 33
0001
0001
0100
0010
1000
0001
0200
0010
,  // measure 34
0301
1000
0002
0010
0010
0010
0013
0000
,  // measure 35
1000
1000
1100
0000
0001
0000
1010
0000
,  // measure 36
0100
0100
0101
0000
1000
0010
1000
0000
,  // measure 37
0100
0001
0101
0000
1000
0100
0001
0000
,  // measure 38
0010
0010
0110
0000
1010
0000
0101
0000
,  // measure 39
1000
0100
1100
0000
1000
1000
1100
0000
,  // measure 40
1000
0001
0101
0000
0010
0010
0101
0000
,  // measure 41
0101
0100
0110
0000
0100
0010
1001
0000
,  // measure 42
0010
0100
0000
0010
0100
0000
0010
0100
0000
0010
0100
0000
1001
0000
0000
0000
,  // measure 43
0010
0000
0000
1000
0010
0000
0100
0000
0001
0000
0000
1000
0001
0000
0010
0000
,  // measure 44
0100
0000
0000
0100
1000
0000
0001
0000
0100
0000
0000
0100
0001
0000
1000
0000
,  // measure 45
0010
0000
0000
1000
0100
0000
0100
0000
0010
0000
0000
0001
0100
0000
0100
0000
,  // measure 46
0010
0100
0010
0100
0001
0001
1000
1000
,  // measure 47
0010
0000
0000
1000
0100
0000
0010
0000
0001
0000
0000
0100
0010
0000
1000
0000
,  // measure 48
0001
0000
0000
1000
0100
0000
1000
0000
0001
0000
0000
0010
0001
0000
1000
0000
,  // measure 49
0001
0100
0001
0100
0001
0000
1000
0100
1000
0100
1000
0000
0010
0000
0010
0000
,  // measure 50
0100
0000
0010
1000
0000
0001
0100
0000
0010
1000
0000
0100
0010
0100
0000
0000
;

//---------------dance-single - ----------------
#NOTES:
     dance-single:
     :
     Challenge:
     12:
     0.497072,0.468006,0.214911,0.112572,0.291665,308.000000,21.000000,11.000000,104.000000,0.000000,0.000000,0.497072,0.468006,0.214911,0.112572,0.291665,308.000000,21.000000,11.000000,104.000000,0.000000,0.000000:
// measure 0
0000
0000
0000
0000
,  // measure 1
0000
0000
0000
0000
,  // measure 2
0000
0000
0000
0000
,  // measure 3
1000
0000
0000
1000
0010
0000
0000
0000
1000
0000
0000
1000
0010
0000
0000
0000
,  // measure 4
0001
0000
0001
0000
0100
0010
0000
1000
0000
0000
0000
0000
MMMM
0000
0000
0000
,  // measure 5
0010
0000
0000
0010
0001
0000
0000
0000
0100
0000
0000
0100
1000
0000
0000
0000
,  // measure 6
0001
0000
0001
0000
0100
0010
0000
1000
0000
0000
0001
0000
0010
0000
0000
0000
,  // measure 7
0100
0000
0000
0010
1000
0000
0000
0000
0100
0000
0000
0001
1000
0000
0000
0000
,  // measure 8
0100
0000
0001
0000
0100
0010
0000
1000
0000
0000
0000
0000
MMMM
0000
0000
0000
,  // measure 9
0010
0000
0000
1000
0000
0000
0101
0000
0000
1010
0000
0000
2002
0000
0000
0000
,  // measure 10
0000
0000
3003
MMMM
,  // measure 11
0011
0000
0000
0010
0100
0000
0001
0000
0100
0000
0000
0100
0010
0000
0001
0000
,  // measure 12
0100
0000
0100
0000
0001
1000
0000
0110
0000
0000
0000
0000
MMMM
0000
0000
0000
,  // measure 13
1010
0000
0000
0001
0100
0000
1000
0000
0100
0000
0000
0100
0001
0000
1000
0000
,  // measure 14
0100
0000
0100
0000
1000
0001
0000
0110
0000
0000
0010
0000
1000
0000
0001
0000
,  // measure 15
MMMM
0000
0000
0010
0100
0000
0100
0000
MMMM
0000
0000
0100
0010
0000
0010
0000
,  // measure 16
0001
0000
1000
0000
0001
1000
0000
1001
0000
0000
0100
0000
0010
0000
0010
0000
,  // measure 17
1100
0000
0000
0010
0001
0000
0100
0000
0010
0000
0000
0001
0100
0000
1000
0000
,  // measure 18
0001
0001
0100
0010
0001
0000
1001
0000
,  // measure 19
0010
0000
1001
0000
MMMM
0100
0100
0000
,  // measure 20
0001
1000
0001
0100
0010
1000
0100
0001
,  // measure 21
0100
0000
1010
0000
MMMM
0001
0001
0000
,  // measure 22
0100
0001
0010
0100
0001
1000
0010
0001
,  // measure 23
1000
0000
1100
0000
MMMM
0010
0010
0000
,  // measure 24
1000
1000
0001
0100
0010
0001
1000
0000
,  // measure 25
0001
1000
0000
0001
1000
0000
0001
1000
0000
0001
1000
0000
0001
0000
1000
0000
,  // measure 26
0210
0000
0000
0001
0000
0000
0010
0000
0000
1000
0000
0000
0310
0000
0000
0000
,  // measure 27
0001
1000
0010
0100
0001
0010
2000
0001
,  // measure 28
3001
0100
1000
0100
0002
0103
MMMM
0000
,  // measure 29
0010
1000
0100
1000
0010
0100
0002
1000
,  // measure 30
1003
0010
0001
0010
2000
3100
MMMM
0000
,  // measure 31
0110
0000
1001
0001
0100
0010
2000
0010
,  // measure 32
3001
0100
0010
0100
0020
1030
MMMM
0000
,  // measure 33
0001
0001
0100
0010
1000
0001
0200
0010
,  // measure 34
0301
1000
0002
0010
0010
0010
0013
0000
,  // measure 35
1000
1000
MMMM
0000
0001
0000
1010
0000
,  // measure 36
0100
0100
MMMM
0000
1000
0010
1000
0000
,  // measure 37
0100
0001
MMMM
0000
1000
0100
0001
0000
,  // measure 38
0010
0010
MMMM
0000
1010
0000
0101
0000
,  // measure 39
1000
0100
MMMM
0000
1000
1000
MMMM
0000
,  // measure 40
1000
0001
MMMM
0000
0010
0010
MMMM
0000
,  // measure 41
0101
0100
MMMM
0000
0100
0010
MMMM
0000
,  // measure 42
0010
0100
0000
0010
0100
0000
0010
0100
0000
0010
0100
0000
1001
0000
0000
0000
,  // measure 43
0010
0000
0000
1000
0010
0000
0100
0000
0001
0000
0000
1000
0001
0000
0010
0000
,  // measure 44
0100
0000
0000
0100
1000
0000
0001
0000
0100
0000
0000
0100
0001
0000
1000
0000
,  // measure 45
0010
0000
0000
1000
0100
0000
0100
0000
0010
0000
0000
0001
0100
0000
0100
0000
,  // measure 46
0010
0100
0010
0100
0001
0001
1000
1000
,  // measure 47
MMMM
0000
0000
1000
0100
0000
0010
0000
MMMM
0000
0000
0100
0010
0000
1000
0000
,  // measure 48
MMMM
0000
0000
1000
0100
0000
1000
0000
MMMM
0000
0000
0010
0001
0000
1000
0000
,  // measure 49
0001
0100
0001
0100
0001
0000
1000
0100
1000
0100
1000
0000
0010
0000
0010
0000
,  // measure 50
0100
0000
0010
1000
0000
0001
0100
0000
0010
1000
0000
0100
0010
0100
0000
0000
;

//---------------dance-double - ----------------
#NOTES:
     dance-double:
     :
     Easy:
     6:
     0.249998,0.233715,0.143274,0.092105,0.000000,148.000000,14.000000,9.000000,0.000000,0.000000,0.000000,0.249998,0.233715,0.143274,0.092105,0.000000,148.000000,14.000000,9.000000,0.000000,0.000000,0.000000:
00000000
00000000
00000000
00000000
,
00000000
00000000
00000000
00000000
,
00000000
00000000
00000000
00000000
,
00100000
00000000
00010000
00000000
,
00001000
00000100
00000001
00000000
,
00000010
00000000
00001000
00000000
,
00000100
00001000
00010000
00000000
,
10000000
00000000
00010000
00000000
,
00100000
00001000
00000100
00000000
,
00000010
00000001
00001000
00020000
,
00000000
00000000
00000000
00030000
,
01000000
01000000
00100000
00100000
,
10000000
00010000
00001000
00000000
,
00010000
00010000
00001000
00001000
,
00010000
00001000
00000100
00000000
,
00000010
00000010
00000100
00000100
,
00000001
00001000
00010000
00001000
,
00010000
00010000
01000000
01000000
,
10000000
00010000
20020000
30030000
,
01000000
01000000
01000000
00000000
,
01000000
00010000
00001000
00001000
,
00000100
00000100
00000100
00000000
,
00000100
00000001
00000010
00001000
,
00010000
00010000
00010000
00000000
,
00010000
01000000
10000000
01000000
,
00020000
00000000
00000000
00030000
,
00002000
00000000
00000000
00003000
,
00000110
00000000
00000110
00000000
,
00000001
00001000
00000100
00000000
,
00011000
00000000
00011000
00000000
,
00010000
10000000
01000000
00000000
,
10010000
00000000
10010000
00000000
,
00100000
00001000
00100000
01000000
,
01100000
00000000
01100000
00000000
,
00010000
00002000
00000000
00003000
,
00001000
00000100
00000001
00000100
,
00001000
00000010
00001000
00010000
,
00001000
00010000
00100000
10000000
,
00100000
00010000
10000000
01000000
,
00010000
00001000
00000010
00000001
,
00000100
00001000
00010000
01000000
,
10000000
00100000
00010000
00001000
,
00022000
00000000
00000000
00033000
,
00001000
00001000
00000100
00000001
,
00000010
00000100
00010000
00010000
,
00001000
00100000
00010000
10000000
,
01100000
00000000
10010000
00000000
,
01000000
00010000
00000010
00000100
,
00000001
00001000
00010000
01000000
,
00200000
01000000
01000000
01300000
,
10010000
00000000
00000000
00011000
,
00000000
00000000
00000000
00000000
;

//---------------dance-double - ----------------
#NOTES:
     dance-double:
     :
     Medium:
     7:
     0.331869,0.337589,0.255846,0.102338,0.061403,192.000000,25.000000,10.000000,0.000000,0.000000,0.000000,0.331869,0.337589,0.255846,0.102338,0.061403,192.000000,25.000000,10.000000,0.000000,0.000000,0.000000:
00000000
00000000
00000000
00000000
,
00000000
00000000
00000000
00000000
,
00000000
00000000
00000000
00000000
,
00000001
00000100
00001000
00000001
,
00000010
00000000
00000100
00000000
00001000
00000000
00000000
00001000
00000000
00000000
00000000
00000000
00000000
00000000
00000000
00000000
,
00010000
10000000
01000000
00010000
,
10000000
00000000
01000000
00000000
00010000
00000000
00000000
00010000
00000000
00000000
00000000
00000000
00000000
00000000
00000000
00000000
,
00000100
00000001
00000100
00000010
,
00001000
00000000
00000100
00000000
00010000
00000000
00000000
00010000
00000000
00000000
00000000
00000000
00000000
00000000
00000000
00000000
,
00000001
00000000
00000000
00000100
00000000
00000000
00001000
00000000
00000000
00010000
00000000
00000000
02000000
00000000
00000000
00000000
,
00000000
00000000
00000000
03000000
,
10000000
02000000
00000000
03010000
,
00010000
00000000
00001000
00000000
00010000
00000000
00000000
00010000
00000000
00000000
00000000
00000000
00000000
00000000
00000000
00000000
,
00000010
00000002
00000000
00000103
,
00000010
00000000
00001000
00000000
00000001
00000000
00000000
00000001
00000000
00000000
00000000
00000000
00000000
00000000
00000000
00000000
,
00001000
00000200
00000000
00010300
,
00010000
00000000
00010000
00000000
01000000
00000000
00000000
01000000
00000000
00000000
00000000
00000000
10000000
00000000
00000000
00000000
,
00010000
02000000
00000000
03001000
,
00010000
00001000
00002000
00000000
00000000
00000000
00003000
00000000
,
00000010
00000011
00000100
00001000
,
00100000
00000000
00010000
00000000
00100000
00010000
00100000
00000000
,
01000000
01100000
10000000
01000000
,
00010000
00000000
00001000
00000000
00100000
00010000
00100000
00000000
,
01000000
10010000
00100000
00001000
,
00010000
00000000
00001000
00000000
00000010
00000100
00000010
00000000
,
00000002
00000000
00000000
00000000
,
00002000
00000000
00000000
00003003
,
00000100
00010000
00001000
00000000
00010000
00000000
01000000
00000000
,
10000000
10000000
00110000
00000000
,
00100000
00001000
00010000
00000000
00000100
00000000
00000010
00000000
,
00000001
00000001
00001000
00001100
,
00000001
00000100
00001000
00000000
00010000
00000000
00100000
00000000
,
01000000
01000000
00100000
01100000
,
00010000
10000000
01000000
00000000
00010000
00000000
00001000
00000000
,
00000110
00002002
00000000
00003003
,
00000001
00000000
00000001
00000000
00001000
00001000
00000100
00000000
,
00010000
00000000
00001000
00000000
00010000
00010000
01000000
00000000
,
01000000
00000000
11000000
00000000
00100000
00001000
00001000
00000000
,
00010000
00000000
00110000
00000000
10000000
01000000
00010000
00000000
,
00001000
00000000
00000001
00000000
00001000
00000100
00000010
00000000
,
00001000
00000000
00000010
00000000
00001000
00000010
00010000
00000000
,
00001000
00100000
00010000
10010000
,
01000000
00000000
00000000
01000000
00000000
00000000
01000000
00000000
00000000
01000000
00000000
00000000
01100000
00000000
00000000
00000000
,
10100000
00000000
00010000
10010000
00000000
00000000
00000000
00000000
,
00110000
00000000
00001000
00101000
00000000
00000000
00000000
00000000
,
00001100
00000000
00000001
00000101
00000000
00000000
00000001
00000000
,
00000110
00001000
00010000
01000000
,
10100000
00000000
00010000
10000000
00010000
00000000
10010000
00000000
,
00110000
00000000
00001000
00100000
00001000
00000000
00001000
00000000
,
00001100
00000000
00000001
00000100
00000001
00000000
00000101
00000000
,
00000001
00000000
00000000
00000100
00000000
00000000
00001000
00000000
00000000
00010000
00000000
00000000
00011000
00000000
00000000
00000000
,
00000000
00000000
00000000
00000000
;

//---------------dance-double - ----------------
#NOTES:
     dance-double:
     :
     Hard:
     11:
     0.479529,0.416006,0.225145,0.081871,0.286548,298.000000,22.000000,8.000000,0.000000,0.000000,0.000000,0.479529,0.416006,0.225145,0.081871,0.286548,298.000000,22.000000,8.000000,0.000000,0.000000,0.000000:
00000000
00000000
00000000
00000000
,
00000000
00000000
00000000
00000000
,
00000000
00000000
00000000
00000000
,
00000001
00000000
00000000
00000001
00000010
00000000
00000000
00000000
00000001
00000000
00000000
00000001
00000100
00000000
00000000
00000000
,
00001000
00000000
00010000
00000000
01000000
00000000
00000000
01000000
00000000
00000000
00000000
00000000
00000000
00000000
00000000
00000000
,
00100000
00000000
00000000
00100000
10000000
00000000
00000000
00000000
00100000
00000000
00000000
00100000
00010000
00000000
00000000
00000000
,
00100000
00000000
00010000
00000000
00001000
00000000
00000000
00001000
00000000
00000000
00000000
00000000
00000000
00000000
00000000
00000000
,
00000100
00000000
00000000
00000010
00000001
00000000
00000000
00000000
00000100
00000000
00000000
00000010
00001000
00000000
00000000
00000000
,
00010000
00000000
00001000
00000000
00010000
00000000
00000000
01000000
00000000
00000000
00000000
00000000
00000000
00000000
00000000
00000000
,
10000000
00000000
00000000
10010000
00000000
00000000
01000000
00000000
00000000
01001000
00000000
00000000
00022000
00000000
00000000
00000000
,
00000000
00000000
00000000
00033000
,
00000010
00000000
00000000
00000010
00000100
00000000
00000001
00000000
00000100
00000000
00000000
00000100
00000010
00000000
00001000
00000000
,
00000100
00000000
00000100
00000000
00010000
00001000
00000000
00001000
00000000
00000000
00000000
00000000
00000000
00000000
00000000
00000000
,
00100000
00000000
00000000
00010000
01000000
00000000
10000000
00000000
01000000
00000000
00000000
01000000
00010000
00000000
10000000
00000000
,
01000000
00000000
01000000
00000000
00010000
00001000
00000000
00010000
00000000
00000000
00000000
00000000
00000010
00000000
00000100
00000000
,
00001000
00000000
00000000
00010000
00001000
00000000
00010000
00000000
01000000
00000000
00000000
01000000
10000000
00000000
00100000
00000000
,
01000000
00000000
00010000
00000000
10000000
00010000
00000000
00010000
00000000
00000000
00100000
00000000
00010000
00000000
00001000
00000000
,
00000100
00000000
00000000
00000010
00000001
00000000
00000100
00000000
00000010
00000000
00000000
00001000
00000100
00000000
00000001
00000000
,
00000100
00001000
00000100
00000010
00000001
00000100
00001000
00000000
,
00100000
00000000
10010000
00000000
01000000
01000000
01000000
00000000
,
00010000
00000000
10000000
00000000
01000000
00100000
00000000
00100000
00000000
00000000
00010000
00000000
00001000
00000000
00010000
00000000
,
00001000
00000000
00001001
00000000
00000100
00000100
00000100
00000000
,
00000001
00000000
00001000
00000000
00000010
00000100
00000000
00000100
00000000
00000000
00001000
00000000
00010000
00000000
00100000
00000000
,
10000000
00000000
11000000
00000000
00100000
00100000
00100000
00000000
,
00010000
00000000
00001000
00000000
00010000
00100000
00000000
00100000
00000000
00000000
00000000
00000000
00001000
00000000
00000000
00000000
,
00010000
00001000
00000000
00010000
00001000
00000000
00010000
00001000
00000000
00010000
00001000
00000000
00010000
00000000
00001000
00000000
,
00000200
00000000
00000000
00001000
00000000
00000000
00000010
00000000
00000000
00000001
00000000
00000000
00000310
00000000
00000000
00000000
,
00000011
00000000
00000001
00000100
00001000
00010000
00000200
00000000
,
00010300
00011000
00010000
00100000
,
10100000
00000000
01000000
10000000
00100000
01000000
00020000
00000000
,
10030000
01001000
00010000
00100000
,
01100000
00000000
10000000
00010000
01000000
00001000
00020000
00000000
,
00030100
00000000
00001100
00000000
00000010
00000000
00000001
00000100
,
00001000
00000000
00000010
00000001
00001000
00000010
00020000
00000000
,
00031000
00000000
00010000
00010000
01000000
01000000
20000000
00000000
,
30010000
00010000
00010000
00000000
00100000
00100000
00100000
00000000
,
00001000
00001000
00001000
00000000
00000100
00000100
00000100
00000000
,
00000001
00000001
00000001
00000000
00000010
00000010
00000010
00000000
,
00000100
00000100
00000100
00000000
00010000
00010000
00010000
00000000
,
00001000
00010000
00011000
00000000
00100000
10000000
10100000
00000000
,
10000000
00010000
10010000
00000000
00100000
00001000
00101000
00000000
,
00010000
00000100
00010100
00000000
00001000
00000001
00001001
00000000
,
00000100
00000000
00000000
00001100
00000000
00000000
00010000
00000000
00000000
00110000
00000000
00000000
10010000
00000000
00000000
00000000
,
00100000
00000000
00000000
10000000
00100000
00000000
01000000
00000000
00010000
00000000
00000000
00100000
00001000
00000000
00000000
00000000
,
00000100
00000000
00000000
00000100
00000001
00000000
00001000
00000000
00000100
00000000
00000000
00000100
00000010
00000000
00000000
00000000
,
00000001
00000000
00000000
00001000
00000100
00000000
00000100
00000000
00010000
00000000
00000000
00001000
01000000
00000000
00100000
00000000
,
10000000
01000000
00100000
00010000
00001000
00000100
00000010
00000001
,
00000010
00000000
00000000
00000001
00000100
00000000
00000010
00000000
00010000
00000000
00000000
00000100
00000010
00000000
00000001
00000000
,
00001000
00000000
00000000
00000100
00010000
00000000
00001000
00000000
00100000
00000000
00000000
00100000
01000000
00000000
00000000
00000000
,
10000000
00000000
00000000
10000000
01000000
00000000
00010000
00000000
00000010
00000000
00000000
00000010
00010000
00000000
00000000
00000000
,
00011000
00000000
00010000
00001000
00000000
00010000
00001000
00000000
00010000
00001000
00000000
00010000
00001000
00010000
00000000
00000000
,
00000000
00000000
00000000
00000000
;

//---------------dance-double - ----------------
#NOTES:
     dance-double:
     :
     Challenge:
     12:
     0.432745,0.416006,0.133040,0.081871,0.286548,275.000000,13.000000,8.000000,200.000000,0.000000,0.000000,0.432745,0.416006,0.133040,0.081871,0.286548,275.000000,13.000000,8.000000,200.000000,0.000000,0.000000:
00000000
00000000
00000000
00000000
,
00000000
00000000
00000000
00000000
,
00000000
00000000
00000000
00000000
,
00000001
00000000
00000000
00000001
00000010
00000000
00000000
00000000
00000001
00000000
00000000
00000001
00000100
00000000
00000000
00000000
,
00001000
00000000
00010000
00000000
01000000
00000000
00000000
01000000
00000000
00000000
00000000
00000000
MMMMMMMM
00000000
00000000
00000000
,
00100000
00000000
00000000
00100000
10000000
00000000
00000000
00000000
00100000
00000000
00000000
00100000
00010000
00000000
00000000
00000000
,
00100000
00000000
00010000
00000000
00001000
00000000
00000000
00001000
00000000
00000000
00000000
00000000
MMMMMMMM
00000000
00000000
00000000
,
00000100
00000000
00000000
00000010
00000001
00000000
00000000
00000000
00000100
00000000
00000000
00000010
00001000
00000000
00000000
00000000
,
00010000
00000000
00001000
00000000
00010000
00000000
00000000
01000000
00000000
00000000
00000000
00000000
MMMMMMMM
00000000
00000000
00000000
,
10000000
00000000
00000000
10010000
00000000
00000000
01000000
00000000
00000000
01001000
00000000
00000000
00022000
00000000
00000000
00000000
,
00000000
00000000
00000000
00033000
,
00000010
00000000
00000000
00000010
00000100
00000000
00000001
00000000
00000100
00000000
00000000
00000100
00000010
00000000
00001000
00000000
,
00000100
00000000
00000100
00000000
00010000
00001000
00000000
00001000
00000000
00000000
00000000
00000000
MMMMMMMM
00000000
00000000
00000000
,
00100000
00000000
00000000
00010000
01000000
00000000
10000000
00000000
01000000
00000000
00000000
01000000
00010000
00000000
10000000
00000000
,
01000000
00000000
01000000
00000000
00010000
00001000
00000000
00010000
00000000
00000000
00000000
00000000
00000010
00000000
00000100
00000000
,
00001000
00000000
00000000
00010000
00001000
00000000
00010000
00000000
01000000
00000000
00000000
01000000
10000000
00000000
00100000
00000000
,
01000000
00000000
00010000
00000000
10000000
00010000
00000000
00010000
00000000
00000000
00000000
00000000
MMMMMMMM
00000000
00000000
00000000
,
00000100
00000000
00000000
00000010
00000001
00000000
00000100
00000000
00000010
00000000
00000000
00001000
00000100
00000000
00000001
00000000
,
00000100
00001000
00000100
00000010
00000001
00000100
00001000
00000000
,
00100000
00000000
10010000
00000000
01000000
01000000
MMMMMMMM
00000000
,
00010000
00000000
10000000
00000000
01000000
00100000
00000000
00100000
00000000
00000000
00010000
00000000
00001000
00000000
00010000
00000000
,
00001000
00000000
00001001
00000000
00000100
00000100
MMMMMMMM
00000000
,
00000001
00000000
00001000
00000000
00000010
00000100
00000000
00000100
00000000
00000000
00001000
00000000
00010000
00000000
00100000
00000000
,
10000000
00000000
11000000
00000000
00100000
00100000
MMMMMMMM
00000000
,
00010000
00000000
00001000
00000000
00010000
00100000
00000000
00100000
00000000
00000000
00000000
00000000
00001000
00000000
00000000
00000000
,
00010000
00001000
00000000
00010000
00001000
00000000
00010000
00001000
00000000
00010000
00001000
00000000
00010000
00000000
00001000
00000000
,
00000200
00000000
00000000
00001000
00000000
00000000
00000010
00000000
00000000
00000001
00000000
00000000
00000310
00000000
00000000
00000000
,
00000011
00000000
00000001
00000100
00001000
00010000
00000200
00000000
,
00010300
MMMMMMMM
00010000
00100000
,
10100000
00000000
01000000
10000000
00100000
01000000
00020000
00000000
,
10030000
MMMMMMMM
00010000
00100000
,
01100000
00000000
10000000
00010000
01000000
00001000
00020000
00000000
,
00030100
00000000
MMMMMMMM
00000000
00000010
00000000
00000001
00000100
,
00001000
00000000
00000010
00000001
00001000
00000010
00020000
00000000
,
00031000
00000000
00010000
00010000
01000000
01000000
20000000
00000000
,
30010000
00010000
MMMMMMMM
00000000
00100000
00100000
00100000
00000000
,
00001000
00001000
MMMMMMMM
00000000
00000100
00000100
00000100
00000000
,
00000001
00000001
MMMMMMMM
00000000
00000010
00000010
00000010
00000000
,
00000100
00000100
MMMMMMMM
00000000
00010000
00010000
00010000
00000000
,
00001000
00010000
MMMMMMMM
00000000
00100000
10000000
MMMMMMMM
00000000
,
10000000
00010000
MMMMMMMM
00000000
00100000
00001000
MMMMMMMM
00000000
,
00010000
00000100
MMMMMMMM
00000000
00001000
00000001
MMMMMMMM
00000000
,
00000100
00000000
00000000
00001100
00000000
00000000
00010000
00000000
00000000
00110000
00000000
00000000
10010000
00000000
00000000
00000000
,
00100000
00000000
00000000
10000000
00100000
00000000
01000000
00000000
00010000
00000000
00000000
00100000
00001000
00000000
00000000
00000000
,
00000100
00000000
00000000
00000100
00000001
00000000
00001000
00000000
00000100
00000000
00000000
00000100
00000010
00000000
00000000
00000000
,
00000001
00000000
00000000
00001000
00000100
00000000
00000100
00000000
00010000
00000000
00000000
00001000
01000000
00000000
00100000
00000000
,
MMMMMMMM
01000000
MMMMMMMM
00010000
MMMMMMMM
00000100
MMMMMMMM
00000001
,
00000010
00000000
00000000
00000001
00000100
00000000
00000010
00000000
00010000
00000000
00000000
00000100
00000010
00000000
00000001
00000000
,
00001000
00000000
00000000
00000100
00010000
00000000
00001000
00000000
00100000
00000000
00000000
00100000
01000000
00000000
00000000
00000000
,
10000000
00000000
00000000
10000000
01000000
00000000
00010000
00000000
00000010
00000000
00000000
00000010
00010000
00000000
00000000
00000000
,
00011000
00000000
00010000
00001000
00000000
00010000
00001000
00000000
00010000
00001000
00000000
00010000
00001000
00010000
00000000
00000000
,
00000000
00000000
00000000
00000000
;

//---------------dance-single - Extreme----------------
#NOTES:
     dance-single:
     :
     Edit:
     14:
     0.751457,0.780011,0.173975,0.051169,0.961981,492.000000,17.000000,5.000000,0.000000,0.000000,0.000000,0.751457,0.780011,0.173975,0.051169,0.961981,492.000000,17.000000,5.000000,0.000000,0.000000,0.000000:
// measure 0
0000
0000
0000
0000
,  // measure 1
0000
0000
0000
0000
,  // measure 2
0000
0000
0000
0000
,  // measure 3
1001
0000
1000
0010
1000
0000
0010
0100
0000
0001
0000
0010
0001
0000
1000
0000
,  // measure 4
0010
0000
0010
0000
0100
0001
0000
1001
0000
1000
0010
0000
0100
0010
1000
0000
,  // measure 5
0001
0000
0010
0001
0100
0000
0010
1000
0000
0100
0000
0001
0100
0000
0010
0000
,  // measure 6
0001
0000
0100
0000
1000
0100
0000
0010
0000
0001
0100
0000
0010
0100
0001
0000
,  // measure 7
1000
0000
0001
1000
0010
0000
0100
0010
0000
0100
0000
0001
0010
0100
0010
0000
,  // measure 8
0001
0000
0001
0000
1000
0010
0000
1000
0000
0100
0001
0100
1000
0010
1000
0000
,  // measure 9
1001
0000
0000
0011
0000
0000
0110
0000
0000
1100
0000
0000
1001
0000
0000
0000
,  // measure 10
0110
0000
0001
1000
0001
1000
0001
1000
0001
1000
0001
1000
0002
0000
0000
0000
,  // measure 11
0103
0000
0010
1000
0100
0000
0001
0000
0100
1000
0010
0000
0100
0000
0001
0000
,  // measure 12
0010
0000
0010
0000
0001
1000
0000
0010
0000
1000
0100
0010
0100
1000
0001
1000
,  // measure 13
0010
0000
0100
0000
0001
0100
0000
0001
1000
0001
0000
1000
0010
0000
1000
0000
,  // measure 14
0100
0000
1000
0000
0010
0000
0001
0000
0010
1000
0001
0000
0100
0001
0010
0000
,  // measure 15
0100
0000
1000
0001
0010
0000
0001
0000
0100
0010
0000
0000
1000
0000
0010
0000
,  // measure 16
0001
0000
0010
0000
1000
0100
1000
0100
0000
0010
0001
0100
0010
0100
0001
0010
,  // measure 17
0100
0000
0000
1000
0010
0000
1000
0000
0001
0100
0001
0000
0010
0000
1000
0000
,  // measure 18
0010
0000
0000
0000
0000
0000
0001
0000
0000
0000
0000
0000
1000
0000
0000
0001
0000
0000
1000
0000
0000
0000
0000
0000
0001
0000
0000
0100
0000
0000
0010
0000
0000
0100
0000
0000
0001
0000
0000
0000
0010
0000
0000
0000
0100
0000
0000
0000
,  // measure 19
1000
0000
0000
0000
0000
0000
0000
0000
0001
0000
0000
0000
0100
0000
0000
0000
0001
0000
0000
0000
0100
0000
0000
0000
0000
0000
0000
0010
0000
0000
1000
0000
0000
0100
0000
0000
1000
0000
0000
0000
0000
0000
0000
0000
0000
0000
0000
0000
,  // measure 20
0001
0000
0100
0000
0010
0100
0000
0001
0000
1000
0010
1000
0100
0000
0010
0000
,  // measure 21
0001
0000
0100
0000
0001
0010
0000
0100
1000
0010
1000
0000
0001
0000
0100
0010
,  // measure 22
0100
0000
0000
0101
0000
0000
0001
0000
1000
0000
0000
1000
0010
0000
0100
0000
,  // measure 23
0001
0000
0010
0000
0011
0000
0000
1000
0000
0001
0100
0001
0000
0010
0000
0000
,  // measure 24
0110
0000
1100
0000
1000
0001
0000
0101
0000
1000
0001
0100
0001
1000
0010
0000
,  // measure 25
0100
0001
0100
0001
1000
0010
1000
0010
1000
0100
1000
0100
0010
0001
0010
0001
,  // measure 26
0100
0000
0000
0110
0000
0000
1010
0000
0000
1000
0100
1000
0100
0000
0010
0000
,  // measure 27
0001
0100
0001
0100
0001
0000
1000
0010
1000
0000
0010
0000
0100
0000
0001
0010
,  // measure 28
0001
0000
1000
0000
0010
1000
0000
0000
0001
0100
0010
0000
0100
0001
0000
0000
,  // measure 29
0010
0100
0000
1000
0010
0000
0100
0000
0001
0000
0010
0000
0001
0000
1000
0000
,  // measure 30
0010
0000
0100
0000
0010
1000
0001
0000
1000
0001
0000
0100
0001
0010
0100
0000
,  // measure 31
1000
0001
0000
1000
0020
0000
0000
0000
0130
0000
0001
0000
0020
0000
0000
0000
,  // measure 32
0130
0000
1000
0000
0200
0000
0000
0000
0310
1000
0000
0010
0001
0000
0100
0000
,  // measure 33
0010
1000
0010
0000
0100
0000
0001
0000
0010
0000
0100
1000
0200
0000
1000
0000
,  // measure 34
0301
0000
0010
0000
0001
0100
0001
0100
0001
0100
0001
0100
0001
0100
0001
0100
,  // measure 35
0001
0000
0010
0000
1010
0000
0000
0010
0001
0000
0001
0000
0100
0000
0000
0000
,  // measure 36
0010
0000
1000
0000
0100
0010
0000
0001
1000
0001
0100
0001
0100
0010
0100
0000
,  // measure 37
0001
0000
1000
0000
0001
0000
1000
0010
1000
0000
0010
0100
0010
0000
0000
0000
,  // measure 38
0100
0000
0001
0000
0010
0000
0100
1000
0100
0000
1000
0000
0010
0100
0001
0000
,  // measure 39
0100
0000
0100
0000
1010
0000
0000
0001
0100
0000
0010
0100
0000
0010
0000
0000
,  // measure 40
1000
0000
0001
0000
0010
0001
0000
0000
0100
0000
0010
1000
0001
1000
0010
0000
,  // measure 41
0100
0000
0001
0000
0010
0000
0100
1000
0001
0000
0100
0001
0000
0010
0000
0000
,  // measure 42
0100
0010
0100
0010
0100
0010
0100
0010
0100
0010
0100
0010
0100
0000
0001
1000
,  // measure 43
0001
0010
0000
0100
1000
0000
0010
0100
0000
0001
0100
0000
0010
0000
1000
0000
,  // measure 44
0001
0010
0000
0100
0010
0000
0001
1000
0000
0010
1000
0000
0100
0010
0001
0000
,  // measure 45
1000
0010
0000
0001
0010
0000
0100
0010
0000
0001
0010
0000
1000
0000
0100
0000
,  // measure 46
0001
0010
0000
0100
0001
0000
1000
0001
0000
0100
0010
0000
0001
1000
0001
0000
,  // measure 47
0010
0100
0000
1000
0001
0000
0100
0001
0000
1000
0001
0000
0100
0010
1000
0000
,  // measure 48
0001
0100
0000
0001
0010
0000
0100
1000
0000
0010
1000
0000
0010
0100
0001
0000
,  // measure 49
0100
0010
0100
0010
0100
0010
0100
0010
0000
1000
0010
1000
0010
0000
0100
0000
,  // measure 50
0001
0010
1000
0010
0000
0001
0100
0000
0010
1000
0000
0100
0010
0001
0000
0000
;
