#TITLE:DANCE ALL NIGHT (DDR EDITION);
#SUBTITLE:;
#ARTIST:Sota Fujimori;
#TITLETRANSLIT:;
#SUBTITLETRANSLIT:;
#ARTISTTRANSLIT:;
#GENRE:;
#CREDIT:;
#BANNER:DANCE ALL NIGHT (DDR EDITION).png;
#BACKGROUND:DANCE ALL NIGHT (DDR EDITION)-bg.png;
#LYRICSPATH:;
#CDTITLE:;
#MUSIC:DANCE ALL NIGHT (DDR EDITION).ogg;
#OFFSET:0.000000;
#SAMPLESTART:86.667000;
#SAMPLELENGTH:15.000000;
#SELECTABLE:YES;
#BPMS:0.000000=144.000000
;
#STOPS:
;
#BGCHANGES:;
#KEYSOUNDS:;
#ATTACKS:;

//---------------dance-single - ----------------
#NOTES:
     dance-single:
     :
     Hard:
     10:
     0.406825,0.500488,0.152240,0.197016,0.049254,318.000000,301.000000,17.000000,22.000000,0.000000,0.000000,0.406825,0.500488,0.152240,0.197016,0.049254,318.000000,301.000000,17.000000,22.000000,0.000000,0.000000:
// measure 0
0000
0000
0000
0000
,  // measure 1
0000
0000
0000
0000
,  // measure 2
0000
0000
0000
0000
,  // measure 3
0000
0000
0000
0000
,  // measure 4
0100
0000
0000
0000
1000
0000
0100
0000
0010
0000
0000
0001
0000
0000
1000
0000
,  // measure 5
0010
1000
0001
0100
0000
0000
0000
0000
,  // measure 6
0010
0000
1000
0010
0100
0001
0000
1000
,  // measure 7
0001
0010
0100
1000
0000
0000
0000
0000
,  // measure 8
0100
0000
0000
0000
1000
0000
0100
0000
0010
0000
0000
0001
0000
0000
1000
0000
,  // measure 9
0010
1000
0001
0100
0000
0000
0000
0000
,  // measure 10
0010
0000
0000
0000
1000
0000
0000
0001
1000
0000
0100
0000
0010
0000
0000
0000
,  // measure 11
0001
0000
0000
0000
0100
0000
0000
0001
0200
0000
0000
0000
0310
0000
0000
0000
,  // measure 12
1000
0000
0100
0000
1000
0000
0000
0001
0010
0000
0100
0000
1000
0000
0001
0000
,  // measure 13
0100
0001
0100
0001
1000
0010
1000
0010
,  // measure 14
0100
0000
0000
0000
0001
0000
0000
1000
0001
0000
0100
0000
0010
0000
0000
0000
,  // measure 15
1000
0000
0000
0000
0100
0000
0000
1000
0200
0000
0000
0000
0310
0000
0000
0000
,  // measure 16
0001
0000
0100
0000
0001
0000
0000
1000
0010
0000
0100
0000
0001
0000
1000
0000
,  // measure 17
0100
1000
0100
1000
0001
0010
0001
0010
,  // measure 18
0200
0000
0000
0000
0000
0010
0300
0001
,  // measure 19
2000
0000
0000
0000
0000
0010
3000
0000
,  // measure 20
0200
0000
0000
0001
0000
0000
0300
0010
,  // measure 21
2000
0000
0000
3000
,  // measure 22
0002
0000
0000
0000
0100
0000
0000
0000
0010
0000
0000
0000
0100
0003
0000
0000
,  // measure 23
0020
1000
0100
1030
,  // measure 24
0200
0010
1000
0310
,  // measure 25
0002
0100
1000
0103
,  // measure 26
2000
0000
0000
3000
0020
0000
0000
0030
,  // measure 27
0200
0000
0000
0300
0001
0000
1001
0000
,  // measure 28
1000
0101
1000
0101
,  // measure 29
0010
1100
0010
1100
,  // measure 30
0001
0010
0001
0000
1000
0100
1000
0000
,  // measure 31
0001
0010
0001
0010
0100
1000
0001
0000
,  // measure 32
1000
0011
1000
0011
,  // measure 33
0100
1010
0100
1010
,  // measure 34
0001
0100
0001
0000
1000
0010
1000
0000
,  // measure 35
0001
0100
0001
0100
0010
1000
0001
0000
,  // measure 36
1000
0010
1000
0010
1000
0001
0100
0010
,  // measure 37
0000
0000
0000
0000
,  // measure 38
1000
0100
1000
0100
0010
0001
1000
0000
,  // measure 39
0100
0010
0100
0010
0002
0000
1003
0000
,  // measure 40
0000
0100
0010
0001
0010
0100
1000
0010
,  // measure 41
0000
0000
0000
0000
,  // measure 42
1000
0010
0100
0000
0001
0010
0100
0000
,  // measure 43
1000
0001
1000
0001
2000
0000
3100
0000
,  // measure 44
0020
0030
0200
0300
,  // measure 45
1000
0000
0001
0100
0000
0010
0000
0000
,  // measure 46
1000
0001
0100
0000
0000
0010
1000
0010
,  // measure 47
0000
0100
0001
1000
0000
0010
1000
0000
,  // measure 48
0002
0003
2000
3000
,  // measure 49
0010
0000
1000
0001
0000
0010
0000
0000
,  // measure 50
0100
1000
0010
0000
0000
1000
0010
1000
,  // measure 51
0000
0001
0010
0100
0000
1000
0001
0000
,  // measure 52
1000
0101
1000
0101
,  // measure 53
0010
1100
0010
1100
,  // measure 54
0001
0010
0001
0000
1000
0100
1000
0000
,  // measure 55
0001
0010
0001
0010
0100
1000
0001
0000
,  // measure 56
1000
0011
1000
0011
,  // measure 57
0100
1010
0100
1010
,  // measure 58
0001
0100
0001
0000
1000
0010
1000
0000
,  // measure 59
0001
0100
0001
0100
0010
1000
0001
0000
,  // measure 60
0010
0000
0000
0000
0001
0000
0000
1000
0001
0000
0100
0000
0010
0000
0000
0000
,  // measure 61
1000
0000
0000
0000
0100
0000
0000
1000
0200
0000
0000
0000
0310
0000
0000
0000
,  // measure 62
0001
0000
0100
0000
0001
0000
0000
1000
0010
0000
0100
0000
0001
0000
0010
0000
,  // measure 63
0100
1000
0100
1000
0001
0010
0001
0010
,  // measure 64
0200
0000
0000
0300
,  // measure 65
2000
0000
0000
3000
;

//---------------dance-single - ----------------
#NOTES:
     dance-single:
     :
     Beginner:
     1:
     0.094670,0.142725,0.017911,0.000000,0.000000,74.000000,72.000000,2.000000,0.000000,0.000000,0.000000,0.094670,0.142725,0.017911,0.000000,0.000000,74.000000,72.000000,2.000000,0.000000,0.000000,0.000000:
0000
0000
0000
0000
,
0000
0000
0000
0000
,
0000
0000
0000
0000
,
0000
0000
0000
0000
,
0001
0000
0000
0000
,
0001
0000
0000
0000
,
1000
0000
0000
0000
,
1000
0000
0000
0000
,
0001
0000
0000
0000
,
0001
0000
0000
0000
,
0000
0000
0000
0010
,
0000
0000
0000
0100
,
0000
0000
0000
0001
,
0000
0000
0000
1000
,
0000
0000
0000
0010
,
0000
0000
0000
0100
,
0000
0000
0000
0001
,
0000
0000
0000
1000
,
0000
0010
0000
0000
,
0000
0001
0000
0000
,
0000
0100
0000
0000
,
0000
1000
0000
0000
,
0000
0010
0000
0010
,
0000
0001
0000
0001
,
0000
0100
0000
0100
,
0000
1000
0000
1000
,
0000
0000
0000
0000
,
0000
0000
0000
0000
,
0001
0000
0001
0000
,
0100
0000
0100
0000
,
0001
0000
0100
0000
,
1000
0000
0010
0000
,
1000
0000
1000
0000
,
0010
0000
0010
0000
,
1000
0000
0010
0000
,
0000
0000
0000
1001
,
0000
0000
0000
0000
,
0000
0000
0000
0000
,
0000
0000
0000
0000
,
0000
0000
0010
0010
,
0000
0000
0000
0000
,
0000
0000
0000
0000
,
0000
0000
0000
0000
,
0000
0000
0100
0100
,
0000
0000
0000
0000
,
0010
0000
0100
0000
,
0000
0000
0000
0000
,
0001
0000
1000
0000
,
0000
0000
0000
0000
,
0010
0000
1000
0000
,
0000
0000
0000
0000
,
0001
0000
0100
0000
,
0001
0000
0001
0000
,
0100
0000
0100
0000
,
0001
0000
0100
0000
,
1000
0000
0010
0000
,
1000
0000
1000
0000
,
0010
0000
0010
0000
,
1000
0000
0010
0000
,
0000
0000
0000
1001
,
0000
0000
0000
0010
,
0000
0000
0000
0100
,
0000
0000
0000
0001
,
0000
0000
0000
1000
;

//---------------dance-single - ----------------
#NOTES:
     dance-single:
     :
     Easy:
     5:
     0.223882,0.265972,0.080597,0.053732,0.000000,175.000000,166.000000,9.000000,6.000000,0.000000,0.000000,0.223882,0.265972,0.080597,0.053732,0.000000,175.000000,166.000000,9.000000,6.000000,0.000000,0.000000:
0000
0000
0000
0000
,
0000
0000
0000
0000
,
0000
0000
0000
0000
,
0000
0000
0000
0000
,
0001
0000
0100
0000
,
0001
0100
0010
0000
,
1000
0000
0001
0000
,
1000
0001
0100
0000
,
0010
0000
1000
0000
,
0010
1000
0001
0000
,
0000
0000
0000
1001
,
0000
0000
0000
0110
,
0000
0000
0000
1001
,
0000
0000
0010
0100
,
0000
0001
0000
1001
,
0000
0010
0000
0110
,
0000
1000
0000
1001
,
0000
0100
0001
1000
,
0000
0010
0000
0010
,
0000
0001
0000
0001
,
0000
0100
0000
0100
,
0000
1000
0000
1000
,
0000
0010
0100
0010
,
0000
1000
0001
1000
,
0000
0100
0010
0100
,
0000
1000
0001
1000
,
0000
0000
0010
0000
,
0000
0000
0000
0100
,
0001
0001
0001
0010
,
0100
0100
0100
1000
,
0001
0010
0100
1000
,
0010
0100
0001
0000
,
1000
1000
1000
0100
,
0010
0010
0010
0001
,
1000
0100
0010
0001
,
0100
0010
1000
0000
,
0000
0001
0010
0001
,
0000
1000
0100
1000
,
0000
0010
1000
0010
,
0100
0001
0100
0010
,
0000
1000
0010
1000
,
0000
0001
0100
0001
,
0000
0100
0010
0100
,
0001
0010
0100
1000
,
0002
0000
1000
0003
,
0010
0000
0100
0000
,
2000
0000
0010
3000
,
0001
0010
0001
1000
,
0200
0000
1000
0300
,
0010
0000
0001
0000
,
0020
0000
0001
0030
,
0001
1000
0100
0000
,
1000
1000
1000
0100
,
0010
0010
0010
0001
,
1000
0100
0010
0001
,
0100
0010
1000
0000
,
0001
0001
0001
0010
,
0100
0100
0100
1000
,
0001
0010
0100
1000
,
0010
0100
0001
0000
,
0000
0010
0000
1001
,
0000
0100
0000
1001
,
0000
0001
0000
0110
,
0000
0000
0001
1000
,
0002
0000
0000
0000
,
2003
0000
0000
0000
,
3000
0000
0000
0000
;

//---------------dance-single - ----------------
#NOTES:
     dance-single:
     :
     Medium:
     8:
     0.328787,0.382726,0.008955,0.107463,0.000000,257.000000,256.000000,1.000000,12.000000,0.000000,0.000000,0.328787,0.382726,0.008955,0.107463,0.000000,257.000000,256.000000,1.000000,12.000000,0.000000,0.000000:
0000
0000
0000
0000
,
0000
0000
0000
0000
,
0000
0000
0000
0000
,
0000
0000
0000
0000
,
1000
0001
0010
0100
,
1000
0100
0010
0001
0000
0000
0000
0000
,
0001
1000
0010
0100
,
0001
0010
0100
1000
0000
0000
0000
0000
,
1000
0001
0010
0100
,
1000
0100
0010
0001
0000
0000
0000
0000
,
1000
0000
0100
0000
1000
0100
0010
0000
,
0001
0100
0010
1000
,
0001
0100
0001
0000
0010
0100
1000
0000
,
0010
1000
0010
0000
1000
0000
0100
0000
,
1000
0000
0010
0000
1000
0100
0010
0000
,
0001
0100
0010
1000
,
0001
0100
0001
0000
0010
0001
1000
0000
,
0010
1000
0010
0000
0100
0001
1000
0000
,
0010
0000
0000
0000
0000
0100
0000
0001
,
1000
0000
0000
0000
0000
0010
0000
0000
,
0100
0000
0000
0001
0000
0000
0000
0010
,
0100
0000
0000
1000
0000
0000
0000
0000
,
0002
0100
0000
0103
,
0020
1000
0000
1030
,
0200
0010
0000
0310
,
0002
0100
0000
0103
,
0020
0000
2030
0000
,
3002
0000
1003
1001
,
0001
0001
0001
0010
,
0100
0100
0100
1000
,
0001
0010
0001
0000
1000
0100
1000
0000
,
0001
0010
0100
0000
1000
0010
0100
0000
,
0001
0001
0001
0100
,
0010
0010
0010
1000
,
0001
0010
0001
0000
1000
0100
1000
0000
,
0001
0010
0100
0000
1000
0010
0100
0000
,
0001
0000
0001
0000
0001
1000
0100
0000
,
0000
0000
0000
0000
,
1000
0000
1000
0000
0010
1000
0100
0000
,
0010
0001
0010
0001
0100
0000
0010
0000
,
1000
0000
1000
0000
1000
0001
0100
0000
,
0000
0000
0000
0000
,
0001
0000
0001
0000
0010
0001
0100
0000
,
0010
1000
0010
1000
0100
0000
0010
0000
,
0002
0000
1000
0003
,
1000
0000
0010
0100
0000
0010
0000
0000
,
1000
1000
0010
0010
,
0100
0000
0100
0000
0001
1000
0001
0000
,
2000
0000
0001
3000
,
0001
0000
0010
0100
0000
0010
0000
0000
,
0001
0001
0010
0010
,
0100
0000
0100
0000
1000
0001
1000
0000
,
0001
0001
0001
0010
,
0100
0100
0100
1000
,
0001
0010
0001
0000
1000
0100
1000
0000
,
0001
0010
0100
0000
1000
0010
0100
0000
,
0001
0001
0001
0100
,
0010
0010
0010
1000
,
0001
0010
0001
0000
1000
0100
1000
0000
,
0001
0010
0100
0000
1000
0010
0100
0000
,
0001
0000
0100
0000
0010
1000
0100
0000
,
1000
0100
0020
0130
,
1000
0000
0100
0000
0010
0001
0100
0000
,
0010
0100
0010
0100
0001
0000
1000
0000
,
0020
0000
0000
0030
,
0200
0000
0000
0300
;

//---------------dance-double - ----------------
#NOTES:
     dance-double:
     :
     Easy:
     5:
     0.226441,0.265972,0.080597,0.053732,0.000000,177.000000,168.000000,9.000000,6.000000,0.000000,0.000000,0.226441,0.265972,0.080597,0.053732,0.000000,177.000000,168.000000,9.000000,6.000000,0.000000,0.000000:
00000000
00000000
00000000
00000000
,
00000000
00000000
00000000
00000000
,
00000000
00000000
00000000
00000000
,
00000000
00000000
00000000
00000000
,
00000010
00000000
00000001
00000000
,
00000010
00001000
00010000
00000000
,
00100000
00000000
10000000
00000000
,
01000000
00010000
00001000
00000000
,
00000010
00000000
00000001
00000000
,
00000100
00001000
00010000
00000000
,
00000000
00000000
00000000
01100000
,
00000000
00000000
00000000
00011000
,
00000000
00000000
00000000
00000110
,
00000000
00000000
00000001
00000100
,
00000000
00001000
00000000
00011000
,
00000000
00100000
00000000
01100000
,
00000000
00010000
00000000
00011000
,
00000000
00000010
00000001
00000100
,
00000000
00001000
00000000
00001000
,
00000000
00010000
00000000
00010000
,
00000000
00100000
00000000
00100000
,
00000000
00010000
00000000
00010000
,
00000000
00001000
00000010
00000001
,
00000000
00000100
00001000
00010000
,
00000000
00001000
00010000
00100000
,
00000000
10000000
01000000
00010000
,
00000000
00000000
00001000
00000000
,
00000000
00000000
00000000
00010000
,
00001000
00001000
00001000
00000010
,
00000001
00000001
00000001
00000100
,
00001000
00010000
00100000
10000000
,
01000000
00010000
00001000
00000000
,
00010000
00010000
00010000
00100000
,
10000000
10000000
10000000
01000000
,
00010000
00001000
00000010
00000001
,
00000100
00001000
00010000
00000000
,
00000000
00100000
01000000
00100000
,
00000000
10000000
01000000
00010000
,
00000000
00001000
00000010
00000001
,
00000100
00000001
00000100
00001000
,
00010000
01000000
00100000
01000000
,
00000000
10000000
00100000
00010000
,
00000000
00001000
00000100
00000001
,
00000010
00000001
00000010
00001000
,
00020000
00000000
00001000
00030000
,
00100000
00000000
00010000
00000000
,
00002000
00000000
00010000
00003000
,
00000010
00000001
00000100
00001000
,
00020000
00000000
00001000
00030000
,
01000000
00000000
00010000
00000000
,
00002000
00000000
00010000
00003000
,
00000100
00000001
00000010
00001000
,
00010000
00010000
00010000
00100000
,
10000000
10000000
10000000
01000000
,
00010000
00001000
00000010
00000001
,
00000100
00001000
00010000
00000000
,
00001000
00001000
00001000
00000010
,
00000001
00000001
00000001
00000100
,
00001000
00010000
00100000
10000000
,
01000000
00010000
00001000
00000000
,
00000000
00000010
00000000
00001001
,
00000000
00000100
00000000
00011000
,
00000000
00100000
00000000
10010000
,
00000000
00000000
00100000
01000000
,
00020000
00000000
00000000
00000000
,
20030000
00000000
00000000
00000000
,
30000000
00000000
00000000
00000000
;

//---------------dance-double - ----------------
#NOTES:
     dance-double:
     :
     Medium:
     8:
     0.330066,0.382726,0.017911,0.098508,0.000000,258.000000,256.000000,2.000000,11.000000,0.000000,0.000000,0.330066,0.382726,0.017911,0.098508,0.000000,258.000000,256.000000,2.000000,11.000000,0.000000,0.000000:
00000000
00000000
00000000
00000000
,
00000000
00000000
00000000
00000000
,
00000000
00000000
00000000
00000000
,
00000000
00000000
00000000
00000000
,
00000001
00001000
00000010
00000100
,
00001000
00010000
00100000
10000000
00000000
00000000
00000000
00000000
,
00100000
10000000
00010000
01000000
,
00100000
00010000
00001000
00000010
00000000
00000000
00000000
00000000
,
00000001
00001000
00000010
00000100
,
00001000
00010000
00100000
01000000
00000000
00000000
00000000
00000000
,
00010000
00000000
10000000
00000000
00100000
01000000
00010000
00000000
,
00100000
01000000
00010000
00001000
,
00000010
00000001
00000010
00000000
00000100
00001000
00000100
00000000
,
00000010
00000001
00000100
00000000
00001000
00000000
00010000
00000000
,
00100000
00000000
10000000
00000000
00010000
01000000
00100000
00000000
,
10000000
01000000
00010000
00001000
,
00000100
00000001
00000100
00000000
00000010
00001000
00000010
00000000
,
00001000
00000001
00000100
00000000
00001000
00000000
00010000
00000000
,
00100000
00000000
00000000
00000000
00000000
01000000
00000000
00010000
,
10000000
00000000
00000000
00000000
00000000
00100000
00000000
00000000
,
00010000
00000000
00000000
00001000
00000000
00000000
00000000
00000010
,
00000001
00000000
00000000
00000100
00000000
00000000
00000000
00000000
,
00002000
00100000
00000000
00103000
,
00020000
10000000
00000000
10030000
,
00200000
01000000
00000000
01300000
,
00002000
00010000
00000000
00013000
,
00200000
00000000
02300000
00000000
,
03020000
00000000
00130000
00011000
,
00000010
00000001
00000010
00000100
,
00001000
00000001
00001000
00000010
,
00000100
00001000
00010000
00000000
00100000
10000000
01000000
00000000
,
00100000
00010000
01000000
00000000
00100000
00010000
00001000
00000000
,
00000010
00000001
00000010
00000100
,
00001000
00000001
00001000
00000010
,
00000100
00001000
00010000
00000000
00100000
10000000
01000000
00000000
,
00100000
00010000
01000000
00000000
00100000
00010000
00001000
00000000
,
00000010
00000000
00000010
00000000
00000001
00000100
00001000
00000000
,
00000000
00000000
00000000
00000000
,
00010000
00000000
00100000
00000000
10000000
01000000
00010000
00000000
,
00001000
00010000
00001000
00010000
00000010
00000000
00001000
00000000
,
00000001
00000000
00000001
00000000
00000100
00001000
00010000
00000000
,
00000000
00000000
00000000
00000000
,
00100000
00000000
01000000
00000000
00010000
10000000
00100000
00000000
,
00010000
00001000
00010000
00001000
00000010
00000000
00000001
00000000
,
00002000
00000000
00000100
00003000
,
00000001
00000000
00000100
00001000
00000000
00010000
00000000
00000000
,
00100000
00100000
10000000
10000000
,
00010000
00000000
00010000
00000000
01000000
00100000
00010000
00000000
,
00002000
00000000
00010000
00003000
,
00100000
00000000
01000000
00010000
00000000
00001000
00000000
00000000
,
00000010
00000010
00000001
00000001
,
00000010
00000000
00000001
00000000
00000100
00001000
00010000
00000000
,
00100000
10000000
00100000
01000000
,
00010000
10000000
00010000
00100000
,
01000000
00010000
00001000
00000000
00000010
00000001
00000100
00000000
,
00000010
00001000
00000100
00000000
00000010
00001000
00010000
00000000
,
00100000
10000000
00100000
01000000
,
00010000
10000000
00010000
00100000
,
01000000
00010000
00001000
00000000
00000010
00000001
00000100
00000000
,
00000010
00001000
00000100
00000000
00000010
00001000
00010000
00000000
,
00100000
00000000
00100000
00000000
01000000
00010000
10000000
00000000
,
01000000
00000000
01000000
00000000
10000000
00100000
00010000
00000000
,
00001000
00000000
00010000
00000000
00001000
00000010
00000001
00000000
,
00001000
00000100
00001000
00000010
00000100
00000000
00001001
00000000
,
00000020
00000000
00000000
00000030
,
00000200
00000000
00000000
00000300
;

//---------------dance-double - ----------------
#NOTES:
     dance-double:
     :
     Hard:
     10:
     0.391474,0.471048,0.116419,0.197016,0.049254,306.000000,293.000000,13.000000,22.000000,0.000000,0.000000,0.391474,0.471048,0.116419,0.197016,0.049254,306.000000,293.000000,13.000000,22.000000,0.000000,0.000000:
00000000
00000000
00000000
00000000
,
00000000
00000000
00000000
00000000
,
00000000
00000000
00000000
00000000
,
00000000
00000000
00000000
00000000
,
00000001
00000000
00000000
00000000
00001000
00000000
00000001
00000000
00000010
00000000
00000000
00000001
00000000
00000000
00000100
00000000
,
00000001
00000010
00001000
00010000
00000000
00000000
00000000
00000000
,
00100000
00000000
10000000
01000000
00010000
01000000
00000000
10000000
,
01000000
00010000
00001000
00000100
00000000
00000000
00000000
00000000
,
00000001
00000000
00000000
00000000
00001000
00000000
00000001
00000000
00000010
00000000
00000000
00000001
00000000
00000000
00000100
00000000
,
00000001
00000010
00001000
00010000
00000000
00000000
00000000
00000000
,
00100000
00000000
00000000
00000000
10000000
00000000
00000000
00010000
01000000
00000000
00010000
00000000
00100000
00000000
00000000
00000000
,
00010000
00000000
00000000
00000000
01000000
00000000
00000000
00100000
00020000
00000000
00000000
00000000
00031000
00000000
00000000
00000000
,
00000100
00000000
00000001
00000000
00000100
00000000
00000000
00000001
00000010
00000000
00000100
00000000
00000010
00000000
00000000
00000000
,
00000001
00000100
00000001
00000100
00001000
00010000
00001000
00010000
,
00100000
00000000
00000000
00000000
10000000
00000000
00000000
00010000
01000000
00000000
00100000
00000000
01000000
00000000
00000000
00000000
,
00010000
00000000
00000000
00000000
00100000
00000000
00000000
01000000
00020000
00000000
00000000
00000000
00031000
00000000
00000000
00000000
,
00000100
00000000
00000001
00000000
00000100
00000000
00000000
00000001
00000010
00000000
00000100
00000000
00000010
00000000
00000000
00000000
,
00000001
00000100
00000001
00000100
00001000
00010000
00001000
00010000
,
00200000
00000000
00000000
00000000
00000000
10000000
00300000
01000000
,
00020000
00000000
00000000
00000000
00000000
00100000
00030000
00000000
,
00002000
00000000
00000000
00000000
00000000
00000000
00003000
00000010
,
00000002
00000000
00000000
00000003
,
00000020
00000001
00000100
00000031
,
00002000
00000010
00000001
00003010
,
00020000
00001000
00000100
00031000
,
00200000
01000000
00010000
01300000
,
20000000
00000000
00000000
30000000
00200000
00000000
00000000
00300000
,
00020000
00000000
00000000
00030000
00001000
00000000
00011000
00000000
,
00000010
00000001
00000100
00000101
,
00000010
00001000
00000100
00001100
,
00000001
00000100
00001000
00000000
00010000
01000000
10000000
00000000
,
00100000
01000000
00010000
00000000
10000000
01000000
00010000
00000000
,
00001000
00000010
00000001
00000011
,
00000100
00001000
00000010
00001010
,
00000001
00000010
00001000
00000000
00010000
00100000
10000000
00000000
,
01000000
00100000
00010000
00000000
10000000
00100000
00010000
00000000
,
00001000
00000010
00000001
00000100
00000010
00000100
00001000
00010000
,
00000000
00000000
00000000
00000000
,
00100000
10000000
00100000
10000000
00010000
00100000
01000000
00000000
,
00010000
00001000
00010000
00001000
00000020
00000000
00000130
00000000
,
00000000
00000001
00000100
00001000
00010000
00001000
00010000
00100000
,
00000000
00000000
00000000
00000000
,
10000000
01000000
10000000
00000000
00100000
01000000
00010000
00000000
,
00100000
01000000
00100000
01000000
20000000
00000000
31000000
00000000
,
00020000
00030000
00002000
00003000
,
00000010
00000000
00000001
00000100
00000000
00000010
00000000
00000000
,
00000100
00001000
00010000
00000000
00000000
00100000
01000000
00100000
,
00000000
00010000
00001000
00010000
00000000
00100000
00010000
00000000
,
00002000
00003000
00020000
00030000
,
00100000
00000000
10000000
01000000
00000000
00100000
00000000
00000000
,
01000000
10000000
00010000
00000000
00000000
10000000
00100000
01000000
,
00000000
00010000
00100000
01000000
00000000
00010000
00001000
00000000
,
00000010
00000011
00000100
00000101
,
00000010
00001010
00000100
00001100
,
00000001
00000100
00001000
00000000
00010000
01000000
10000000
00000000
,
00100000
01000000
00010000
00000000
10000000
01000000
00010000
00000000
,
00001000
00001010
00000001
00000011
,
00000100
00001100
00000010
00001010
,
00000001
00000010
00001000
00000000
00010000
00100000
10000000
00000000
,
01000000
00100000
00010000
00000000
10000000
00100000
00010000
00000000
,
00001000
00000000
00000000
00000000
00000010
00000000
00000000
00000001
00000100
00000000
00000010
00000000
00001000
00000000
00000000
00000000
,
00000001
00000000
00000000
00000000
00001000
00000000
00000000
00000010
00000200
00000000
00000000
00000000
00001300
00000000
00000000
00000000
,
00010000
00000000
00100000
00000000
10000000
00000000
00000000
00010000
01000000
00000000
00100000
00000000
10000000
00000000
00000000
00000000
,
01000000
00100000
01000000
10000000
01000000
00010000
00001000
00000010
,
00000002
00000000
00000000
00000003
,
00002000
00000000
00000000
00003000
;

//---------------dance-single - ----------------
#NOTES:
     dance-single:
     :
     Challenge:
     13:
     0.651177,0.762542,0.179106,0.134329,0.340301,509.000000,489.000000,20.000000,15.000000,0.000000,0.000000,0.651177,0.762542,0.179106,0.134329,0.340301,509.000000,489.000000,20.000000,15.000000,0.000000,0.000000:
// measure 0
0000
0000
0000
0000
,  // measure 1
0000
0000
0000
0000
,  // measure 2
0000
0000
0000
0000
,  // measure 3
0000
0000
0000
0000
,  // measure 4
1001
0000
0000
0000
1000
0000
0010
0000
0100
0000
0000
0100
0001
0000
1000
0000
,  // measure 5
0100
0010
0100
0001
0100
1000
0010
0010
,  // measure 6
0100
0000
0001
0100
1000
0100
0000
0001
,  // measure 7
0010
1000
0010
0001
0000
0100
1000
0100
,  // measure 8
0001
0000
0010
0100
0010
0000
0100
0000
1000
0000
0000
1000
0001
0000
1000
0000
,  // measure 9
0010
0001
0010
1000
0000
0001
0010
1000
,  // measure 10
0010
0000
0000
0000
0011
0000
0000
0001
1000
0000
0010
1000
0010
0000
0100
0000
,  // measure 11
0001
0000
0010
0000
0001
0000
0100
0000
0001
1000
0001
1000
0001
0000
0100
0000
,  // measure 12
0010
1000
0100
0001
1000
0010
0001
1000
,  // measure 13
0010
0100
1000
0100
0010
0000
0100
0000
0101
0000
0001
0000
1001
0000
1000
0000
,  // measure 14
1010
0000
0000
0000
1100
0000
0000
0011
0000
0000
0100
0010
0100
0000
0001
0000
,  // measure 15
1000
0000
0100
0000
0001
0000
0100
0000
1000
0010
1000
0010
0100
0000
0001
0000
,  // measure 16
0100
0010
1000
0100
0001
0100
1000
0001
,  // measure 17
1000
0000
0010
0000
0001
0010
0001
0000
0010
0000
1000
0000
0001
0000
1000
0000
,  // measure 18
0200
0010
0000
0001
0000
0010
0300
1000
,  // measure 19
0200
0010
0000
1000
0000
0010
0300
0001
,  // measure 20
0200
0010
0000
1000
0000
0010
0300
1000
,  // measure 21
0002
0100
0000
0010
0000
0100
0003
0001
,  // measure 22
0000
1000
0100
1000
0100
1000
0001
0000
0010
0001
0010
0000
0001
1000
0001
0000
,  // measure 23
1000
0010
1000
0000
0001
0100
0001
0000
1000
0100
1000
0000
0010
0100
0010
0000
,  // measure 24
0010
0001
0010
0000
1000
0000
0001
0000
0100
0000
1000
0000
0100
0000
0001
0000
,  // measure 25
0010
0100
1000
0000
0001
0000
0100
0000
1000
0000
0100
0000
0101
0000
0000
0000
,  // measure 26
0010
0000
1001
0000
0000
0000
0010
0100
0010
0000
0100
0000
0001
0010
0001
0000
,  // measure 27
0010
0000
0100
0000
1000
0000
0010
0000
0100
0010
0100
0000
1001
0000
0000
0000
,  // measure 28
0001
0000
0010
0000
2000
0000
0000
0000
3010
0001
0010
0000
0200
0000
0000
0000
,  // measure 29
1300
0000
0100
0000
0001
0000
0100
0000
1000
0001
1000
0000
0001
0000
0000
0000
,  // measure 30
0100
0000
0010
0000
1000
0100
1000
0000
0010
1000
0010
0000
0100
0000
0001
0000
,  // measure 31
0100
0010
0100
0000
0010
0000
1000
0000
0100
0010
0000
0000
0010
1000
0000
0000
,  // measure 32
1000
0010
0001
0000
0110
0000
1001
0000
,  // measure 33
0001
0000
0010
0000
1000
0000
0010
0000
0001
1000
0001
0000
0200
0000
0000
0000
,  // measure 34
0310
0000
1000
0000
0100
0000
0000
0000
1000
0010
1000
0000
0001
0000
0100
0000
,  // measure 35
0010
0000
1000
0000
0010
0000
1000
0000
0001
0100
0000
0000
0010
0000
0100
0000
,  // measure 36
0001
0000
0010
0000
1000
0000
0010
0000
0001
0100
0001
0000
0010
0000
0100
0000
,  // measure 37
0001
0100
0001
0000
0100
0000
1000
0000
0010
0000
0010
0000
0100
0000
0100
0000
,  // measure 38
0001
0000
1000
0000
0001
0000
1000
0010
0000
0000
0100
0000
0001
0000
0010
0000
,  // measure 39
0001
0000
0001
0000
1000
0000
1000
0000
0010
0100
0010
0000
0100
0010
0100
0000
,  // measure 40
0000
0001
1000
0000
0010
0000
1000
0000
0100
1000
0100
1000
0200
0000
0000
0000
,  // measure 41
0310
0001
0010
0000
0001
0000
0010
0000
0100
0010
0100
0000
0010
0000
0100
0000
,  // measure 42
1000
0000
1000
0000
0001
0000
0001
0010
0000
0000
0001
0000
0100
0000
0000
1000
,  // measure 43
0100
0000
0001
0000
0010
0000
0100
0000
1000
0010
1000
0010
1000
0000
0000
0000
,  // measure 44
1002
0000
0000
0000
1003
0000
0000
0000
1000
0001
1000
0000
0001
1000
0001
0000
,  // measure 45
0100
0000
0001
0100
0000
0110
0000
0000
,  // measure 46
0010
1000
0100
0010
0000
0001
0100
1000
,  // measure 47
0100
0000
0001
0000
0010
0000
1000
0000
0010
0001
0010
0001
0010
0000
0001
1000
,  // measure 48
0000
0000
0010
0000
0100
0000
0000
0000
0001
0100
0001
0000
1000
0001
1000
0000
,  // measure 49
0100
0000
1000
0002
0000
0023
0000
0031
,  // measure 50
1000
0000
0001
0000
0100
0001
0100
0000
0010
0000
1000
0000
0100
1000
0100
0000
,  // measure 51
1000
0100
0010
0001
0010
0100
1000
0000
,  // measure 52
0001
0010
0011
0000
1010
0000
0110
0000
,  // measure 53
0100
0000
1000
0010
1000
0000
0000
0000
0010
0100
0010
0000
0100
0000
0000
0000
,  // measure 54
1000
0000
0100
0000
0010
0001
0010
0000
0100
0010
0100
0000
0001
0000
0010
0000
,  // measure 55
0100
1000
0100
0000
0010
0000
0001
0000
1000
0100
0000
0000
0100
1000
0000
0000
,  // measure 56
1000
0010
0100
0000
1001
0000
0011
0000
,  // measure 57
0100
0000
1000
0100
1000
0000
0000
0000
0001
0010
0001
0000
0200
0000
0000
0000
,  // measure 58
0310
0000
1000
0000
0100
0000
1000
0000
0001
0000
0010
0001
0010
0000
0001
0000
,  // measure 59
0100
0010
1000
0010
0200
0000
0301
1000
,  // measure 60
0010
0000
0000
0000
1001
0000
0000
1000
0010
0000
1000
0001
1000
0000
0000
0000
,  // measure 61
0100
0010
0100
0000
0010
0000
0001
0000
1000
0100
1000
0100
1000
0000
0000
0000
,  // measure 62
1000
0010
0001
0010
1000
1000
0100
0100
,  // measure 63
0010
0001
0010
0001
0100
0010
0100
0010
,  // measure 64
2000
0001
0000
0010
0000
0001
3000
0100
,  // measure 65
0002
0010
0000
0100
0003
0000
0000
0000
;

//---------------dance-single - EDIT----------------
#NOTES:
     dance-single:
     :
     Edit:
     15:
     0.701070,0.971536,0.161195,0.134329,0.514928,548.000000,530.000000,18.000000,15.000000,0.000000,0.000000,0.701070,0.971536,0.161195,0.134329,0.514928,548.000000,530.000000,18.000000,15.000000,0.000000,0.000000:
// measure 0
0000
0000
0000
0000
,  // measure 1
0000
0000
0000
0000
,  // measure 2
0000
0000
0000
0000
,  // measure 3
0000
0000
0000
0000
,  // measure 4
1001
0000
0000
0000
1000
0000
0010
0000
0100
0000
0000
0100
0001
0000
1000
0000
,  // measure 5
0100
0010
0100
0001
0100
1000
0010
0010
,  // measure 6
0100
0000
0001
0100
1000
0100
0000
0001
,  // measure 7
0010
1000
0010
0001
0000
0100
1000
0100
,  // measure 8
0001
0000
0010
0100
0010
0000
0100
0000
1000
0000
0000
1000
0001
0000
1000
0000
,  // measure 9
0010
0001
0010
1000
0000
0001
0010
1000
,  // measure 10
0010
0000
0000
0000
0011
0000
0000
0001
1000
0010
1000
0010
1000
0000
0001
0000
,  // measure 11
0100
0000
0010
0000
0001
0000
0010
0000
1000
0100
0010
0001
1000
0000
0100
0000
,  // measure 12
0010
1000
0100
0001
1000
0010
0001
1000
,  // measure 13
0010
0100
1000
0100
0010
0000
0100
0000
0101
0000
0001
0000
1001
0000
1000
0000
,  // measure 14
1010
0000
0000
0000
1100
0000
0000
0011
0000
0000
0100
0010
0100
0000
0001
0000
,  // measure 15
1000
0000
0100
0000
0001
0000
0100
0000
1000
0010
1000
0010
0100
0000
0001
0000
,  // measure 16
0100
0010
1000
0100
0001
0100
1000
0001
,  // measure 17
1000
0000
0010
0000
0001
0010
0001
0000
0010
0000
1000
0000
0001
0000
1000
0000
,  // measure 18
0200
0010
0000
0001
0000
0010
0300
1000
,  // measure 19
0200
0010
0000
1000
0000
0010
0300
0001
,  // measure 20
0200
0010
0000
1000
0000
0010
0300
1000
,  // measure 21
0002
0100
0000
0010
0000
0100
0003
0001
,  // measure 22
0000
1000
0100
1000
0100
1000
0001
0000
0010
0001
0010
0001
0100
0010
0100
0010
,  // measure 23
1000
0010
1000
0010
0100
0001
0100
0001
1000
0100
0010
0001
0100
0010
1000
0100
,  // measure 24
0010
0001
0100
0010
1000
0100
0010
0001
0100
0010
0100
0001
0010
0100
1000
0000
,  // measure 25
0001
0010
0100
1000
0001
1000
0100
0010
0001
0000
0100
0000
0101
0000
0000
0000
,  // measure 26
0010
0000
1001
0000
0000
0000
0010
0100
0010
0000
0100
0000
0001
0010
0001
0000
,  // measure 27
0010
0000
0100
0000
1000
0000
0010
0000
0100
0010
0100
0000
1001
0000
0000
0000
,  // measure 28
0001
0000
0010
0000
2000
0000
0000
0000
3010
0001
0010
0000
0200
0000
0000
0000
,  // measure 29
1300
0000
0100
0000
0001
0000
0100
0000
1000
0001
1000
0000
0001
0000
0000
0000
,  // measure 30
0100
0000
0010
0000
1000
0100
1000
0100
0010
0001
0010
0001
0100
0000
0001
0000
,  // measure 31
0100
0010
0100
0000
0010
0000
1000
0000
0100
0010
0000
0000
0010
1000
0000
0000
,  // measure 32
1000
0010
0001
0000
0110
0000
1001
0000
,  // measure 33
0001
0000
0010
0000
1000
0000
0010
0000
0001
1000
0001
0000
0200
0000
0000
0000
,  // measure 34
0310
0000
1000
0000
0100
0000
0000
0000
1000
0010
1000
0000
0001
0000
0100
0000
,  // measure 35
0010
0000
1000
0000
0010
0000
1000
0000
0001
0100
0000
0000
0010
0000
0100
0000
,  // measure 36
0001
0000
0010
0000
1000
0000
0010
0000
0001
0100
0001
0000
0010
0000
0100
0000
,  // measure 37
0001
0100
0001
0000
0100
0000
1000
0000
0010
0000
0010
0000
0100
0000
0100
0000
,  // measure 38
0001
0000
1000
0000
0001
0000
1000
0010
0000
0000
0100
0000
0001
0000
0010
0000
,  // measure 39
0001
0000
0001
0000
1000
0000
1000
0000
0010
0100
0010
0000
0100
0010
0100
0000
,  // measure 40
0000
0001
1000
0000
0010
0000
1000
0000
0100
1000
0100
1000
0200
0000
0000
0000
,  // measure 41
0310
0001
0010
0000
0001
0000
0010
0000
0100
0010
0100
0000
0010
0000
0100
0000
,  // measure 42
1000
0000
1000
0000
0001
0000
0001
0010
0000
0000
0001
0000
0100
0000
0000
1000
,  // measure 43
0100
0000
0001
0000
0010
0000
0100
0000
1000
0010
1000
0010
1000
0000
0000
0000
,  // measure 44
1002
0000
0000
0000
1003
0000
0000
0000
1000
0001
1000
0001
1000
0001
1000
0001
,  // measure 45
0100
0000
0001
0100
0000
0110
0000
0000
,  // measure 46
0010
1000
0010
0000
1000
0000
0100
0000
0010
0001
0010
0001
0100
0000
1000
0000
,  // measure 47
0100
0000
0001
0000
0010
0000
1000
0000
0010
0001
0010
0001
0010
0000
0001
1000
,  // measure 48
0001
0000
0010
0000
0100
0000
1000
0000
0001
0100
0001
0100
0010
1000
0010
1000
,  // measure 49
0100
0000
1000
0002
0000
0023
0000
0031
,  // measure 50
1000
0000
0001
0000
0100
0001
0100
0000
0010
0000
1000
0000
0100
1000
0100
0000
,  // measure 51
1000
0001
1000
0001
0100
0010
0100
0010
1000
0100
0010
0001
0100
0000
0000
0000
,  // measure 52
0100
0000
0010
0000
1001
0000
0000
0000
1000
0010
0100
0000
0110
0000
0000
0000
,  // measure 53
0001
0000
1000
0010
1000
0000
0100
0000
0010
0100
0010
0000
0001
0000
0000
0000
,  // measure 54
1000
0000
0100
0000
0010
0001
0010
0001
0100
0010
0100
0010
1000
0000
0010
0000
,  // measure 55
0100
1000
0100
0000
0010
0000
0001
0000
0010
0100
0000
0000
0100
1000
0000
0000
,  // measure 56
1000
0000
0100
0000
0010
0000
0000
0000
1000
0001
1000
0000
0011
0000
0000
0000
,  // measure 57
0100
0000
1000
0100
1000
0000
0000
0000
0001
0010
0001
0000
0200
0000
0000
0000
,  // measure 58
0310
0000
1000
0000
0100
0000
1000
0000
0001
0000
0010
0001
0010
0000
0001
0000
,  // measure 59
0100
0010
1000
0010
0200
0000
0301
1000
,  // measure 60
0010
0000
0000
0000
1001
0000
0000
1000
0010
1000
0010
1000
0010
0000
1000
0000
,  // measure 61
0100
0010
0100
0000
0010
0000
0001
0000
1000
0100
1000
0100
1000
0000
0001
0000
,  // measure 62
1000
0000
0010
0000
0001
0000
0010
0000
1000
0001
1000
0000
0100
0010
0100
0000
,  // measure 63
0010
0000
0001
0000
0010
0000
0001
0000
0100
0010
0100
0000
0010
0000
1000
0000
,  // measure 64
0002
0000
0000
0003
,  // measure 65
0200
0000
0000
0300
;
