#VERSION:0.83;
#TITLE:クリムゾンゲイト;
#SUBTITLE:;
#ARTIST:工藤吉三 (ベイシスケイプ);
#TITLETRANSLIT:Crimson Gate;
#SUBTITLETRANSLIT:;
#ARTISTTRANSLIT:Kudo Kichizo (Basis Cape);
#GENRE:;
#ORIGIN:;
#CREDIT:;
#BANNER:Crimson Gate.png;
#BACKGROUND:Crimson Gate-bg.png;
#PREVIEWVID:;
#JACKET:Crimson Gate-jacket.png;
#CDIMAGE:;
#DISCIMAGE:;
#LYRICSPATH:;
#CDTITLE:;
#MUSIC:Crimson Gate.ogg;
#OFFSET:0.000000;
#SAMPLESTART:81.514999;
#SAMPLELENGTH:15.000000;
#SELECTABLE:YES;
#BPMS:0.000=198.000;
#STOPS:;
#DELAYS:;
#WARPS:;
#TIMESIGNATURES:0.000=4=4;
#TICKCOUNTS:0.000=4;
#COMBOS:0.000=1;
#SPEEDS:0.000=1.000=0.000=0;
#SCROLLS:0.000=1.000;
#FAKES:;
#LABELS:0.000=Song Start;
#BGCHANGES:;
#KEYSOUNDS:;
#ATTACKS:
;

//---------------dance-single - ----------------
#NOTEDATA:;
#CHARTNAME:;
#STEPSTYPE:dance-single;
#DESCRIPTION:;
#CHARTSTYLE:;
#DIFFICULTY:Beginner;
#METER:3;
#RADARVALUES:0.157567,0.199521,0.017934,0.044836,0.000000,123.000000,121.000000,2.000000,5.000000,0.000000,0.000000,0.000000,0.000000,0.000000,0.157567,0.199521,0.017934,0.044836,0.000000,123.000000,121.000000,2.000000,5.000000,0.000000,0.000000,0.000000,0.000000,0.000000;
#CREDIT:;
#NOTES:
0000
0000
0000
0000
,
0000
0000
0000
0000
,
0000
0000
0000
0000
,
0000
0000
0000
0000
,
0000
0000
0000
0000
,
0000
0000
0000
0000
,
0000
0000
0100
0000
,
0000
0000
0100
0000
,
1000
0000
0000
0000
,
0000
0000
0000
0000
,
0001
0000
0001
0000
,
1000
0000
0000
0000
,
1000
0000
1000
0000
,
0001
0000
0000
0000
,
0100
0000
0001
0000
,
0001
0000
0000
0000
,
1000
0000
1000
0000
,
0010
0000
0010
0000
,
0010
0000
0000
0000
,
0001
0000
0000
0000
,
0001
0000
0000
0000
,
0010
0000
0010
0000
,
0100
0000
0000
0000
,
1000
0000
1000
0000
,
0000
0000
0000
0000
,
0000
0000
0000
0000
,
0001
0000
0010
0000
,
0001
0000
0010
0000
,
1000
0000
1000
0000
,
1000
0000
0000
0000
,
0001
0000
1000
0000
,
0001
0000
1000
0000
,
0010
0000
0010
0000
,
0010
0000
0000
0000
,
0100
0000
0100
0000
,
0010
0000
0000
0000
,
0100
0000
0100
0000
,
0010
0000
0000
0000
,
1001
0000
0000
0000
,
0000
0000
0001
0000
,
1001
0000
0000
0000
,
0000
0000
1000
0000
,
1000
0000
0000
0000
,
0010
0000
0010
0000
,
0010
0000
0000
1000
,
0000
0000
0001
0000
,
0002
0000
0000
0003
,
0000
0000
0010
0010
,
0010
0000
0000
0000
,
1000
0000
1000
0000
,
2000
0000
0000
3000
,
0000
0000
0010
0010
,
0020
0000
0000
0030
,
0000
0000
0000
0000
,
1000
0000
0000
1000
,
0000
1000
0000
0000
,
0010
0000
0010
0000
,
0000
0001
0000
0001
,
0000
0000
0000
0000
,
0000
1000
0000
0000
,
0000
0100
0000
0100
,
0000
0001
0000
0000
,
0000
0001
0000
0001
,
0000
0100
0000
0000
,
0000
1000
0000
1000
,
0000
0001
0000
0000
,
0000
0000
0000
0000
,
0000
1000
0000
1000
,
1000
1000
0000
0000
,
0000
0010
0000
0010
,
0010
0010
0000
0000
,
0000
0001
0000
1000
,
0000
0001
0000
1000
,
0000
0010
0000
0000
,
0000
1000
0000
0100
,
0000
2000
0000
0000
,
3000
0020
0000
0000
,
0030
0010
0000
0010
,
0000
0001
0000
0000
,
0000
0010
0000
0010
,
0010
0010
0000
0000
,
0000
0100
0000
0010
,
0010
0010
0000
0000
,
0000
1000
0000
0010
,
0000
1000
0000
0010
,
0000
0001
0000
0001
,
0000
0001
0000
0000
,
0000
1000
0000
0001
,
0000
1000
0000
0100
,
0100
0000
0000
0000
,
0000
0000
0000
0000
;

//---------------dance-single - ----------------
#NOTEDATA:;
#CHARTNAME:;
#STEPSTYPE:dance-single;
#DESCRIPTION:;
#CHARTSTYLE:;
#DIFFICULTY:Easy;
#METER:7;
#RADARVALUES:0.283109,0.359138,0.089672,0.125541,0.000000,221.000000,211.000000,10.000000,14.000000,0.000000,0.000000,0.000000,0.000000,0.000000,0.283109,0.359138,0.089672,0.125541,0.000000,221.000000,211.000000,10.000000,14.000000,0.000000,0.000000,0.000000,0.000000,0.000000;
#CREDIT:;
#NOTES:
0000
0000
0000
0000
,
0000
0000
0000
0000
,
0000
0000
0000
0000
,
0000
0000
0000
0000
,
0000
0000
0000
0000
,
0000
0000
0000
0000
,
0000
1000
0100
0000
,
0000
0001
0100
0000
,
0000
0010
0000
0010
,
0000
0001
0000
0100
,
0001
0000
1000
0001
,
1000
0000
0010
1000
,
0001
0000
0010
0000
,
0100
0000
0000
0000
,
0010
0000
0100
1000
,
0001
0000
0001
0010
,
0001
0000
1000
0000
,
0001
0000
0100
0001
,
0100
0001
0001
1000
,
1000
0100
1000
1000
,
0001
0001
0000
1000
,
0010
0000
0010
0000
,
1000
0100
0100
1000
,
1000
0001
0010
0010
,
0000
0100
0000
0100
,
0000
0100
0000
0100
,
1000
0010
1000
0010
,
0100
0001
0010
0000
,
0001
0010
0001
0010
,
1000
0000
0000
0000
,
0001
0100
0001
0100
,
0010
1000
0100
0000
,
1000
0010
1000
0010
,
0001
0000
0000
0000
,
1000
0000
0100
1000
,
0100
0000
0010
0001
,
1000
0000
1000
0001
,
0010
0000
0001
0000
,
1001
0000
1000
1000
,
0000
0010
1000
0000
,
1001
0000
0001
0001
,
0000
0010
0001
0010
,
0100
0000
1000
0001
,
0100
0000
0100
0001
,
1000
0000
0000
1001
,
0000
0000
0010
0010
,
0200
0000
0000
0300
,
0000
0000
0001
0100
,
0002
0000
0000
0003
,
1000
0100
1000
0100
,
2000
0000
0000
3000
,
0000
0000
0010
0100
,
0002
0000
0000
0003
,
0000
0000
0000
0000
,
1000
0000
0000
2001
,
0000
3100
0000
0000
,
1000
0010
0100
0000
,
0000
1002
0000
0103
,
0000
0001
0000
0010
,
0000
2000
0000
3100
,
0000
1001
0000
0100
,
0001
0002
0000
1003
,
0000
0001
1000
0100
,
0000
0000
0110
0110
,
0000
2000
0000
3002
,
0000
0103
0000
0000
,
0001
0000
0000
0000
,
0000
0001
0000
1000
,
0100
1000
0000
1000
,
0100
1000
0000
0001
,
0000
0010
0100
1000
,
0100
0010
0000
1100
,
0000
0001
0100
0001
,
0100
0010
0000
0001
,
0000
1000
0000
0100
,
0001
2000
0000
3020
,
0000
2030
0000
3002
,
0000
0013
0000
0010
,
0000
1000
0100
0010
,
0000
0001
1000
0010
,
1000
0001
0000
1000
,
0001
1001
0000
0010
,
0000
0010
0001
0010
,
0000
1000
0010
1000
,
0010
0100
0001
0010
,
0000
0001
0010
0001
,
0010
1000
0000
0000
,
0000
0001
0001
1000
,
1000
0100
0010
0001
,
0100
0000
0000
0000
,
0000
0000
0000
0000
;

//---------------dance-single - ----------------
#NOTEDATA:;
#CHARTNAME:;
#STEPSTYPE:dance-single;
#DESCRIPTION:;
#CHARTSTYLE:;
#DIFFICULTY:Medium;
#METER:10;
#RADARVALUES:0.422741,0.559444,0.089672,0.089672,0.062771,330.000000,320.000000,10.000000,10.000000,0.000000,0.000000,0.000000,0.000000,0.000000,0.422741,0.559444,0.089672,0.089672,0.062771,330.000000,320.000000,10.000000,10.000000,0.000000,0.000000,0.000000,0.000000,0.000000;
#CREDIT:;
#NOTES:
// measure 0
0000
0000
0000
0000
,  // measure 1
0000
0000
0000
0000
,  // measure 2
0000
0000
0000
0000
,  // measure 3
0000
0000
0000
0000
,  // measure 4
0000
0000
0000
0000
,  // measure 5
0000
0000
0000
0000
0000
0000
0000
0010
,  // measure 6
0000
0000
1000
0000
0001
0000
0000
0010
,  // measure 7
0000
0001
0100
0000
,  // measure 8
0010
0000
0100
0000
0000
0001
0000
1000
,  // measure 9
0000
0001
0000
1000
0000
0000
0100
0000
,  // measure 10
0001
0010
0001
0001
,  // measure 11
1000
0010
1000
0010
,  // measure 12
0100
0100
0010
1000
,  // measure 13
1000
0001
0010
0100
,  // measure 14
0100
1000
0010
0010
,  // measure 15
1000
0100
1000
0100
,  // measure 16
0010
0100
1000
1000
,  // measure 17
0010
0000
0010
0000
0100
0001
0100
0000
,  // measure 18
0010
0000
0010
0000
1000
0000
0100
1000
,  // measure 19
0100
0000
0100
0000
1000
0000
0001
0100
,  // measure 20
0001
0001
1000
0001
,  // measure 21
0100
0001
0010
1000
,  // measure 22
0100
0000
0100
0000
0001
0000
1000
0100
,  // measure 23
1000
0000
1000
0000
0010
0000
0100
1000
,  // measure 24
0000
0000
0100
0010
0000
0000
0100
1000
,  // measure 25
0000
0000
0001
0100
0000
0100
0000
0000
,  // measure 26
1000
0100
1000
0000
0001
1000
0001
0000
,  // measure 27
1000
0100
1000
0000
0010
0000
0010
0000
,  // measure 28
1000
0100
1000
0000
0010
1000
0010
0000
,  // measure 29
0100
0000
0100
0000
,  // measure 30
0001
0100
0001
0000
1000
0001
1000
0000
,  // measure 31
0001
0100
0001
0000
0010
0000
0010
0000
,  // measure 32
0001
0100
0001
0000
0010
0001
0010
0000
,  // measure 33
0100
0000
0000
0000
,  // measure 34
2000
0000
3100
0010
,  // measure 35
0001
0010
0100
0010
,  // measure 36
0002
0010
1003
0010
,  // measure 37
0100
0010
1000
0001
,  // measure 38
0100
0000
0100
0000
1000
0000
0001
0100
,  // measure 39
0000
0001
1000
0001
,  // measure 40
0100
0000
0100
0000
0001
0000
1000
0100
,  // measure 41
0000
1000
0001
1000
,  // measure 42
0100
0100
0010
0001
,  // measure 43
1000
0100
0010
0100
,  // measure 44
1000
0000
0000
0010
0000
0000
1010
0000
,  // measure 45
0000
1000
0000
0000
0001
0100
0001
0000
,  // measure 46
0020
0000
0000
0030
,  // measure 47
0000
0000
0010
0110
,  // measure 48
2002
0000
0000
3003
,  // measure 49
0001
0100
1000
0100
,  // measure 50
0002
0000
0000
0003
,  // measure 51
0000
0000
0010
0110
,  // measure 52
2200
0000
0000
3300
,  // measure 53
0000
0000
0001
0100
,  // measure 54
1000
0000
1000
0100
,  // measure 55
0001
0100
0000
0001
,  // measure 56
1000
0100
1000
0000
0010
0000
0000
0000
,  // measure 57
0010
1000
0100
1000
,  // measure 58
0000
0000
0000
0001
0000
0000
0000
0000
0000
0001
0000
0100
,  // measure 59
0000
0001
0000
1000
0000
0000
0000
0000
0000
0100
0000
0000
,  // measure 60
0010
0100
1000
0010
,  // measure 61
0010
0000
0000
0100
0000
0000
0000
0000
0000
0001
0000
1000
,  // measure 62
0000
0100
0000
1000
0000
0000
0001
0000
0000
0100
0000
0000
,  // measure 63
0000
0001
0010
0100
,  // measure 64
0000
0000
0000
0001
0000
0000
0100
0000
0000
0010
0000
1000
,  // measure 65
0000
0000
0010
0000
0000
0000
0100
0000
0000
0000
0000
0000
0000
0000
0000
0100
0000
0000
0000
0000
0000
0000
0000
0000
,  // measure 66
0100
0000
0000
0000
0000
0001
0000
0010
0000
0001
0000
0010
,  // measure 67
0000
0001
0000
0100
0000
0000
0010
0000
0000
0010
0000
0000
,  // measure 68
0100
0001
0010
0100
,  // measure 69
1000
0001
1000
1000
,  // measure 70
0010
0000
0100
0010
0100
0000
0001
0100
,  // measure 71
0001
1001
1000
0110
,  // measure 72
0010
0101
0100
1010
,  // measure 73
0010
0001
0100
0001
,  // measure 74
1000
0100
0000
0010
,  // measure 75
0100
2000
0000
3020
,  // measure 76
0000
0000
0000
1030
0000
0001
0000
1000
0000
0001
0000
0100
,  // measure 77
0000
0001
0000
0100
0000
0000
0000
0000
0000
0110
0000
0000
,  // measure 78
0000
0001
0001
0010
,  // measure 79
0100
0010
0000
1000
,  // measure 80
0100
1000
0100
0000
0000
0000
1000
0000
,  // measure 81
0001
0100
0100
0010
,  // measure 82
0100
0001
0100
0000
0100
0000
0001
0000
,  // measure 83
0000
0000
1000
0100
1000
0000
0001
1000
,  // measure 84
0001
0000
1000
0100
1000
0000
0010
0000
,  // measure 85
0010
0000
0001
0100
0001
0000
1000
0001
,  // measure 86
1000
0100
0100
0100
,  // measure 87
0100
0000
0010
0100
0010
0000
1000
0010
,  // measure 88
1000
0001
0010
0100
,  // measure 89
1000
0001
0000
0000
0000
0000
0000
0000
;

//---------------dance-single - ----------------
#NOTEDATA:;
#CHARTNAME:;
#STEPSTYPE:dance-single;
#DESCRIPTION:;
#CHARTSTYLE:;
#DIFFICULTY:Hard;
#METER:13;
#RADARVALUES:0.669981,0.719285,0.385591,0.089672,0.215214,523.000000,480.000000,43.000000,10.000000,0.000000,0.000000,0.000000,0.000000,0.000000,0.669981,0.719285,0.385591,0.089672,0.215214,523.000000,480.000000,43.000000,10.000000,0.000000,0.000000,0.000000,0.000000,0.000000;
#CREDIT:;
#NOTES:
// measure 0
0000
0000
0000
0000
,  // measure 1
0000
0000
0000
0000
,  // measure 2
0000
0000
0000
0000
,  // measure 3
0000
0000
0000
0000
,  // measure 4
0000
0000
0000
0000
,  // measure 5
0000
0000
0000
0000
0000
0100
1000
0100
,  // measure 6
0000
0001
1000
0000
0100
0000
1000
0010
,  // measure 7
0000
0000
0000
0001
0000
0000
0100
0000
0000
0000
0000
0000
1000
0000
0000
0000
0010
0000
0000
0000
0010
0000
0000
0000
,  // measure 8
0100
0001
0100
0001
0000
0001
1000
0100
,  // measure 9
0000
0100
0010
0100
0000
0100
1000
0000
,  // measure 10
0001
0000
0001
0000
1000
0000
0001
0010
,  // measure 11
1000
0000
0001
0000
1000
0100
0010
0100
,  // measure 12
1000
0000
0001
0100
0000
0100
1000
0000
,  // measure 13
1000
0100
0000
0001
0010
0000
0100
1000
,  // measure 14
0100
1000
0010
0100
,  // measure 15
0001
0000
1000
0000
0001
0100
0010
0100
,  // measure 16
0001
0000
1000
0000
0010
1000
0001
1000
,  // measure 17
0010
0100
0001
1000
0100
1000
0001
0100
,  // measure 18
0010
0000
1000
0100
1000
0000
0001
0100
,  // measure 19
0001
0100
0010
0000
1000
0000
1000
0100
,  // measure 20
1000
0000
0001
0010
0000
0010
1000
0000
,  // measure 21
0010
0001
0000
0100
0010
0000
0101
0000
,  // measure 22
1100
0000
0001
0100
0001
0000
1000
0100
,  // measure 23
1000
0100
0010
0000
1000
0001
0100
0002
,  // measure 24
0000
0013
0100
2000
0000
3010
0100
0002
,  // measure 25
0000
0013
0100
2000
0000
3010
0100
0000
,  // measure 26
0001
0100
0010
0100
0001
0100
0010
0100
,  // measure 27
0001
0100
0010
0100
0001
0100
0000
0100
,  // measure 28
1000
0100
0010
0100
1000
0100
0010
0100
,  // measure 29
1000
0000
0010
0000
0000
1010
0000
0000
0110
0000
0000
0101
0000
0000
1000
0000
,  // measure 30
0001
0100
0001
0100
1000
0100
1000
0100
,  // measure 31
0001
0100
0001
0100
1000
0100
0000
0001
,  // measure 32
1000
0100
1000
0100
0001
0100
0001
0100
,  // measure 33
1000
0000
0001
0000
0000
1001
0000
0000
0101
0000
0000
0110
0000
0000
0001
0000
,  // measure 34
0100
0000
0100
0000
0010
0000
1000
0100
,  // measure 35
0010
0001
0010
0001
,  // measure 36
1000
0000
0010
0000
1000
0000
0001
0100
,  // measure 37
0010
1000
0010
0100
,  // measure 38
1001
0000
1001
0000
1000
0100
1000
0100
,  // measure 39
0000
0100
0011
0000
1000
0001
0010
0000
,  // measure 40
1001
0000
1001
0000
0001
0100
0001
0100
,  // measure 41
0000
0100
1010
0000
0001
1000
0010
0000
,  // measure 42
0100
0000
0100
0000
0010
0000
1000
0001
,  // measure 43
1000
0100
0001
0100
,  // measure 44
0010
0001
0001
1000
0001
0001
1000
0100
,  // measure 45
0100
0010
0100
0100
0001
0100
0001
0100
,  // measure 46
2000
0000
0000
3000
,  // measure 47
0010
0100
0010
0000
1010
0000
0101
0000
,  // measure 48
0022
0000
0000
0033
,  // measure 49
1000
0000
0010
0100
0000
0001
1000
0000
0010
0100
0000
0001
,  // measure 50
2000
0000
0000
3000
,  // measure 51
0100
0010
0100
0000
0011
0000
1100
0000
,  // measure 52
2020
0000
0000
3030
,  // measure 53
0000
0000
0000
0000
0000
0000
0010
0001
0010
0001
1000
0100
,  // measure 54
1000
0000
0000
0100
1000
0000
1100
0000
,  // measure 55
1001
0000
0100
0000
0000
0001
0100
0000
,  // measure 56
1000
0100
0010
0100
1000
0000
0000
0010
,  // measure 57
0100
0000
0000
0101
0000
0000
1001
0000
0000
0100
0000
1000
,  // measure 58
0000
1000
0000
0001
0000
0010
0000
0010
0000
0100
0000
1000
,  // measure 59
0000
0100
0000
1000
0000
0000
0010
0000
0000
1001
0000
0000
,  // measure 60
0100
0000
1001
0000
0100
0000
0010
0100
,  // measure 61
0010
0000
0000
1001
0000
0000
0100
0000
0000
1000
0000
0010
,  // measure 62
0000
0100
0000
0001
0000
0001
1000
0000
0001
0100
0000
0010
,  // measure 63
0100
0000
0010
1000
0000
0000
1000
0000
0000
0100
0000
0001
,  // measure 64
0000
0010
0000
1000
0000
0000
0001
0000
0000
1000
0000
0100
,  // measure 65
0000
0000
0010
0000
0000
0000
1001
0000
0000
0000
0000
0000
0000
0000
0000
0110
0000
0000
0000
0000
0000
0000
0000
0000
,  // measure 66
1001
0000
0000
0000
0000
0001
0000
0010
0000
1000
0000
0010
,  // measure 67
0000
0000
0001
0000
0000
0000
1000
0000
0000
0001
0000
0000
1000
0000
0000
0010
0000
0000
1000
0000
0000
0001
0000
0000
,  // measure 68
0100
0001
1000
0100
0010
0001
1000
0100
,  // measure 69
1000
0010
0001
1000
0001
0010
0001
1000
,  // measure 70
0100
0010
0001
0010
0100
1000
0001
0100
,  // measure 71
0010
1000
0001
1000
0100
0000
1100
0000
,  // measure 72
0010
0101
0010
1100
,  // measure 73
0001
0000
0110
0000
0100
0000
0001
0100
,  // measure 74
0000
0000
0000
0010
0000
0000
1000
0000
0000
0010
0000
0000
1000
0000
0000
0010
0000
0000
0100
0000
0001
0000
0100
0000
,  // measure 75
0001
0100
0001
1000
0000
0100
0000
1000
0000
0001
0000
0100
,  // measure 76
0000
0001
0000
1000
0000
0010
0000
0100
0000
0001
0000
1000
,  // measure 77
0000
0000
0100
0000
0000
0000
1000
0000
0000
0000
0000
0000
0001
0000
0000
0000
0000
0000
1000
0000
0000
0100
0000
0000
,  // measure 78
1000
0000
0001
0010
0100
0010
0001
1000
,  // measure 79
0001
0010
0001
0000
1000
0000
0010
1000
,  // measure 80
0100
1000
0010
0000
1000
0000
1010
0000
,  // measure 81
1001
0000
0101
0000
0001
0000
0010
0001
,  // measure 82
0100
0001
0010
0000
0011
0000
0110
0000
,  // measure 83
1100
0000
1000
0100
0010
0100
1000
0100
,  // measure 84
0010
0100
1000
0100
0010
0001
1000
0010
,  // measure 85
0000
0010
0001
0100
0010
0100
0001
0100
,  // measure 86
0010
0000
0100
0000
0001
0000
1000
0000
0000
1010
0000
0000
0110
0000
0000
0101
,  // measure 87
0000
0001
1000
0100
1000
1000
0001
0100
,  // measure 88
0001
0001
1000
0010
1000
0001
0100
0001
,  // measure 89
1000
0100
0000
0000
0000
0000
0000
0000
;

//---------------dance-double - ----------------
#NOTEDATA:;
#CHARTNAME:;
#STEPSTYPE:dance-double;
#DESCRIPTION:;
#CHARTSTYLE:;
#DIFFICULTY:Easy;
#METER:6;
#RADARVALUES:0.275422,0.359138,0.044836,0.143476,0.000000,215.000000,210.000000,5.000000,16.000000,0.000000,0.000000,0.000000,0.000000,0.000000,0.275422,0.359138,0.044836,0.143476,0.000000,215.000000,210.000000,5.000000,16.000000,0.000000,0.000000,0.000000,0.000000,0.000000;
#CREDIT:;
#NOTES:
00000000
00000000
00000000
00000000
,
00000000
00000000
00000000
00000000
,
00000000
00000000
00000000
00000000
,
00000000
00000000
00000000
00000000
,
00000000
00000000
00000000
00000000
,
00000000
00000000
00000000
00000000
,
00000000
00001000
00010000
00000000
,
00000000
00010000
00001000
00000000
,
00000000
00000100
00000000
00000100
,
00000000
00000001
00000000
00001000
,
00000100
00000000
00000010
00001000
,
00010000
00000000
00001000
00010000
,
00000010
00000000
00000100
00000000
,
00001000
00000000
00010000
00000000
,
00100000
00000000
01000000
00010000
,
01000000
00000000
00010000
00100000
,
00010000
00000000
10000000
00000000
,
01000000
00000000
00010000
00001000
,
00010000
00001000
00001000
00000010
,
00001000
00001000
00010000
00100000
,
00010000
00001000
00000000
00010000
,
01000000
00000000
10000000
00000000
,
00100000
00010000
00010000
00001000
,
00010000
00010000
00001000
00000100
,
00000000
00000001
00000000
00001000
,
00000000
00000001
00000000
00000100
,
00001000
00010000
00100000
00010000
,
00001000
00010000
00100000
00000000
,
00010000
00001000
00010000
00100000
,
00010000
00000000
00000000
00000000
,
00010000
00001000
00000010
00001000
,
00010000
00001000
00000010
00000000
,
00001000
00010000
00001000
00000010
,
00001000
00000000
00000000
00000000
,
00010000
00000000
01000000
10000000
,
01000000
00000000
00010000
00000000
,
00001000
00000000
00000100
00000001
,
00000100
00000000
00001000
00000000
,
00011000
00000000
01000000
00100000
,
00000000
00010000
00001000
00000000
,
00011000
00000000
00000100
00000010
,
00000000
00001000
00010000
00001000
,
00010000
00000000
00100000
10000000
,
00100000
00000000
00010000
00000000
,
00001000
00000000
00000000
00000110
,
00000000
00000000
00000001
00001000
,
00000200
00000000
00000000
00000300
,
00000000
00000000
00000010
00001000
,
00020000
00000000
00000000
00030000
,
00100000
01000000
00100000
01000000
,
00020000
00000000
00000000
00030000
,
00000000
00000000
00100000
00010000
,
00002000
00000000
00000000
00003000
,
00000000
00000000
00000000
00000000
,
00000010
00000000
00000000
00000001
,
00000000
00000100
00000000
00000000
,
00001000
00010000
00100000
00000000
,
00000000
10000000
00000000
01000000
,
00000000
00010000
00000000
00001000
,
00000000
00000020
00000000
00000031
,
00000000
00001000
00000000
01000000
,
00100000
00020000
00000000
00031000
,
00000000
00000100
00000001
00000100
,
00000000
00000000
00011000
00011000
,
00000000
00000200
00000000
00000320
,
00000000
00001030
00000000
00000000
,
00010000
00000000
00000000
00000000
,
00000000
00100000
00000000
10000000
,
01000000
00010000
00000000
00001000
,
00010000
00001000
00000000
00000010
,
00001000
00010000
00100000
00010000
,
00001000
00000100
00000000
00000001
,
00000000
00000001
00000100
00000001
,
00001000
00000100
00000000
00001000
,
00000000
00010000
00000000
00100000
,
01000000
20000000
00000000
30200000
,
00000000
00320000
00000000
00032000
,
00000000
00003020
00000000
00000032
,
00000000
00000203
00000000
00002300
,
00000000
00013000
01000000
00100000
,
01000000
00010000
00000000
00001000
,
00010000
00001000
00000000
00000100
,
00000000
00000001
00000010
00001000
,
00000000
00001000
00010000
00100000
,
00010000
00001000
00010000
00100000
,
00000000
00010000
00001000
00010000
,
01000000
00010000
00000000
00000000
,
00000000
00001000
00000100
00001000
,
00000100
00000001
00000010
00001000
,
00010000
00000000
00000000
00000000
,
00000000
00000000
00000000
00000000
;

//---------------dance-double - ----------------
#NOTEDATA:;
#CHARTNAME:;
#STEPSTYPE:dance-double;
#DESCRIPTION:;
#CHARTSTYLE:;
#DIFFICULTY:Medium;
#METER:9;
#RADARVALUES:0.408650,0.439563,0.062771,0.071738,0.062771,319.000000,312.000000,7.000000,8.000000,0.000000,0.000000,0.000000,0.000000,0.000000,0.408650,0.439563,0.062771,0.071738,0.062771,319.000000,312.000000,7.000000,8.000000,0.000000,0.000000,0.000000,0.000000,0.000000;
#CREDIT:;
#NOTES:
00000000
00000000
00000000
00000000
,
00000000
00000000
00000000
00000000
,
00000000
00000000
00000000
00000000
,
00000000
00000000
00000000
00000000
,
00000000
00000000
00000000
00000000
,
00000000
00000000
00000000
00000000
00000000
00000000
00000000
10000000
,
00000000
00000000
00100000
00000000
01000000
00000000
00000000
00001000
,
00000000
00010000
01000000
00000000
,
00010000
00000000
00001000
00000000
00000000
00000100
00000000
00000001
,
00000000
00000000
00000000
00000100
00000000
00000000
00000100
00000000
,
00001000
00010000
00100000
00100000
,
00010000
00001000
00010000
00001000
,
00000010
00000010
00000001
00000100
,
00001000
00010000
00100000
10000000
,
00100000
00010000
00001000
00001000
,
00000010
00000001
00000010
00000001
,
00000010
00001000
00010000
00010000
,
00001000
00000000
00001000
00000000
00000100
00000010
00000100
00000000
,
00000001
00000000
00000001
00000000
00000010
00000000
00001000
00010000
,
00001000
00000000
00001000
00000000
01000000
00000000
00100000
01000000
,
00100000
00100000
00010000
00001000
,
00010000
00010000
00000010
00010000
,
00001000
00000000
00001000
00000000
00000100
00000000
00000001
00000100
,
00000001
00000000
00001000
00000000
00000001
00000000
00000100
00001000
,
00000000
00000000
00001000
00010000
00000000
00000000
00010000
00100000
,
00000000
00000000
00100000
10000000
00000000
10000000
00000000
00000000
,
10000000
01000000
10000000
00000000
01000000
00000000
00010000
00000000
,
00001000
00000010
00000001
00000001
,
00000100
00001000
00000100
00000000
00001000
00000000
00010000
00000000
,
01000000
00000000
01000000
00000000
,
10000000
00100000
10000000
00000000
00100000
00000000
00010000
00000000
,
00001000
00000100
00000001
00000001
,
00000010
00001000
00000010
00000000
00001000
00000000
00010000
00000000
,
00100000
00000000
00100000
00000000
,
10000000
10000000
01000000
00010000
,
00001000
00010000
00001000
00000010
,
00000001
00000001
00001000
00000010
,
00000100
00001000
00010000
00001000
,
01000000
00000000
00000000
00000000
00010000
00000000
00001000
01000000
,
00000000
01000000
00100000
00000000
00010000
00000000
00001000
00000000
,
01000000
00000000
00000000
00000000
00001000
00000000
00010000
00000100
,
00000000
00000100
00000010
00000000
00001000
00000000
00010000
00000000
,
01000000
01000000
10000000
00100000
,
00010000
00001000
00010000
00100000
,
10000000
00000000
00000000
01100000
00000000
00000000
00011000
00000000
,
00000000
00001000
00000000
00000000
00000010
00000100
00000010
00000000
,
00002000
00000000
00000000
00003000
,
00000000
00000000
00010000
01000000
,
22000000
00000000
00000000
33000000
,
00100000
00010000
00001000
00010000
,
00022000
00000000
00000000
00033000
,
00000000
00000000
00000100
00000010
,
00002002
00000000
00000000
00003003
,
00000000
00000000
00000010
00001000
,
00010000
00000000
00010000
00001000
,
00000010
00001000
00000000
00010000
,
00100000
01000000
00100000
00000000
00010000
00000000
00000000
00000000
,
00100000
10000000
00100000
00010000
,
00000000
00000000
00000000
00001000
00000000
00000000
00000000
00000000
00000000
00100000
00000000
00001000
,
00000000
00010000
00000000
00001000
00000000
00000000
00000000
00000000
00000000
00001000
00000000
00000000
,
00000010
00000000
00000001
00000000
00000100
00000000
00001000
00010000
,
00001000
00000000
00000000
00010000
00000000
00000000
00000000
00000000
00000000
00010000
00000000
00001000
,
00000000
01000000
00000000
00100000
00000000
00000000
00010000
00000000
00000000
00001000
00000000
00000000
,
00000000
00000010
00001000
00011000
,
00000000
00000000
00000000
00000010
00000000
00000000
00000100
00000000
00000000
00001000
00000000
00010000
,
00000000
00000000
00001000
00000000
00000000
00000000
01000000
00000000
00000000
00000000
00000000
00000000
00000000
00000000
00000000
01000000
00000000
00000000
00000000
00000000
00000000
00000000
00000000
00000000
,
01000000
00000000
00000000
00000000
00000000
00001000
00000000
00010000
00000000
00001000
00000000
00010000
,
00000000
00001000
00000000
00000100
00000000
00000000
00000001
00000000
00000000
00000001
00000000
00000000
,
00000100
00001000
00010000
01000000
,
10000000
00100000
00010000
00001000
,
00000010
00000000
00001000
00010000
00001000
00000000
00000100
00000010
,
00000100
00001000
00001000
00010000
,
01000000
00010000
00001000
01000000
,
00100000
00010000
00001000
00010000
,
00000000
00001000
00100000
01000000
,
00100000
00002000
00000000
00003100
,
00000000
00000000
00000000
00001000
00000000
00010000
00000000
00001000
00000000
00100000
00000000
00001000
,
00000000
00010000
00000000
00001000
00000000
00000000
00000000
00000000
00000000
00000110
00000000
00000000
,
00000000
00000000
00000001
00000010
00000001
00000000
00000010
00000000
,
00001000
00010000
00000000
00100000
,
10000000
00100000
10000000
00000000
00000000
00000000
01000000
00000000
,
00010000
00001000
00001000
00100000
,
00001000
00010000
00001000
00000000
00000100
00000000
00000001
00000000
,
00000000
00000000
00000100
00000010
00000100
00000000
00000001
00000000
,
00000100
00001000
00010000
00100000
,
00100000
00000000
01000000
00010000
01000000
00000000
00100000
00000000
,
00010000
00001000
00000000
00001000
,
00000000
00000000
00000010
00000001
00000010
00000000
00000100
00001000
,
00000100
00010000
00001000
00000100
,
00001000
00010000
00000000
00000000
00000000
00000000
00000000
00000000
,
00000000
00000000
00000000
00000000
;

//---------------dance-double - ----------------
#NOTEDATA:;
#CHARTNAME:;
#STEPSTYPE:dance-double;
#DESCRIPTION:;
#CHARTSTYLE:;
#DIFFICULTY:Hard;
#METER:12;
#RADARVALUES:0.604648,0.679325,0.170378,0.071738,0.188312,472.000000,453.000000,19.000000,8.000000,0.000000,0.000000,0.000000,0.000000,0.000000,0.604648,0.679325,0.170378,0.071738,0.188312,472.000000,453.000000,19.000000,8.000000,0.000000,0.000000,0.000000,0.000000,0.000000;
#CREDIT:;
#NOTES:
00000000
00000000
00000000
00000000
,
00000000
00000000
00000000
00000000
,
00000000
00000000
00000000
00000000
,
00000000
00000000
00000000
00000000
,
00000000
00000000
00000000
00000000
,
00000000
00000000
00000000
00000000
00000000
00000100
00000001
00000100
,
00000000
00001000
00000100
00000000
00001000
00000000
00010000
00100000
,
00000000
00010000
00001000
00000000
00010000
00000000
00000000
00000000
,
00010000
00001000
00010000
00001000
00000000
00000010
00001000
00000001
,
00000000
00000010
00000000
00001000
00000000
00001000
00010000
00000000
,
00001000
00000000
00001000
00000000
00000100
00000000
00000010
00000100
,
00001000
00000000
00010000
00000000
01000000
00100000
00010000
00100000
,
01000000
00000000
10000000
01000000
00000000
01000000
00010000
00000000
,
00010000
00001000
00000000
00001000
00010000
00000000
00000010
00010000
,
00001000
00000100
00000001
00001000
,
00000100
00000000
00010000
00000000
00001000
00010000
01000000
00010000
,
00001000
00000000
01000000
00000000
00100000
00010000
00001000
00100000
,
00001000
00100000
00001000
00010000
00001000
00010000
00001000
00000100
,
00000010
00000000
00001000
00000000
00000001
00000000
00001000
00000100
,
00001000
00000100
00010000
00000000
00001000
00000000
00000100
00000010
,
00000100
00000000
00000100
00001000
00000000
00001000
00010000
00000000
,
00010000
00100000
00000000
01000000
00100000
00000000
10010000
00000000
,
11000000
00000000
00010000
00000000
00001000
00000000
00010000
00001000
,
00010000
00001000
00010000
00000000
00000010
00000000
00010000
00002000
,
00000000
00013000
00001000
02000000
00000000
03100000
00010000
00002000
,
00000000
00013000
00001000
02000000
00000000
03100000
00010000
00000000
,
00001000
00010000
00001000
00010000
00000100
00001000
00000100
00001000
,
00000001
00000100
00000001
00000100
00000010
00000100
00000000
00001000
,
00010000
00001000
00010000
00001000
01000000
00010000
01000000
00010000
,
01000000
00000000
00100000
00000000
00000000
01100000
00000000
00000000
00100000
00000000
00000000
00010000
00000000
00000000
00001000
00000000
,
00010000
00001000
00010000
00001000
01000000
00010000
01000000
00010000
,
01000000
00100000
01000000
00100000
01000000
00001000
00000000
00010000
,
00001000
00010000
00001000
00010000
00000100
00001000
00000100
00001000
,
00000100
00000000
00010000
00000000
00000000
00011000
00000000
00000000
00010000
00000000
00000000
00100000
00000000
00000000
01000000
00000000
,
00010000
00000000
00000000
00000000
10000000
00000000
01000000
00100000
,
00010000
00100000
00001000
00010000
,
00001000
00000000
00000100
00000000
00000001
00000000
00001000
00000100
,
00000010
00001000
00010000
01000000
,
10010000
00000000
00000000
00000000
01000000
00100000
01000000
00100000
,
00000000
00100000
00010000
00000000
00000010
00010000
00001000
00000000
,
00011000
00000000
00000000
00000000
00000100
00000010
00000100
00000010
,
00000000
00000010
00001000
00000000
00100000
00001000
00010000
00000000
,
01000000
00000000
00000000
00000000
10000000
00000000
00100000
01000000
,
00010000
01000000
00001000
00010000
,
00001000
00010000
00001000
00010000
00001000
00010000
00000100
00000010
,
00000100
00000010
00000100
00000010
00001000
00010000
00001000
00010000
,
02000000
00000000
00000000
03000000
,
10000000
01000000
00010000
00001000
,
00000200
00000000
00000000
00000300
,
00000001
00000000
00000010
00000100
00000000
00001000
00000001
00000000
00000010
00000100
00000000
00001000
,
00000200
00000000
00000000
00000300
,
00010000
00001000
01000000
00100000
,
02000000
00000000
00000000
03000000
,
00000000
00000000
00000000
00000000
00000000
00000000
00010000
00001000
00010000
00001000
00010000
00001000
,
00010000
00000000
00000000
00001000
00010000
00000000
00000100
00000000
,
00000110
00000000
00000011
00000000
00000000
00000100
00001000
00000000
,
00000010
00010000
00001000
00010000
00000010
00000000
00000000
00001000
,
00010000
00000000
00000000
00011000
00000000
00000000
00100000
00000000
00000000
01000000
00000000
00010000
,
00000000
01000000
00000000
00100000
00000000
01000000
00000000
00100000
00000000
00010000
00000000
00001000
,
00000000
00010000
00000000
00001000
00000000
00000000
00000010
00000000
00000000
00000001
00000000
00000000
,
00000100
00000000
00001000
00000000
00010000
00000000
00100000
00010000
,
00001000
00000000
00000000
00010000
00000000
00000000
00100000
00000000
00000000
00010000
00000000
00001000
,
00000000
01000000
00000000
00100000
00000000
00000000
10000000
00000000
00000000
01000000
00000000
00000000
,
00010000
00000000
00000000
00001000
00000000
00000000
00011000
00000000
00000000
00001000
00000000
00000100
,
00000000
00000001
00000000
00000100
00000000
00000000
00000001
00000000
00000000
00000100
00000000
00001000
,
00000000
00000000
00010000
00000000
00000000
00000000
00001000
00000000
00000000
00000000
00000000
00000000
00000000
00000000
00000000
00100000
00000000
00000000
00000000
00000000
00000000
00000000
00000000
00000000
,
00011000
00000000
00000000
00000000
00000000
00100000
00000000
00010000
00000000
00001000
00000000
00010000
,
00000000
00000000
00100000
00000000
00000000
00000000
00010000
00000000
00000000
00001000
00000000
00000000
00010000
00000000
00000000
00001000
00000000
00000000
00100000
00000000
00000000
00001000
00000000
00000000
,
00010000
00001000
01000000
00010000
01000000
00100000
10000000
00100000
,
10000000
00000000
01000000
10000000
00010000
01000000
00001000
00010000
,
00001000
00010000
00000100
00010000
00000100
00000010
00000001
00000010
,
00000001
00000010
00000100
00000000
00000010
00000000
00001001
00000000
,
00000010
00001000
00010000
01100000
,
00010000
00000000
00001000
00000000
00000010
00000000
00001000
00010000
,
00000000
00000000
00000000
00001000
00000000
00000000
00010000
00000000
00000000
00001000
00000000
00000000
00010000
00000000
00000000
00000000
00000000
00000000
00000010
00000000
00000100
00000000
00000010
00000000
,
00000100
00000010
00000100
00000001
00000000
00000100
00000000
00001000
00000000
00010000
00000000
00001000
,
00000000
00010000
00000000
01000000
00000000
10000000
00000000
00100000
00000000
00010000
00000000
00001000
,
00000000
00000000
00010000
00000000
00000000
00000000
00001000
00000000
00000000
00000000
00000000
00000000
00000100
00000000
00000000
00000000
00000000
00000000
00000001
00000000
00000000
00000100
00000000
00000000
,
00000001
00000000
00000010
00000000
00001000
00000000
00010000
00001000
,
00010000
00100000
00010000
00000000
00000000
00000000
00100000
01000000
,
00100000
00010000
00100000
00000000
00010000
00000000
00011000
00000000
,
00001100
00000000
00000101
00000000
00000000
00000000
00000010
00000001
,
00000010
00000100
00000010
00000000
00001000
00000000
00011000
00000000
,
01001000
00000000
00001000
00010000
00001000
00010000
00000100
00001000
,
00000100
00001000
00000001
00001000
00000001
00000100
00000010
00000100
,
00000000
00001000
00010000
00001000
00010000
00001000
01000000
00010000
,
01000000
00000000
00010000
00000000
01000000
00000000
00100000
00000000
00000000
01100000
00000000
00000000
00100000
00000000
00000000
00010000
,
00000000
00001000
00010000
00001000
00010000
00000000
00001000
00000100
,
00000010
00000000
00000100
00000000
00001000
00010000
00000000
01000000
,
00100000
01000000
00000000
00000000
00000000
00000000
00000000
00000000
,
00000000
00000000
00000000
00000000
;

//---------------dance-single - ----------------
#NOTEDATA:;
#CHARTNAME:;
#STEPSTYPE:dance-single;
#DESCRIPTION:;
#CHARTSTYLE:;
#DIFFICULTY:Challenge;
#METER:18;
#RADARVALUES:1.068383,1.720029,0.654609,0.260050,0.986397,834.000000,761.000000,73.000000,29.000000,0.000000,0.000000,0.000000,0.000000,0.000000,1.068383,1.720029,0.654609,0.260050,0.986397,834.000000,761.000000,73.000000,29.000000,0.000000,0.000000,0.000000,0.000000,0.000000;
#CREDIT:;
#OFFSET:0.000000;
#BPMS:0.000000=198.000000
,237.000000=99.000000
,253.000000=198.000000
;
#STOPS:;
#DELAYS:;
#WARPS:;
#TIMESIGNATURES:0.000000=4=4
;
#TICKCOUNTS:0.000000=4
;
#COMBOS:0.000000=1
;
#SPEEDS:0.000000=1.000000=0.000000=0
;
#SCROLLS:0.000000=1.000000
;
#FAKES:;
#LABELS:0.000000=Song Start
;
#NOTES:
// measure 0
0000
0000
0000
0000
,  // measure 1
0000
0000
0000
0000
,  // measure 2
0000
0000
0000
0000
,  // measure 3
0000
0000
0000
0000
,  // measure 4
0000
0000
0000
0000
,  // measure 5
0000
0000
0000
0000
0000
0001
1000
1200
,  // measure 6
0000
0000
1300
0000
0001
0010
0001
0000
0100
0000
0010
0000
1000
0000
0020
0000
,  // measure 7
0000
0000
0130
0001
0100
0001
0010
0000
0001
1000
0001
0000
0100
0000
0010
0000
,  // measure 8
0100
0001
0010
1020
0000
0031
1000
2100
,  // measure 9
0000
3100
0010
0021
0000
0130
2000
0000
,  // measure 10
3001
0000
0100
0000
0101
0000
0000
0000
1000
0000
0010
0000
0001
0000
0010
1000
,  // measure 11
0010
0100
0001
1000
0010
0100
0010
0100
,  // measure 12
0101
0000
0001
0011
0000
0010
1010
0000
,  // measure 13
1000
1010
0000
0001
0011
0000
1000
2000
,  // measure 14
0001
0000
3002
0000
0100
0000
0203
0000
0010
0000
1300
0000
0000
0000
1000
0001
,  // measure 15
1000
0000
0000
0000
1000
0000
0001
0010
0001
0000
0100
0000
1000
0000
0100
0000
,  // measure 16
0101
0000
0000
0000
0001
0000
1000
0000
0010
0000
1000
0000
0001
1000
0001
0000
,  // measure 17
0010
0100
0010
0000
0100
1000
0100
0000
1000
0100
1000
0000
0001
0100
0001
0100
,  // measure 18
0010
0000
0010
0000
1100
0000
0100
0000
1000
0000
1001
0000
0001
0100
0001
0000
,  // measure 19
0001
0100
0010
0000
1000
0000
0010
1000
0010
0000
1000
0000
0100
0010
0100
0010
,  // measure 20
0100
1000
0010
1000
0010
1000
0010
0000
0100
0000
0010
0000
1000
0001
1000
0001
,  // measure 21
0100
0001
0100
0001
0010
0100
0010
0100
1000
0001
1000
0001
0100
0000
0000
0000
,  // measure 22
0110
0000
0100
0000
0001
0100
0001
0010
0001
0000
0100
0000
0010
1000
0100
0001
,  // measure 23
0100
0000
0010
0000
1000
0100
1000
0000
0001
0000
0010
0000
0100
0010
0002
0000
,  // measure 24
0000
0000
0103
0000
0010
0000
1020
0000
0000
0000
1030
0100
0010
0100
0002
0000
,  // measure 25
0000
0000
0103
1000
0010
0100
0020
0000
0100
0000
0031
1000
0001
1000
0001
1000
,  // measure 26
0010
0000
0100
0000
0010
0000
0100
0000
0001
1000
0010
0000
1000
0000
0001
0000
,  // measure 27
1000
0010
1000
0000
0001
0000
0100
0000
0001
0000
0100
1000
0100
0000
0100
0001
,  // measure 28
0100
0010
1000
0100
0010
0001
1000
0100
,  // measure 29
0010
0001
0100
0000
0000
1010
0000
0000
0110
0000
0000
0101
0000
0000
1000
0000
,  // measure 30
0001
0100
0001
1000
0001
0000
0100
0000
0001
0000
0010
1000
0010
1000
0010
0000
,  // measure 31
0001
0000
0100
1000
0100
1000
0100
0000
0001
0000
0100
0001
0100
0000
1000
0001
,  // measure 32
1000
0100
1000
0100
0001
0100
0001
0100
,  // measure 33
1000
0001
1000
0000
0000
1001
0000
0000
0101
0000
0000
0100
0001
1000
0001
0100
,  // measure 34
0001
0000
1000
0000
0100
0000
1000
0000
1020
0000
0000
0000
1030
0000
0001
0010
,  // measure 35
0001
0000
0000
0100
0000
0000
0020
0000
0000
0000
0000
0000
1030
0000
0000
0000
0110
0000
0000
0000
0011
0000
0000
0000
,  // measure 36
1002
0000
0000
0000
0103
0000
0010
1000
0010
0000
0100
0000
0102
0000
1000
0000
,  // measure 37
0013
0000
1000
0000
0001
0000
0010
0001
0010
0000
0100
0000
1000
0000
0001
0000
,  // measure 38
0101
0000
0100
0000
0110
0000
0010
0000
1000
0100
1000
0000
0001
0000
0101
0000
,  // measure 39
0000
0000
0010
0000
0011
0000
0001
0000
1000
0001
1000
0000
0010
0000
0100
0000
,  // measure 40
1001
0000
1000
0000
0001
0000
0010
0000
0001
0100
0001
0000
1000
0000
1200
0000
,  // measure 41
0000
0000
0310
0000
0001
1000
0001
0000
1000
0000
0001
0000
0010
0100
0010
0100
,  // measure 42
1000
0000
0100
0000
1000
0001
1000
0001
0010
0000
0100
0000
0010
0100
1000
0001
,  // measure 43
1000
0000
0000
0000
0000
0000
0100
0000
0000
0000
0000
0000
0010
0000
0000
0001
0000
0000
1000
0000
0000
0001
0000
0000
0100
0000
0000
0000
0000
0000
0000
0000
1001
0000
0000
0000
0000
0000
0000
0000
1001
0000
0000
0000
0000
0000
0000
0000
,  // measure 44
0100
0000
0001
1000
0001
1000
0001
0000
1000
0000
0010
0100
0010
0000
0100
0000
,  // measure 45
0001
0010
0001
0000
1000
0000
0100
0010
0001
0000
0100
0000
0001
0010
0100
1000
,  // measure 46
0001
0010
1000
0010
0001
0010
1000
0010
,  // measure 47
0001
0100
0010
0000
1000
0000
0010
0000
1010
0000
0010
0000
0101
0000
0100
0000
,  // measure 48
0110
0000
0010
0000
1000
0100
1000
0000
0001
0000
1000
0000
0010
0100
0001
0000
,  // measure 49
1001
0000
0010
0100
0000
1000
0001
0000
0010
1000
0000
0100
,  // measure 50
1000
0000
0001
0000
0100
0000
0001
0000
1000
0000
0001
0000
0010
0001
1000
0000
,  // measure 51
0100
0010
0001
0000
0100
0000
0010
0000
0001
0100
0010
1000
0010
0100
0001
0000
,  // measure 52
0100
0000
0001
0000
0010
0001
0010
0000
0100
0000
0010
0000
0100
1000
0100
0000
,  // measure 53
0010
0000
0000
0001
0000
0000
1001
0000
0000
1000
0000
0000
0010
0000
0001
0000
1000
0000
0100
0000
0001
0000
0100
0000
,  // measure 54
1000
0000
0001
0000
0010
0000
0100
1000
0100
1000
0001
0000
1100
0000
1000
0000
,  // measure 55
1001
0000
0001
0000
0100
0000
0010
0000
1000
0000
0001
0100
0001
0000
1000
0000
,  // measure 56
0001
1000
0010
0000
0010
0100
0001
0000
1000
0000
0100
0000
0010
0000
0001
1000
,  // measure 57
0100
0000
0000
1000
0000
0000
0101
0000
0000
0001
0000
0000
1001
0000
0000
1000
0000
0000
0100
1000
0100
1000
0100
1000
,  // measure 58
0100
0000
0001
0000
0010
0000
0001
0010
0001
0000
0100
0000
1000
0100
1000
0000
0100
0000
1000
0000
0010
0000
0100
0000
,  // measure 59
0001
0000
0010
0000
0001
0000
0000
0000
1000
0000
0000
0000
0002
0000
0000
0000
0000
0000
0013
0000
0000
0100
0000
0000
1001
0000
0000
0000
0000
0000
0100
0000
0000
0010
0000
0000
1002
0000
0000
0000
0000
0000
0103
0000
0000
1000
0000
0000
,  // measure 60
0010
0000
0000
1000
0000
0000
0010
0000
0000
0000
0000
0000
1002
0000
0000
0000
0000
0000
0103
0000
0000
0000
0000
0000
1010
0000
0000
0000
0010
0000
0000
0000
0100
0000
0000
0000
0001
0000
0010
0000
0001
0000
1000
0000
0001
0000
0100
0000
,  // measure 61
0010
0000
0000
0000
0000
0000
0000
0000
1000
0000
0000
0000
0000
0000
0000
0000
0010
0000
0000
0000
0000
0000
0000
0000
0100
0000
0000
0000
0000
0000
0000
0000
0001
0000
0000
0000
0000
0000
0000
0000
0010
0000
0000
0000
0000
0000
0000
0000
0001
0000
0000
0000
0000
0000
0000
0000
0000
0000
0000
0000
0000
0000
0000
0000
0000
0000
0000
0000
0000
0000
0000
0000
1001
0000
0000
0000
0000
0000
0000
0000
0000
0000
0000
0000
0000
0000
0000
0000
0000
0000
0000
0000
0000
0000
0000
0000
0101
0000
0000
0000
0000
0000
0000
0000
0000
0000
0000
0000
0000
0000
0000
0000
1001
0000
0000
0000
0000
0000
0000
0000
0000
0000
0000
0000
0000
0000
0000
0000
1010
0000
0000
0000
0000
0000
0000
0000
0000
0000
0000
0000
0000
0000
0000
0000
2010
0000
0000
0000
0000
0000
0000
0000
0000
0000
0000
0000
0000
0000
0000
0000
0000
0000
0000
0000
0000
0000
0000
0000
3001
0000
0000
0000
0000
0000
0010
0000
0000
0000
0000
0000
0001
0000
0000
0000
0000
0000
0010
0000
0000
0000
0000
0000
,  // measure 62
0001
0000
0000
0000
0000
0000
0000
0000
0000
0000
0000
0000
0000
0000
0000
0000
0101
0000
0000
0000
0000
0000
0000
0000
0000
0000
0000
0000
0000
0000
0000
0000
0110
0000
0000
0000
0000
0000
0000
0000
0000
0000
0000
0000
0000
0000
0000
0000
1001
0000
0000
0000
0000
0000
0000
0000
0000
0000
0000
0000
1000
0000
0000
0000
0000
0000
0000
0000
0000
0000
0000
0000
0010
0000
0000
0000
0000
0000
0000
0000
0000
0000
0000
0000
0110
0000
0000
0000
0000
0000
0000
0000
0000
0000
0000
0000
0100
0000
0000
0000
0000
0000
0000
0000
0000
0000
0000
0000
0001
0000
0000
0000
0000
0000
0000
0000
0000
0000
0000
0000
1001
0000
0000
0000
0000
0000
0000
0000
0000
0000
0000
0000
1000
0000
0000
0000
0000
0000
0100
0000
0000
0000
0000
0000
1000
0000
0000
0000
0000
0000
0000
0000
0000
0000
0000
0000
0000
0000
0000
0000
0001
0000
0000
0000
0000
0000
0000
0000
0000
0000
0000
0000
0000
0000
0000
0000
0100
0000
0000
0000
0000
0000
0000
0000
0000
0000
0000
0000
0000
0000
0000
0000
,  // measure 63
1000
0000
0000
0000
0100
0000
0000
0000
0001
0000
0000
0000
1000
0000
0000
0100
0000
0000
1000
0000
0000
0100
0000
0000
1000
0000
0000
0000
0000
0000
0010
0000
0000
0000
0000
0000
0100
0000
0000
0000
0000
0000
0001
0000
0000
0000
0000
0000
,  // measure 64
0010
0000
0001
0000
1000
0001
1000
0010
1000
0000
0001
0000
0100
0010
0100
0000
,  // measure 65
0001
0000
0100
0010
1000
0000
0001
0000
1000
0000
0100
0000
0001
0000
0100
0000
,  // measure 66
1000
0001
0010
0001
1000
0000
0100
0010
0100
0000
0010
0000
0001
0100
0010
1000
,  // measure 67
0010
1000
0100
0000
0001
0000
0100
0000
1000
0000
0000
0000
2100
0000
0000
0000
,  // measure 68
3010
0000
0000
0000
0102
0000
0100
0000
0013
0000
0000
0000
1100
0000
1000
0001
,  // measure 69
1000
0000
0210
0010
0301
0001
0000
0101
,  // measure 70
0000
0000
0000
0000
0000
0000
0010
0000
0000
0000
0000
0000
1000
0000
0000
0000
0000
0000
0010
0000
0000
1000
0000
0000
0010
0000
0000
1000
0000
0000
0010
0000
0000
1000
0000
0000
0100
0000
0000
0000
0010
0000
0000
0000
0001
0000
0000
0000
,  // measure 71
0100
0010
1000
0001
0000
0100
0000
0001
0000
1001
0000
1000
,  // measure 72
0000
0010
0000
0110
0000
0100
0000
0001
0000
0011
0000
0010
,  // measure 73
0000
0000
0100
0000
0000
0000
1100
0000
0000
0000
1000
0000
0000
0000
0001
0000
0000
0000
1001
0000
0000
0100
0000
0000
,  // measure 74
1000
0000
0001
0000
0010
0000
0100
0000
0010
0001
0010
0001
1000
0100
1000
0100
,  // measure 75
1000
0010
1000
0010
2000
0000
0000
0000
3001
0000
0000
0000
0001
0000
1000
0000
,  // measure 76
0010
1000
1002
0000
1003
0010
1010
0000
,  // measure 77
0011
0000
0000
0201
0000
0000
0302
0000
0000
0013
0000
0001
,  // measure 78
0000
1000
0000
0010
0000
1000
0000
0001
0000
0100
0000
0001
,  // measure 79
0000
0000
0000
0000
0100
0000
0000
0000
0000
0000
0000
0000
0010
0000
0000
0000
0000
0000
1000
0000
0000
0000
0000
0000
0010
0000
0000
0100
0000
0000
0001
0000
0000
0000
0000
0000
1000
0000
0000
0001
0000
0000
1000
0000
0000
0000
0000
0000
,  // measure 80
0010
0100
0010
0000
1000
0001
1000
0000
0010
0000
0100
0000
0001
0000
0010
0100
,  // measure 81
0010
0000
0010
0100
0010
0000
1000
0010
0100
0010
0001
0000
0010
0000
1000
0010
,  // measure 82
0100
0000
0100
0001
0100
0000
1000
0000
0000
1100
0000
0000
0110
0000
0000
0011
,  // measure 83
0000
0000
1000
0001
1000
0000
0100
0000
0010
0100
0010
0000
0001
0000
0100
0000
,  // measure 84
0001
0010
0001
0000
1000
0010
1000
0000
0100
0000
0010
0100
1000
0000
0001
0000
,  // measure 85
0010
0100
1000
0001
1000
0000
0000
0000
0000
0000
0000
0000
0000
0000
0000
0000
;

//---------------dance-single - OG EDIT----------------
#NOTEDATA:;
#CHARTNAME:;
#STEPSTYPE:dance-single;
#DESCRIPTION:OG EDIT;
#CHARTSTYLE:;
#DIFFICULTY:Edit;
#METER:17;
#RADARVALUES:1.010736,1.200490,0.600805,0.224181,0.753248,789.000000,722.000000,67.000000,25.000000,0.000000,0.000000,0.000000,0.000000,0.000000,1.010736,1.200490,0.600805,0.224181,0.753248,789.000000,722.000000,67.000000,25.000000,0.000000,0.000000,0.000000,0.000000,0.000000;
#CREDIT:;
#NOTES:
// measure 0
0000
0000
0000
0000
,  // measure 1
0000
0000
0000
0000
,  // measure 2
0000
0000
0000
0000
,  // measure 3
0000
0000
0000
0000
,  // measure 4
0000
0000
0000
0000
,  // measure 5
0000
0000
0000
0000
0000
0001
1000
1200
,  // measure 6
0000
0000
1300
0000
0001
0010
0001
0000
0100
0000
0010
0000
1000
0000
0020
0000
,  // measure 7
0000
0000
0130
0001
0100
0001
0010
0000
0001
1000
0001
0000
0100
0000
0010
0000
,  // measure 8
0100
0001
0010
1020
0000
0031
1000
2100
,  // measure 9
0000
3100
0010
0021
0000
0130
2000
0000
,  // measure 10
3001
0000
0100
0000
0101
0000
0000
0000
1000
0000
0010
0000
0001
0000
0010
1000
,  // measure 11
0010
0100
0001
1000
0010
0100
0010
0100
,  // measure 12
0101
0000
0001
0011
0000
0010
1010
0000
,  // measure 13
1000
1010
0000
0001
0011
0000
1000
2000
,  // measure 14
0001
0000
3002
0000
0100
0000
0203
0000
0010
0000
1300
0000
0000
0000
1000
0001
,  // measure 15
1000
0000
0000
0000
1000
0000
0001
0010
0001
0000
0100
0000
1000
0000
0100
0000
,  // measure 16
0101
0000
0000
0000
0001
0000
1000
0000
0010
0000
1000
0000
0001
1000
0001
0000
,  // measure 17
0010
0100
0010
0000
0100
1000
0100
0000
1000
0100
1000
0000
0001
0100
0001
0100
,  // measure 18
0010
0000
0010
0000
1100
0000
0100
0000
1000
0000
1001
0000
0001
0100
0001
0000
,  // measure 19
0001
0100
0010
0000
1000
0000
0010
1000
0010
0000
1000
0000
0100
0010
0100
0010
,  // measure 20
0100
1000
0010
1000
0010
1000
0010
0000
0100
0000
0010
0000
1000
0001
1000
0001
,  // measure 21
0100
0001
0100
0001
0010
0100
0010
0100
1000
0001
1000
0001
0100
0000
0000
0000
,  // measure 22
0110
0000
0100
0000
0001
0100
0001
0010
0001
0000
0100
0000
0010
1000
0100
0001
,  // measure 23
0100
0000
0010
0000
1000
0100
1000
0000
0001
0000
0010
0000
0100
0010
0002
0000
,  // measure 24
0000
0000
0013
0000
0100
0000
2100
0000
0000
0000
3010
0100
0010
0100
0002
0000
,  // measure 25
0000
0000
0013
0000
0100
0000
2100
0000
0100
0000
3010
0001
1000
0001
1000
0001
,  // measure 26
1000
0100
0010
0100
0001
0100
0010
0100
,  // measure 27
0001
0000
0100
0000
0010
0000
0100
0000
0001
0000
0100
1000
0100
0000
0100
0010
,  // measure 28
0100
0100
0010
0100
1000
0100
0010
0100
,  // measure 29
0001
0010
0001
0000
0000
1010
0000
0000
0110
0000
0000
0101
0000
0000
1000
0000
,  // measure 30
0001
0100
1000
0100
0001
0010
1000
0010
,  // measure 31
0001
0000
0100
0000
1000
0000
0100
0000
0001
0000
0100
0001
0100
0000
1000
0001
,  // measure 32
1000
0100
1000
0100
0001
0100
0001
0100
,  // measure 33
1000
0001
1000
0000
0000
1001
0000
0000
0101
0000
0000
0100
0001
1000
0001
0100
,  // measure 34
0001
0000
1000
0000
0100
0000
1000
0000
0020
0000
0000
0000
1030
0000
0100
0010
,  // measure 35
0100
0000
0000
0001
0000
0000
0200
0000
0000
0000
0000
0000
1300
0000
0000
0000
0010
0000
0000
0000
0001
0000
0000
0000
,  // measure 36
1001
0000
0100
0000
0010
0000
1000
0010
1000
0000
0100
0000
0001
0000
0100
1000
,  // measure 37
0010
0000
1000
0000
0001
0000
0010
0001
0010
0000
0100
0000
1000
0000
0001
0000
,  // measure 38
1001
0000
1001
0100
0001
0100
1000
0100
,  // measure 39
0000
0000
0010
0000
0011
0000
0000
0000
1000
0001
1000
0000
0010
0000
0100
0000
,  // measure 40
1001
0000
1000
0000
0001
0000
0010
0000
0001
0100
0001
0000
1000
0000
1200
0000
,  // measure 41
0000
0310
0010
0001
1000
0001
0010
0100
,  // measure 42
1000
0000
0100
0000
1000
0001
1000
0000
0001
0000
0100
0000
0010
0000
1000
0001
,  // measure 43
1000
0000
0000
0000
0000
0000
0100
0000
0000
0000
0000
0000
0010
0000
0000
0000
0000
0000
0001
0000
0000
0010
0000
0000
0001
0000
0000
0000
0000
0000
0000
0000
1000
0000
0000
0000
0000
0000
0000
0000
1000
0000
0000
0000
0000
0000
0000
0000
,  // measure 44
0010
0000
0001
0000
0001
1000
0001
0000
1000
0000
0010
0100
0010
0000
0100
0000
,  // measure 45
0001
0010
0001
0000
1000
0000
0100
0010
0001
0000
0100
0000
0001
0010
0100
1000
,  // measure 46
0001
0010
1000
0010
0001
0010
1000
0010
,  // measure 47
0001
0100
0010
0000
1000
0000
0010
0000
1010
0000
0010
0000
0101
0000
0100
0000
,  // measure 48
0110
0010
1000
0100
1000
0010
1000
0001
,  // measure 49
1001
0000
0010
0100
0000
1000
0001
0000
0010
1000
0000
0100
,  // measure 50
1000
0000
0001
0000
0100
0000
0001
0000
1000
0000
0001
0000
0010
0001
1000
0000
,  // measure 51
0100
0010
0001
0000
0100
0000
0010
0001
0010
0000
0100
0000
1000
0001
1000
0010
,  // measure 52
0100
0001
0010
0001
1000
0010
1000
0100
,  // measure 53
0010
0000
0000
0001
0000
0000
1001
0000
0000
1000
0000
0000
0010
0000
0001
0000
1000
0000
0100
0000
0001
0000
0100
0000
,  // measure 54
1000
0000
0001
0000
0010
0000
0100
1000
0100
1000
0001
0000
1100
0000
1000
0000
,  // measure 55
1001
0000
0001
0000
0100
0000
0010
0000
1000
0000
0001
0100
0001
0000
1000
0000
,  // measure 56
0001
1000
0010
0000
0010
0100
0001
0000
1000
0000
0100
0000
0010
0000
0001
1000
,  // measure 57
0100
0000
0000
1000
0000
0000
0101
0000
0000
0001
0000
0000
1001
0000
0000
1000
0000
0000
0100
0000
1000
0000
0100
0000
,  // measure 58
1000
0001
0010
0001
0010
0100
1000
0100
1000
0001
0010
0001
,  // measure 59
0010
0000
0100
0000
1000
0000
0002
0000
0000
0000
0000
0000
0013
0000
0000
0100
0000
0000
1001
0000
0000
0000
0000
0000
,  // measure 60
0100
0010
1002
0000
0103
1000
0010
1000
,  // measure 61
0010
0000
0000
1002
0000
0000
0103
0000
0000
1010
0000
0010
,  // measure 62
0000
0100
0000
0001
0010
0001
1000
0001
0100
0010
1000
0010
,  // measure 63
0100
0001
0010
0001
0000
0000
1001
0000
0000
0101
0000
0001
,  // measure 64
0000
0000
0000
0000
0010
0000
0000
0000
0000
0000
0000
0000
2010
0000
0000
0000
0000
0000
0000
0000
0000
0000
0000
0000
3001
0000
0000
0010
0000
0000
0001
0000
0000
0010
0000
0000
0001
0000
0000
0000
0000
0000
0000
0000
0100
0000
0000
0000
,  // measure 65
0000
0000
0010
0000
0000
0000
1001
0000
0000
1000
0000
0000
0010
0000
0000
0110
0000
0000
0100
0000
0000
0001
0000
0000
,  // measure 66
1001
0000
0000
0000
0000
0000
1000
0000
0000
0100
0000
0000
1000
0000
0000
0000
0000
0000
0000
0000
0001
0000
0000
0000
0000
0000
0000
0000
0100
0000
0000
0000
0000
0000
0000
0000
1000
0000
0000
0000
0000
0000
0000
0000
0100
0000
0000
0000
,  // measure 67
0000
0000
0001
0000
0000
0000
1000
0000
0000
0100
0000
0000
1000
0000
0000
0010
0000
0000
0100
0000
0000
0001
0000
0000
,  // measure 68
0010
0100
1000
0100
0010
0001
1000
0010
,  // measure 69
1000
0000
0100
0010
0001
0000
1000
0000
0010
0000
0100
0000
0001
0000
1000
0000
,  // measure 70
0100
0000
0100
0000
1000
0000
0100
0010
0100
0000
0010
0000
0001
0100
0010
1000
,  // measure 71
0010
1000
0100
0000
0001
0000
1000
0000
0100
0000
0000
0000
2100
0000
0000
0000
,  // measure 72
3010
0000
0000
0000
0102
0000
0100
0000
0013
0000
0000
0000
1100
0000
1000
0001
,  // measure 73
1000
0000
0210
0010
0301
0001
0000
0101
,  // measure 74
0000
0000
0000
0000
0000
0000
0010
0000
0000
0000
0000
0000
1000
0000
0000
0000
0000
0000
0010
0000
0000
1000
0000
0000
0010
0000
0000
1000
0000
0000
0010
0000
0000
1000
0000
0000
0100
0000
0000
0000
0010
0000
0000
0000
0001
0000
0000
0000
,  // measure 75
0100
0010
1000
0001
0000
0100
0000
0001
0000
1001
0000
1000
,  // measure 76
0000
0010
0000
0110
0000
0100
0000
0001
0000
0011
0000
0010
,  // measure 77
0000
0000
0100
0000
0000
0000
1100
0000
0000
0000
1000
0000
0000
0000
0001
0000
0000
0000
1001
0000
0000
0100
0000
0000
,  // measure 78
1000
0000
0001
0000
0010
0000
0100
0000
0010
0001
0010
0001
1000
0001
1000
0001
,  // measure 79
1000
0001
1000
0000
1001
0000
0000
0000
1000
0000
0000
0000
0001
0000
1000
0000
,  // measure 80
0010
1000
1002
0000
1003
0010
1010
0000
,  // measure 81
0011
0000
0201
0000
0301
0000
0010
0001
,  // measure 82
1000
0100
0010
0001
0011
0000
1100
0000
,  // measure 83
1001
0000
0000
0000
1000
0000
0100
0000
0010
0000
0100
0000
1000
0001
1000
0000
,  // measure 84
0010
0000
0100
0000
0001
0100
0001
0000
0010
0000
0001
0000
1000
0000
0010
0001
,  // measure 85
0010
0000
0010
0001
0010
0000
0100
0010
0100
0000
0001
0000
1000
0000
0100
0010
,  // measure 86
0100
0000
0100
0001
0100
0000
1000
0000
0000
1100
0000
0000
0110
0000
0000
0011
,  // measure 87
0000
0000
1000
0001
1000
0000
0100
0000
0010
0100
0010
0000
0001
0000
0100
0000
,  // measure 88
0001
0010
0001
0000
1000
0010
1000
0000
0100
0000
0010
0100
1000
0000
0001
0000
,  // measure 89
0010
0100
1000
0001
1000
0000
0000
0000
0000
0000
0000
0000
0000
0000
0000
0000
;
