#VERSION:0.83;
#TITLE:Crazy Hot;
#SUBTITLE:;
#ARTIST:NJK Record feat.nachi;
#TITLETRANSLIT:;
#SUBTITLETRANSLIT:;
#ARTISTTRANSLIT:;
#GENRE:;
#ORIGIN:;
#CREDIT:;
#BANNER:;
#BACKGROUND:;
#PREVIEWVID:;
#JACKET:Crazy Hot-jacket.png;
#CDIMAGE:;
#DISCIMAGE:;
#LYRICSPATH:;
#CDTITLE:;
#MUSIC:Crazy Hot.ogg;
#OFFSET:0.000000;
#SAMPLESTART:85.802193;
#SAMPLELENGTH:12.000000;
#SELECTABLE:YES;
#BPMS:0.000=162.000;
#STOPS:;
#DELAYS:;
#WARPS:;
#TIMESIGNATURES:0.000=4=4;
#TICKCOUNTS:0.000=4;
#COMBOS:0.000=1;
#SPEEDS:0.000=1.000=0.000=0;
#SCROLLS:0.000=1.000;
#FAKES:;
#LABELS:0.000=Song Start;
#BGCHANGES:;
#KEYSOUNDS:;
#ATTACKS:
;

//---------------dance-single - ----------------
#NOTEDATA:;
#CHARTNAME:;
#STEPSTYPE:dance-single;
#DESCRIPTION:;
#CHARTSTYLE:;
#DIFFICULTY:Beginner;
#METER:3;
#RADARVALUES:0.144017,0.197240,0.043831,0.113961,0.000000,115.000000,110.000000,5.000000,13.000000,0.000000,0.000000,0.000000,0.000000,0.000000,0.144017,0.197240,0.043831,0.113961,0.000000,115.000000,110.000000,5.000000,13.000000,0.000000,0.000000,0.000000,0.000000,0.000000;
#CREDIT:;
#NOTES:
0000
0000
0000
0000
,
0000
0000
0000
0000
,
0000
0000
0000
0000
,
0000
0000
0000
0000
,
0000
0000
0000
0000
,
0000
0000
0000
0000
,
0010
0000
0010
0000
,
0001
0000
0001
0000
,
1000
0000
1000
0000
,
0100
0000
0100
0000
,
0010
0000
0001
0000
,
0010
0000
0000
0000
,
0100
0000
1000
0000
,
0100
0000
0000
0000
,
0010
0000
0001
0000
,
1000
0000
0000
0000
,
0010
0000
0100
0000
,
1001
0000
0000
0000
,
0010
0000
0010
0000
,
0001
0000
0001
0000
,
0020
0000
0030
0000
,
0200
0000
0300
0000
,
0100
0000
1000
0000
,
0010
0000
0000
0000
,
0200
0000
0300
0000
,
0020
0000
0030
0000
,
1000
0000
1000
0000
,
0100
0000
0000
0000
,
0010
0000
0001
0000
,
0002
0000
0003
0000
,
0001
0000
0010
0000
,
0100
0000
0000
0000
,
1000
0000
0001
0000
,
0010
0000
0100
0000
,
1000
0000
1000
0000
,
0020
0000
0030
0000
,
0100
0000
0100
0000
,
0020
0000
0030
0000
,
1000
0000
1000
0000
,
0001
0000
0001
0000
,
0200
0000
0300
0000
,
0002
0000
0003
0000
,
0100
0000
0010
0000
,
1000
0000
0000
0000
,
0001
0000
0010
0000
,
0100
0000
0000
0000
,
0010
0000
0010
0000
,
0100
0000
0100
0000
,
1000
0000
0001
0000
,
1001
0000
0000
0000
,
0100
0000
0001
0000
,
0001
0000
1000
0000
,
1000
0000
0010
0000
,
0100
0000
0001
0000
,
2000
0000
3000
0000
,
0010
0000
0010
0000
,
0200
0000
0300
0000
,
0020
0000
0030
0000
,
1000
0000
1000
0000
,
0001
0000
0000
0000
,
0001
0000
1000
0000
,
1000
0000
0000
0000
,
0002
0000
0003
0000
,
1000
0000
1000
0000
,
0001
0000
0010
0000
,
1001
0000
0000
0000
,
0010
0000
0010
0000
,
0001
0000
0000
0000
,
1000
0000
1000
0000
,
0010
0000
0000
0000
,
0100
0000
0100
0000
,
0001
0000
0001
0000
,
0010
0000
0100
0000
,
1001
0000
0000
0000
,
0100
0000
0100
0000
,
1001
0000
0000
0000
;

//---------------dance-single - ----------------
#NOTEDATA:;
#CHARTNAME:;
#STEPSTYPE:dance-single;
#DESCRIPTION:;
#CHARTSTYLE:;
#DIFFICULTY:Easy;
#METER:6;
#RADARVALUES:0.316837,0.397111,0.201624,0.122727,0.000000,253.000000,230.000000,23.000000,14.000000,0.000000,0.000000,0.000000,0.000000,0.000000,0.316837,0.397111,0.201624,0.122727,0.000000,253.000000,230.000000,23.000000,14.000000,0.000000,0.000000,0.000000,0.000000,0.000000;
#CREDIT:;
#NOTES:
0000
0000
0000
0000
,
0000
0000
0000
0000
,
0000
0000
0000
0000
,
0000
0000
0000
0000
,
0000
0000
0000
0000
,
0000
0000
0000
0000
,
0010
0001
0010
0001
,
1000
0100
1000
0100
,
0010
0001
1000
0100
,
0010
0100
1001
0000
,
0100
0100
0010
0010
,
1000
0100
0010
0001
,
1000
1000
0001
0001
,
0100
0010
1000
0100
,
0010
0010
0001
0001
,
2000
0000
3100
0100
,
0010
0010
0100
0100
,
1001
0000
0110
0000
,
0010
1000
0010
0100
,
0001
0010
0001
1000
,
0010
0100
0001
0100
,
0020
0000
0130
0000
,
0110
0000
1001
0000
,
0010
0100
0010
0000
,
0200
0300
0020
0030
,
2000
0000
3000
0000
,
0001
0100
0001
1000
,
0100
0010
0100
1000
,
0001
0010
0100
1000
,
0200
0000
0310
0000
,
1001
0000
0110
0000
,
0001
1000
0001
0000
,
0001
0010
0001
1000
,
0010
0010
1000
1000
,
0001
0100
0001
1000
,
0020
0000
0100
0130
,
0001
1000
0001
0010
,
0100
0010
0100
1000
,
0010
1000
0010
0100
,
0001
0010
0001
1000
,
0200
0000
0000
0300
,
2000
0000
3001
0000
,
0100
0001
0010
0001
,
1000
0100
0001
0100
,
1000
1000
0010
0010
,
0100
0001
1001
0000
,
0020
0000
0030
0001
,
0100
0100
0100
0000
,
1001
0000
0110
0000
,
0001
1000
1001
0000
,
0100
1000
0001
0100
,
0001
0010
1000
0010
,
0001
0001
1000
1000
,
0010
0100
0110
0000
,
0002
0000
0003
1000
,
0010
0010
0010
0000
,
0110
0000
1001
0000
,
0010
0100
0110
0000
,
1000
0010
1000
0001
,
0100
0010
1000
0001
,
1000
0100
0001
0100
,
1000
0001
1001
0000
,
0002
0000
0003
0010
,
1000
1000
1000
0000
,
1001
0000
0110
0000
,
0001
1000
1001
0000
,
0010
1000
0010
1000
,
0001
0010
0001
0010
,
0100
0100
1000
1000
,
0010
0100
0001
1000
,
0100
0010
0100
0010
,
0001
0100
0001
0100
,
0010
0010
0100
0100
,
0110
0000
1001
1001
,
0100
1000
0100
0010
,
0220
0000
0330
0000
;

//---------------dance-single - ----------------
#NOTEDATA:;
#CHARTNAME:;
#STEPSTYPE:dance-single;
#DESCRIPTION:;
#CHARTSTYLE:;
#DIFFICULTY:Medium;
#METER:10;
#RADARVALUES:0.454592,0.496388,0.227922,0.219156,0.043831,363.000000,337.000000,26.000000,25.000000,0.000000,0.000000,0.000000,0.000000,0.000000,0.454592,0.496388,0.227922,0.219156,0.043831,363.000000,337.000000,26.000000,25.000000,0.000000,0.000000,0.000000,0.000000,0.000000;
#CREDIT:;
#NOTES:
0000
0000
0000
0000
,
0000
0000
0000
0000
,
0000
0000
0000
0000
,
0000
0000
0000
0000
,
0000
0000
0000
0000
,
0000
0000
0000
0000
,
1001
1000
0100
1000
,
0001
0010
0001
0100
,
0110
0000
0000
0000
1000
0000
0000
0000
0001
0000
0000
0001
0000
0000
0001
0000
,
0100
0000
0000
0100
0000
0000
0100
0000
0010
0000
0000
0000
0110
0000
0000
0000
,
0010
1000
0010
0000
0100
0001
0100
0001
,
1000
0000
0100
0000
0010
0001
0100
0000
,
0001
1000
0001
0000
0100
0010
0100
0010
,
1000
0000
0100
0000
1000
0001
0010
0000
,
0100
1000
0100
0000
1000
0010
1000
0010
,
0200
0000
0301
0000
1000
0010
1000
0000
,
0001
0100
0001
0000
0010
0100
0010
0100
,
1000
1001
0110
1001
,
0100
0001
0100
0010
,
0100
0001
0100
0000
0010
0100
0010
0000
,
1000
0100
1000
0010
,
0200
0000
0301
0000
0010
0001
0010
0000
,
0100
0000
0000
0100
0000
0000
0100
0000
1000
0000
0000
1000
0000
0000
1000
0000
,
0001
0010
0001
1000
0000
0000
0100
0000
,
0020
0031
2000
3100
,
0020
0001
0130
0000
,
1000
0100
1000
0000
0001
0100
0001
0000
,
0100
0010
1000
0000
0001
0100
0010
0000
,
1000
0000
0100
0000
1000
0100
0001
0000
,
0200
0000
1300
0000
0001
0100
1000
0000
,
0200
0301
0002
0013
,
0100
0010
1000
0010
0000
1000
0001
0000
,
0010
0000
0000
0010
0000
0000
0010
0000
0001
0000
0000
0001
0000
0000
0001
0000
,
0100
0000
0100
0000
0001
0010
0001
0000
,
1000
0100
1000
0000
0001
0010
0002
0000
,
0203
0000
0320
1030
,
0001
0100
0001
0000
0010
0000
0100
0000
,
0010
0001
1001
1100
,
0010
0001
1000
0000
0010
1000
0100
0000
,
0010
0001
1000
0100
,
0020
0000
0000
0032
0000
0000
2003
0000
,
3020
0000
0000
0130
0001
0000
0110
0000
,
0001
1000
0100
1000
,
0010
0100
0001
0000
1000
0100
0010
0000
,
0110
0001
1001
0100
,
0010
0000
0100
0000
0001
0010
0001
0000
,
0200
0000
0301
1000
,
0100
0000
0000
0100
0000
0000
0100
0000
0000
0000
0000
0000
1000
0000
0000
0000
,
0110
0100
0110
0010
,
0001
0000
1000
0000
0010
0010
0010
0000
,
0100
0001
1000
0100
,
0010
0001
0100
0000
0010
1000
0100
0000
,
1001
0100
1001
0010
,
1000
0000
0010
0000
0100
0001
0100
0000
,
0020
0000
1030
0001
,
0100
0000
0000
0100
0000
0000
0100
0000
0000
0000
0000
0000
0010
0000
0000
0000
,
1010
1000
0101
0100
,
0002
0000
2000
3003
,
0010
1000
0010
0000
1000
0100
1000
0000
,
0001
0000
0010
0000
0001
0100
0001
0000
,
1001
0010
1001
0100
,
0002
2003
3020
0130
,
0002
1000
1003
0100
,
0010
0000
0000
0010
0000
0000
0010
0000
0000
0000
0000
0000
0100
0000
0000
0000
,
1001
0100
0110
0001
,
1000
0100
1000
0100
1000
0000
1001
0000
,
0010
1000
0010
0000
0100
0001
0100
0000
,
0010
0100
0001
0100
0010
0000
1010
0000
,
1000
0100
1000
0000
0001
0010
0001
0000
,
0100
0000
0010
0000
1000
0100
0001
0000
,
0100
1000
0100
0000
0010
0001
0010
0000
,
0001
1000
0100
1000
0001
0000
1100
0000
,
0001
0100
1000
0000
1000
0100
0001
0000
,
0100
0000
0000
0100
0000
0000
0100
0000
0010
0000
0000
0000
0110
0000
0000
0000
,
1000
0001
1000
0000
0100
0010
0100
0000
,
0220
0000
0330
0000
;

//---------------dance-single - ----------------
#NOTEDATA:;
#CHARTNAME:;
#STEPSTYPE:dance-single;
#DESCRIPTION:;
#CHARTSTYLE:;
#DIFFICULTY:Hard;
#METER:13;
#RADARVALUES:0.631169,0.628759,0.473377,0.254221,0.306818,504.000000,450.000000,54.000000,29.000000,0.000000,0.000000,0.000000,0.000000,0.000000,0.631169,0.628759,0.473377,0.254221,0.306818,504.000000,450.000000,54.000000,29.000000,0.000000,0.000000,0.000000,0.000000,0.000000;
#CREDIT:;
#NOTES:
0000
0000
0000
0000
,
0000
0000
0000
0000
,
0000
0000
0000
0000
,
0000
0000
0000
0000
,
0000
0000
0000
0000
,
0000
0000
0000
0000
,
1001
0100
1010
0001
,
0101
1000
0110
0001
,
1000
0000
0100
0000
1000
0000
0000
0000
1010
0000
0000
0101
0000
0000
0011
0000
,
0100
0000
0000
0100
0000
0000
1000
0000
0001
0000
1000
0000
0100
0000
0000
0000
,
0010
0000
0001
0000
0010
0100
0000
1000
0000
1000
0000
0001
1000
0000
0010
0000
,
1000
0100
0010
0100
0010
0001
0101
0000
,
1000
0000
0001
0000
1000
0010
0000
0100
0000
0100
0000
0001
0010
0000
0100
0000
,
1000
0000
0000
0010
0000
0000
1000
0000
0001
0000
0100
0001
0000
1000
0010
0000
,
0100
0000
0001
0000
0010
0001
0000
1000
0000
1000
0000
0010
0100
0000
0001
0000
,
2000
0000
3001
0001
0100
0010
0010
0000
,
1000
0000
0100
0000
0010
0100
0000
1000
0000
1000
0000
0001
0100
0000
0010
0000
,
0110
0000
0000
1000
0000
0000
0001
0000
0100
0000
0000
0000
0101
0000
0000
0000
,
0001
0100
0010
0100
0001
1000
0001
0010
,
0100
1000
0001
0010
0001
1000
0010
0000
,
0100
0001
0010
0001
0100
0010
1000
0001
,
0020
0000
0130
1000
0100
0100
0010
0000
,
0001
0000
0000
0101
0000
0000
0101
0000
0010
0000
0000
1010
0000
0000
1010
0000
,
0100
0001
0100
0010
0000
1000
0010
0100
,
0002
0000
0000
0013
0000
0000
0010
0000
0020
0000
0000
0130
0000
0000
0100
0000
,
0200
0000
1000
0000
1300
0001
1001
0000
,
0100
0010
1000
0100
0001
0100
0010
0001
,
1000
0010
0100
0010
1000
1000
0001
0000
,
0100
0000
0000
0110
0000
0000
0101
0000
0010
0000
0100
0000
1000
0000
0100
0000
,
0020
0000
0130
0001
1000
1000
1001
0000
,
0200
0000
0000
0301
0000
0000
0010
0000
2000
0000
0000
3100
0000
0000
0001
0000
,
0100
0010
1000
0010
0000
1000
0001
1000
,
0100
0000
0000
0010
0000
0000
0010
0000
0001
0000
0000
1000
0000
0000
1000
0000
,
0100
0000
0010
0000
0100
0000
1000
0000
0001
0000
1000
0000
0001
0010
0001
0000
,
1000
0010
0100
0001
1000
0010
0200
0000
,
0302
0000
2003
3010
,
1000
0010
0100
0001
1000
0010
0100
0200
,
0000
0001
0301
0000
1010
0000
0101
0000
,
1010
1000
0001
0100
0001
0010
1000
0010
,
0000
0011
0101
1100
,
2000
0000
0000
3002
0000
0000
0203
0000
,
0320
0000
0000
0000
1030
0000
0100
0000
0010
0000
0000
0000
0001
0100
0001
0000
,
1000
0000
0100
0000
0200
0000
0000
0000
0301
0000
0000
0100
0000
0000
1000
0000
,
0010
0000
1000
0000
0100
0000
0010
0000
0100
0000
1000
0010
1000
0000
0001
0000
,
1001
0000
0110
0000
1001
0000
0110
0010
,
1000
0000
1000
0000
0001
0000
0001
0000
0100
0000
0010
0100
0010
0000
1000
0000
,
0002
0000
0000
0000
0003
0010
1000
0010
,
0001
0000
0000
0010
0000
0000
1000
0000
0000
0000
0000
0000
0010
0000
0100
0000
,
1001
0101
1010
0110
,
1000
0000
0010
0000
0100
0000
0010
0000
0100
0000
0100
0000
0010
1000
0010
0000
,
0100
0000
0001
0000
0002
0000
0000
0000
1003
0000
0000
0100
0000
0000
0010
0000
,
0001
0000
0001
0000
0100
0000
0001
0000
1000
0000
0010
1000
0010
0000
0100
0000
,
1001
0000
0110
0000
1001
0000
0110
0010
,
1000
0000
1000
0000
0001
0000
0001
0000
0100
0000
0001
1000
0001
0000
1000
0000
,
0020
0000
0000
0000
0030
1000
0001
0100
,
1000
0000
0000
0100
0000
0000
1001
0000
0000
0000
0000
0000
0100
0000
0010
0000
,
0101
1001
0110
1010
,
2000
0000
0002
3003
,
0100
0000
0010
0000
0100
0000
0001
0000
1000
0000
0000
0100
0000
0000
0010
0000
,
0100
1000
0010
1000
0100
0001
0100
1000
,
1010
0000
0110
0000
0101
0000
1010
0020
,
0000
2030
0000
3002
0000
0000
1003
0100
,
0020
0000
0100
0000
0130
1000
0001
0100
,
0001
0000
0000
1000
0000
0000
0001
0000
0010
0000
0000
0000
0100
0000
1000
0000
,
1001
0110
1010
0101
,
1000
0000
0100
0000
0010
0000
0100
0000
1000
0000
0010
0100
0000
0001
1000
0000
,
0010
0000
1000
0000
0010
0100
0000
0001
0000
0001
0000
1000
0001
0000
0010
0000
,
0001
0100
1000
0100
0001
0100
0101
0000
,
1000
0000
0001
0000
1000
0010
0000
0100
0000
0100
0000
0001
0010
0000
0100
0000
,
1000
0000
0000
0010
0000
0000
1000
0000
0001
0000
1000
0001
0000
0010
0001
0000
,
0100
0000
0001
0000
0010
0001
0000
1000
0000
1000
0000
0010
0100
0000
0001
0000
,
2000
0000
3001
0010
1000
0010
0001
0000
,
1000
0000
0100
0000
0010
0100
0000
1000
0000
1000
0000
0001
0100
0000
0010
0000
,
0110
0000
0000
1000
0000
0000
0001
0000
0101
0000
0000
0000
1001
0000
0000
0000
,
1000
0000
0010
0000
1000
0001
0000
0100
0000
0010
0000
0100
0001
0000
1000
0000
,
2002
0000
3003
0000
;

//---------------dance-double - ----------------
#NOTEDATA:;
#CHARTNAME:;
#STEPSTYPE:dance-double;
#DESCRIPTION:;
#CHARTSTYLE:;
#DIFFICULTY:Easy;
#METER:6;
#RADARVALUES:0.313080,0.397111,0.175325,0.140260,0.000000,250.000000,230.000000,20.000000,16.000000,0.000000,0.000000,0.000000,0.000000,0.000000,0.313080,0.397111,0.175325,0.140260,0.000000,250.000000,230.000000,20.000000,16.000000,0.000000,0.000000,0.000000,0.000000,0.000000;
#CREDIT:;
#NOTES:
00000000
00000000
00000000
00000000
,
00000000
00000000
00000000
00000000
,
00000000
00000000
00000000
00000000
,
00000000
00000000
00000000
00000000
,
00000000
00000000
00000000
00000000
,
00000000
00000000
00000000
00000000
,
00001000
00010000
00001000
00010000
,
00000100
00001000
00000100
00001000
,
00000001
00000100
00000010
00001000
,
00000100
00010000
00011000
00000000
,
00100000
00100000
00010000
00010000
,
10000000
00010000
01000000
00100000
,
10000000
10000000
01000000
01000000
,
00010000
00001000
00000100
00000001
,
00001000
00001000
00000010
00000010
,
00020000
00000000
00031000
00001000
,
00100000
00100000
00010000
00010000
,
01100000
00000000
10010000
00000000
,
01000000
10000000
01000000
00100000
,
00010000
01000000
00001000
00010000
,
00001000
00000100
00000001
00000010
,
00000200
00000000
00001300
00000000
,
00001001
00000000
00000110
00000000
,
00000001
00000001
00001000
00000000
,
00000200
00000000
00020300
00000000
,
00032000
00000000
00003000
00000000
,
01000000
00010000
01000000
00100000
,
10000000
01000000
00100000
01000000
,
10000000
00100000
00010000
00001000
,
00000020
00000000
00000031
00000000
,
00001001
00000000
00000110
00000000
,
00001000
00000100
00001000
00000000
,
00000001
00000010
00001000
00010000
,
00100000
00100000
10000000
10000000
,
01000000
00100000
01000000
10000000
,
00020000
00000000
00100000
00130000
,
00001000
00010000
00000010
00001000
,
00000001
00001000
00000001
00000100
,
00000010
00001000
00000010
00000100
,
00000001
00000100
00001000
00010000
,
00002000
00000000
00000000
00000000
,
00203000
00000000
00310000
00000000
,
10000000
01000000
10000000
00010000
,
00100000
00001000
00010000
00000010
,
00001000
00001000
00000001
00000001
,
00000100
00000001
00000100
00001000
,
00020000
00000000
00030000
01000000
,
00100000
00100000
00100000
00000000
,
01100000
00000000
00011000
00000000
,
00000010
00000100
00000110
00000000
,
00000001
00001000
00000010
00010000
,
00001000
00100000
00010000
01000000
,
00010000
00010000
10000000
10000000
,
01000000
10000000
01000000
00010000
,
00002000
00000000
00003000
00000010
,
00000100
00000100
00000100
00000000
,
00000110
00000000
00011000
00000000
,
02200000
00000000
03300000
00000000
,
00010000
01000000
00010000
10000000
,
01000000
00010000
00001000
00000100
,
00000010
00000010
00000100
00000100
,
00000010
00000100
00000010
00000000
,
00000002
00000000
00000003
00000100
,
00001000
00001000
00001000
00000000
,
00000110
00000000
00011000
00000000
,
00100000
01000000
01100000
00000000
,
00010000
10000000
00100000
00010000
,
00001000
00000010
00000001
00000010
,
00000001
00000001
00001000
00001000
,
00000010
00000100
00000001
00001000
,
00000001
00000010
00001000
00010000
,
00100000
10000000
00010000
10000000
,
00100000
00100000
01000000
01000000
,
01100000
00000000
00011000
00011000
,
00000100
00001000
00000010
00000100
,
00000220
00000000
00000330
00000000
;

//---------------dance-double - ----------------
#NOTEDATA:;
#CHARTNAME:;
#STEPSTYPE:dance-double;
#DESCRIPTION:;
#CHARTSTYLE:;
#DIFFICULTY:Medium;
#METER:10;
#RADARVALUES:0.453340,0.496388,0.219156,0.219156,0.043831,362.000000,337.000000,25.000000,25.000000,0.000000,0.000000,0.000000,0.000000,0.000000,0.453340,0.496388,0.219156,0.219156,0.043831,362.000000,337.000000,25.000000,25.000000,0.000000,0.000000,0.000000,0.000000,0.000000;
#CREDIT:;
#NOTES:
00000000
00000000
00000000
00000000
,
00000000
00000000
00000000
00000000
,
00000000
00000000
00000000
00000000
,
00000000
00000000
00000000
00000000
,
00000000
00000000
00000000
00000000
,
00000000
00000000
00000000
00000000
,
10010000
00100000
01000000
00010000
,
00100000
00001000
00010000
00000100
,
00001000
00000000
00000000
00000000
00000001
00000000
00000000
00000000
00000010
00000000
00000000
00000010
00000000
00000000
00000010
00000000
,
00000001
00000000
00000000
00000001
00000000
00000000
00000001
00000000
00001000
00000000
00000000
00000000
00001001
00000000
00000000
00000000
,
00000010
00000001
00000010
00000000
00000100
00001000
00000100
00010000
,
00001000
00000000
00100000
00000000
00010000
01000000
00010000
00000000
,
10000000
00100000
10000000
00000000
00010000
01000000
00001000
00010000
,
00000100
00000000
00001000
00000000
00000001
00000100
00000010
00000000
,
00001000
00000100
00001000
00000000
00000001
00000100
00001000
00010000
,
02000000
00000000
13000000
00000000
00100000
10000000
00100000
00000000
,
01000000
00010000
01000000
00000000
00100000
10000000
01000000
00010000
,
00001000
00011000
00001100
00000101
,
00001000
00000010
00001000
00000100
,
00010000
00001000
00010000
00000000
00001000
00100000
00001000
00000000
,
01000000
00010000
10000000
00010000
,
02000000
00000000
03100000
00000000
10000000
01000000
10000000
00000000
,
00100000
00000000
00000000
00100000
00000000
00000000
00100000
00000000
01000000
00000000
00000000
01000000
00000000
00000000
01000000
00000000
,
00001000
00010000
00001000
00010000
00000000
00000000
00000010
00000000
,
00000200
00000301
00002000
00003010
,
00020000
00001000
00031000
00000000
,
01000000
00010000
01000000
00000000
00100000
10000000
00100000
00000000
,
10000000
01000000
00010000
00000000
00001000
00000100
00000001
00000000
,
00001000
00000000
00000001
00000000
00001000
00000100
00010000
00000000
,
00002000
00000000
00013000
00000000
00001000
00100000
00010000
00000000
,
00200000
00310000
20000000
31000000
,
00100000
00010000
01000000
00001000
00000000
00010000
00001000
00000000
,
00000100
00000000
00000000
00000100
00000000
00000000
00000100
00000000
00000010
00000000
00000000
00000010
00000000
00000000
00000010
00000000
,
00001000
00000000
00000001
00000000
00000100
00000010
00000100
00000000
,
00000001
00001000
00000100
00000000
00001000
00000100
00020000
00000000
,
00032000
00000000
00203000
00310000
,
10000000
01000000
10000000
00000000
00100000
00000000
01000000
00000000
,
00010000
01000000
00011000
00001100
,
00000001
00000100
00000010
00000000
00001000
00000100
00010000
00000000
,
00001000
00010000
01000000
10000000
,
00020000
00000000
00000000
02030000
00000000
00000000
03002000
00000000
,
00023000
00000000
00000000
00030010
00000100
00000000
00000110
00000000
,
00001000
00000001
00000100
00000010
,
00001000
00000010
00000100
00000000
00000010
00010000
00001000
00000000
,
00011000
01000000
01010000
10000000
,
00100000
00000000
01000000
00000000
00010000
10000000
00010000
00000000
,
00200000
00000000
01300000
00010000
,
00001000
00000000
00000000
00001000
00000000
00000000
00001000
00000000
00000000
00000000
00000000
00000000
00010000
00000000
00000000
00000000
,
00011000
00000100
00001100
00001000
,
00000100
00000000
00000010
00000000
00000001
00000100
00000001
00000000
,
00001000
00000100
00010000
00001000
,
00100000
00001000
00100000
00000000
00010000
01000000
00010000
00000000
,
01100000
10000000
10010000
00010000
,
10000000
00000000
01000000
00000000
00010000
00001000
00010000
00000000
,
00002000
00000000
00003100
00000001
,
00000010
00000000
00000000
00000010
00000000
00000000
00000010
00000000
00000000
00000000
00000000
00000000
00000100
00000000
00000000
00000000
,
00001100
00010000
00011000
00001000
,
00200000
00000000
00020000
00330000
,
10000000
01000000
10000000
00000000
00100000
10000000
00100000
00000000
,
01000000
00000000
00010000
00000000
10000000
01000000
00010000
00000000
,
00011000
00000100
00001001
00000010
,
00000002
00002003
00003200
00010300
,
00002000
00010000
00103000
00010000
,
01000000
00000000
00000000
01000000
00000000
00000000
01000000
00000000
00000000
00000000
00000000
00000000
00100000
00000000
00000000
00000000
,
01100000
10000000
10010000
01000000
,
10000000
00100000
00010000
00001000
00000010
00000000
00000110
00000000
,
00000001
00000100
00000001
00000000
00000010
00000100
00000010
00000000
,
00000001
00000100
00001000
00010000
01000000
00000000
01100000
00000000
,
10000000
01000000
10000000
00000000
00010000
00100000
00010000
00000000
,
01000000
00000000
00010000
00000000
10000000
01000000
00010000
00000000
,
00001000
00010000
00000100
00000000
00001000
00000001
00000100
00000000
,
00000010
00001000
00000100
00010000
00001000
00000000
00011000
00000000
,
00001000
01000000
00010000
00000000
00100000
00010000
10000000
00000000
,
01000000
00000000
00000000
01000000
00000000
00000000
01000000
00000000
00100000
00000000
00000000
00000000
01100000
00000000
00000000
00000000
,
10000000
01000000
00010000
00000000
00001000
00000100
00000001
00000000
,
00002002
00000000
00003003
00000000
;

//---------------dance-double - ----------------
#NOTEDATA:;
#CHARTNAME:;
#STEPSTYPE:dance-double;
#DESCRIPTION:;
#CHARTSTYLE:;
#DIFFICULTY:Hard;
#METER:13;
#RADARVALUES:0.606123,0.628759,0.368182,0.254221,0.276137,484.000000,442.000000,42.000000,29.000000,0.000000,0.000000,0.000000,0.000000,0.000000,0.606123,0.628759,0.368182,0.254221,0.276137,484.000000,442.000000,42.000000,29.000000,0.000000,0.000000,0.000000,0.000000,0.000000;
#CREDIT:;
#NOTES:
00000000
00000000
00000000
00000000
,
00000000
00000000
00000000
00000000
,
00000000
00000000
00000000
00000000
,
00000000
00000000
00000000
00000000
,
00000000
00000000
00000000
00000000
,
00000000
00000000
00000000
00000000
,
00001001
00000100
00001100
00010000
,
00011000
00100000
00110000
01000000
,
00100000
00000000
10000000
00000000
00100000
00000000
00000000
00000000
10000000
00000000
00000000
01000000
00000000
00000000
00010000
00000000
,
00001000
00000000
00000000
00000100
00000000
00000000
00000001
00000000
00001000
00000000
00000010
00000000
00000100
00000000
00000000
00000000
,
00000001
00000000
00000010
00000000
00000001
00000100
00000000
00000010
00000000
00000010
00000000
00001000
00000100
00000000
00010000
00000000
,
00001000
00100000
00010000
01000000
00100000
10000000
10100000
00000000
,
10000000
00000000
01000000
00000000
10000000
00100000
00000000
01000000
00000000
01000000
00000000
00010000
00100000
00000000
00001000
00000000
,
00010000
00000000
00000000
00000100
00000000
00000000
00000010
00000000
00000001
00000000
00000100
00000001
00000000
00001000
00000010
00000000
,
00000100
00000000
00000001
00000000
00001000
00000100
00000000
00010000
00000000
00010000
00000000
00001000
00010000
00000000
00001000
00000000
,
02000000
00000000
03010000
00010000
00100000
01000000
10000000
00000000
,
00010000
00000000
01000000
00000000
00100000
01000000
00000000
00010000
00000000
00010000
00000000
00100000
00001000
00000000
00010000
00000000
,
00011000
00000000
00000000
00000100
00000000
00000000
00001000
00000000
00000001
00000000
00000000
00000000
00001001
00000000
00000000
00000000
,
00000100
00000010
00000100
00001000
00000100
00000010
00000001
00001000
,
00000001
00000100
00001000
00010000
01000000
10000000
00100000
00000000
,
01000000
00010000
01000000
00100000
10000000
01000000
00010000
00001000
,
00020000
00000000
00031000
00000100
00000001
00000001
00000010
00000000
,
00000100
00000000
00000000
00001000
00000000
00000000
00001010
00000000
00000010
00000000
00000000
00010000
00000000
00000000
00011000
00000000
,
00001000
00100000
00010000
01000000
00000000
00010000
10000000
01000000
,
00200000
00000000
00000000
00310000
00000000
00000000
00010000
00000000
02000000
00000000
00000000
03001000
00000000
00000000
00001000
00000000
,
00020000
00000000
00001000
00000000
00031000
00010000
00000100
00000000
,
00001000
00000001
00001000
00000010
00000100
00000001
00000010
00000001
,
00000100
00000010
00001000
00000100
00010000
00010000
00001000
00000000
,
00100000
00000000
00000000
00010000
00000000
00000000
10000000
00000000
01000000
00000000
10000000
00000000
00010000
00000000
00100000
00000000
,
00002000
00000000
00013000
00000010
00001000
00000001
00001000
00000000
,
00000002
00000000
00000000
00001003
00000000
00000000
00000100
00000000
00000020
00000000
00000000
00010030
00000000
00000000
00001000
00000000
,
00010000
00001000
01000000
00010000
00000000
10000000
00100000
10000000
,
01000000
00000000
00000000
00010000
00000000
00000000
00001000
00000000
00001000
00000000
00000000
00000100
00000000
00000000
00000001
00000000
,
00000100
00000001
00000010
00001000
00010000
00100000
10000000
00000000
,
01000000
00100000
10000000
00010000
01000000
00001000
00020000
00000000
,
00030200
00000000
00000320
00000031
,
00001000
00000001
00000100
00000001
00001000
00000010
00010000
00002000
,
00000000
00010000
00013000
00000000
00110000
00000000
10010000
00000000
,
00100000
01000000
00010000
10000000
01000000
00010000
00001000
00000100
,
00000000
00000101
00000011
00001010
,
00020000
00000000
00000000
00032000
00000000
00000000
02003000
00000000
,
03020000
00000000
10030000
00100000
01000000
00000000
00010000
00010000
,
10000000
00000000
00100000
00000000
00200000
00000000
00000000
00000000
10300000
00000000
00000000
01000000
00000000
00000000
00010000
00000000
,
01000000
10000000
00100000
00010000
00001000
00000010
00000001
00001000
,
00001001
00000000
00000110
00000000
00001010
00000000
00001100
00000100
,
00010000
00001000
00010000
00001000
00100000
00010000
01000000
00100000
,
20000000
00000000
00000000
00000000
30000000
01000000
00100000
00010000
,
00100000
00000000
00000000
00001000
00000000
00000000
00010000
00000000
00000000
00000000
00000000
00000000
00000010
00000000
00001000
00000000
,
00001001
00001010
00010100
00011000
,
01000000
00010000
01000000
00100000
10000000
10000000
01000000
01000000
,
00010000
00000000
00001000
00000000
00000200
00000000
00000000
00000000
00000301
00000000
00000000
00001000
00000000
00000000
00000010
00000000
,
00000100
00000100
00000001
00000010
00001000
00010000
00100000
10000000
,
10010000
00000000
01010000
00000000
00101000
00000000
00011000
00010000
,
00000010
00001000
00000001
00000100
00000001
00001000
00000100
00010000
,
00002000
00000000
00000000
00000000
00003000
00100000
00010000
01000000
,
10000000
00000000
00000000
01000000
00000000
00000000
00010000
00000000
00000000
00000000
00000000
00000000
10000000
00000000
00100000
00000000
,
10100000
01100000
01010000
00101000
,
00020000
00000000
00002000
00033000
,
00001000
00000000
00010000
00000000
00001000
00000000
00000100
00000000
00000001
00000000
00000000
00000010
00000000
00000000
00001000
00000000
,
00000010
00000001
00000100
00001000
00010000
01000000
10000000
00010000
,
10010000
00000000
10100000
00000000
01100000
00000000
01010000
00020000
,
00000000
00230000
00000000
00302000
00000000
00000000
00013000
00000010
,
00002000
00000000
00000100
00000000
00003001
00000100
00000001
00001000
,
00000010
00000000
00000000
00001000
00000000
00000000
00000100
00000000
00010000
00000000
00000000
00000000
00001000
00000000
00010000
00000000
,
00011000
01001000
01010000
10010000
,
10000000
00000000
01000000
00000000
00010000
00000000
00001000
00000000
00000100
00000000
00000001
00000010
00000000
00000100
00001000
00000000
,
00000001
00000000
00001000
00000000
00000010
00000100
00000000
00000010
00000000
00000010
00000000
00001000
00000001
00000000
00000100
00000000
,
00000001
00000100
00001000
00010000
01000000
10000000
11000000
00000000
,
00010000
00000000
10000000
00000000
00100000
01000000
00000000
00010000
00000000
00010000
00000000
10000000
00100000
00000000
00010000
00000000
,
00001000
00000000
00000000
00000010
00000000
00000000
00000001
00000000
00001000
00000000
00000100
00010000
00000000
00001000
00010000
00000000
,
00001000
00000000
01000000
00000000
00010000
00100000
00000000
00010000
00000000
00010000
00000000
10000000
00100000
00000000
01000000
00000000
,
00020000
00000000
10030000
01000000
00010000
00001000
00000100
00000000
,
00000010
00000000
00001000
00000000
00000001
00000100
00000000
00000010
00000000
00000010
00000000
00001000
00000100
00000000
00010000
00000000
,
00001000
00000000
00000000
01000000
00000000
00000000
00010000
00000000
01010000
00000000
00000000
00000000
10010000
00000000
00000000
00000000
,
01000000
00000000
00100000
00000000
01000000
00010000
00000000
00100000
00000000
00001000
00000000
00010000
00000100
00000000
00001000
00000000
,
00002002
00000000
00003003
00000000
;

//---------------dance-single - ----------------
#NOTEDATA:;
#CHARTNAME:;
#STEPSTYPE:dance-single;
#DESCRIPTION:;
#CHARTSTYLE:;
#DIFFICULTY:Challenge;
#METER:16;
#RADARVALUES:0.932978,0.999351,0.490909,0.254221,0.977436,745.000000,689.000000,56.000000,29.000000,0.000000,0.000000,0.000000,0.000000,0.000000,0.932978,0.999351,0.490909,0.254221,0.977436,745.000000,689.000000,56.000000,29.000000,0.000000,0.000000,0.000000,0.000000,0.000000;
#CREDIT:;
#NOTES:
// measure 0
0000
0000
0000
0000
,  // measure 1
0000
0000
0000
0000
,  // measure 2
0000
0000
0000
0000
,  // measure 3
0000
0000
0000
0000
,  // measure 4
0000
0000
0000
0000
,  // measure 5
0000
0000
0000
0000
,  // measure 6
2001
3010
0201
0310
,  // measure 7
2100
3010
1002
0103
,  // measure 8
0010
0000
0010
0000
0010
0000
0000
0000
1001
0000
0000
1100
0000
0000
0110
0000
,  // measure 9
0011
0000
0000
0110
0000
0000
1100
0000
1001
0000
0001
0000
0100
0001
1000
0000
,  // measure 10
0010
0000
0010
0000
0100
0001
0000
1000
0000
1000
0000
0001
0100
0000
0001
0000
,  // measure 11
0020
0000
0000
0000
0031
1000
0001
1000
0010
0100
0010
0100
0002
0000
0000
0000
,  // measure 12
1003
0000
1000
0000
0010
0100
0000
0100
0000
0001
0000
0001
1000
0000
0100
0000
,  // measure 13
1000
0010
0000
1000
0001
0000
0100
0000
0001
0010
0001
1000
0000
1000
0100
0000
,  // measure 14
1000
0000
0001
0000
0010
0001
0000
0001
0000
0100
0000
0010
0100
0000
0010
0000
,  // measure 15
2000
0000
0000
3001
0100
0010
0100
0010
1000
0100
1000
0100
0020
0000
0000
0000
,  // measure 16
0130
0000
0100
0000
1000
0001
0000
1000
0001
0010
0001
0000
0100
0000
0010
0000
,  // measure 17
0110
0000
0000
1001
0000
0000
0110
0000
1000
0100
0010
0001
0200
0000
0000
0000
,  // measure 18
0301
1000
0000
0100
1000
0000
0010
0000
1000
0001
0000
0100
0001
0000
0010
0000
,  // measure 19
0001
1000
0000
0010
1000
0000
0100
1000
0001
0000
0010
0000
0001
0000
0100
0000
,  // measure 20
0010
0100
0000
0001
0100
0000
0010
0000
1000
0100
1000
0000
0001
0010
0001
0000
,  // measure 21
0200
0000
0000
0000
0310
0000
1000
0000
0010
1000
0001
0000
0010
0000
0001
0000
,  // measure 22
0100
0010
0000
0010
1000
0000
0001
0000
1000
0001
0000
0001
0100
0000
0001
0000
,  // measure 23
1000
0100
1000
0000
0001
0010
0001
0000
0100
0000
0010
0000
1000
0000
0001
0000
,  // measure 24
1000
0100
0000
0001
0100
0000
1000
0000
0001
0010
0000
1000
0010
0000
0001
0000
,  // measure 25
0100
0000
0010
0000
1000
0000
0001
0100
0001
0100
0001
0100
0001
0100
0001
0000
,  // measure 26
1000
0001
0000
0010
0001
0000
1000
0000
0010
1000
0000
0100
1000
0000
0010
0000
,  // measure 27
0100
0001
0000
0100
1000
0000
0100
0000
0001
0010
0001
0010
0001
0000
1000
0000
,  // measure 28
0100
1000
0000
0100
0001
0000
0100
0000
1000
0100
1000
0000
0001
0100
0001
0000
,  // measure 29
2000
0000
0000
0000
3010
0000
0100
0000
0001
1000
0001
0000
1000
0000
0010
0000
,  // measure 30
1000
0100
0000
0100
1000
0000
0001
0000
0010
0001
0000
0001
0100
0000
0010
0000
,  // measure 31
1000
1000
1000
1000
0000
0001
0001
0001
,  // measure 32
0101
0000
0000
0110
0000
0000
1010
0000
2002
0000
3003
0202
0000
0303
0110
0000
,  // measure 33
1001
0000
1000
0000
0001
0000
0010
0000
0001
1000
0001
1000
0001
1000
0100
0000
,  // measure 34
1100
1000
0110
0100
0011
0010
2001
0000
,  // measure 35
3020
0000
0230
0301
,  // measure 36
0011
0001
0110
0010
1100
0100
1001
1000
,  // measure 37
0010
0100
0010
0100
0001
0010
0001
0010
0100
1000
0100
1000
0010
0100
0010
0100
,  // measure 38
0001
1000
1001
0001
0101
0100
0110
0020
,  // measure 39
0000
0000
0000
0000
0130
0001
0100
0000
0001
1000
0001
0000
1000
0100
1000
0000
,  // measure 40
0001
0010
0100
1000
0001
0010
0100
1000
,  // measure 41
0001
0000
0001
0000
0100
0000
0100
0000
0020
0000
0000
0000
1030
0001
1000
0001
,  // measure 42
0100
0000
0010
0000
0100
0000
0010
0000
1000
0001
0000
1000
0001
0000
1000
0000
,  // measure 43
0100
1000
0010
0000
0010
0000
0010
0000
0010
0000
0010
0000
0010
0000
0010
0000
,  // measure 44
1001
1000
1100
0100
0110
0010
0011
0002
,  // measure 45
1003
0010
1000
0010
0100
0010
0100
0010
0001
0010
0001
0010
0100
0010
0100
0010
,  // measure 46
2000
0000
0100
0000
3100
0000
1000
0000
0001
0100
0000
0100
0001
0000
0010
0000
,  // measure 47
0001
0010
0100
1000
0001
0000
0001
0000
0001
0000
0001
0000
0100
0000
0010
0000
,  // measure 48
1000
0100
1000
0100
0010
0001
0010
0001
0100
0010
0100
0010
1000
0001
1000
0001
,  // measure 49
0100
0000
0010
0000
0100
0000
0010
0000
1000
0100
1000
0100
0010
0001
0010
0001
,  // measure 50
0100
0000
0010
0000
0100
0000
0010
0000
1000
0000
0001
1000
0000
1000
0001
0000
,  // measure 51
0010
0001
0010
0001
0100
0000
0010
0100
0010
0000
1000
0000
0100
0000
1000
0000
,  // measure 52
1001
0001
0001
0001
0101
0100
0100
0100
,  // measure 53
0001
0010
0100
1000
0010
0100
0001
0010
0100
1000
0010
0100
0001
0010
0100
1000
,  // measure 54
0010
0000
0010
0000
0010
0100
0010
0000
0100
0000
0100
0000
0100
0010
0100
0000
,  // measure 55
0001
1000
0001
1000
0100
0000
1000
0000
0001
0000
0010
0000
0001
0000
0001
0000
,  // measure 56
1000
0100
0010
0001
0100
0010
1000
0100
0010
0001
0100
0010
1000
0100
0010
0001
,  // measure 57
0200
0000
0000
0000
0320
0000
0000
0000
1030
0000
0001
1000
0001
1000
0001
0000
,  // measure 58
1000
0000
0100
0000
0010
0000
0001
0000
0100
0000
0010
1000
0000
0001
1000
0000
,  // measure 59
0001
0010
0001
0000
0100
0000
0100
0000
0010
1000
0010
0000
1000
0000
0001
0000
,  // measure 60
0101
0100
0110
0010
1010
1000
1001
0001
,  // measure 61
0100
0010
0100
0010
1000
0100
1000
0100
0010
0001
0010
0001
1000
0010
1000
0010
,  // measure 62
0200
0000
0000
0000
0001
0000
0001
0000
1300
0000
0010
0100
0010
0100
0001
0000
,  // measure 63
0010
0001
0010
0001
0100
0000
0001
1000
0100
0000
1100
0000
1001
0000
0001
0000
,  // measure 64
1000
0100
0010
0001
0100
0010
1000
0100
0010
0001
0100
0010
1000
0100
0010
0001
,  // measure 65
0100
0000
0100
0010
0100
0000
0100
0000
0010
0100
0010
0100
0010
0100
0010
0100
,  // measure 66
0001
0000
0001
0000
1000
0001
0000
1001
0000
1000
0100
0010
0001
0000
0100
0000
,  // measure 67
0002
0000
0000
0000
0013
0100
0010
0000
0100
1000
0100
0000
1000
0001
1000
0001
,  // measure 68
0100
0000
0100
0000
0010
1000
0000
1001
0000
1100
0000
0100
1000
0001
1000
0000
,  // measure 69
0010
0100
0000
0100
0001
0000
1000
0000
0001
0100
0001
0100
0010
0100
0010
0100
,  // measure 70
0001
0000
0001
0000
1000
0100
0000
1100
0000
1001
0000
0001
0010
0000
0001
0000
,  // measure 71
0200
0000
0000
0000
0301
0010
0100
1000
0010
0100
0001
0010
0100
1000
0010
0100
,  // measure 72
0001
0000
1001
0000
1000
0010
0000
1010
0000
1001
0000
0001
0100
0000
0010
0000
,  // measure 73
0100
0001
0000
0001
1000
0000
0010
0000
1000
0100
0010
0001
1000
0001
0010
0100
,  // measure 74
1000
0000
1000
0000
0001
0010
0000
0011
0000
0101
0000
0100
0010
0000
0110
0000
,  // measure 75
2020
0000
0000
0000
,  // measure 76
3030
0000
0000
0000
;
