#TITLE:Cosy Catastrophe;
#SUBTITLE:;
#ARTIST:SYUNN;
#TITLETRANSLIT:;
#SUBTITLETRANSLIT:;
#ARTISTTRANSLIT:;
#GENRE:;
#CREDIT:;
#BANNER:Cosy Catastrophe.png;
#BACKGROUND:Cosy Catastrophe-bg.png;
#LYRICSPATH:;
#CDTITLE:./CDTitles/DDR A.png;
#MUSIC:Cosy Catastrophe.ogg;
#OFFSET:0.000000;
#SAMPLESTART:13.333000;
#SAMPLELENGTH:15.000000;
#SELECTABLE:YES;
#BPMS:0.000000=90.000000
,19.000000=360.000000
,87.000000=90.000000
,103.000000=360.000000
,167.000000=180.000000
,231.000000=360.000000
,355.000000=90.000000
,356.000000=180.000000
,388.000000=360.000000
;
#STOPS:
;
#BGCHANGES:;
#KEYSOUNDS:;
#ATTACKS:;

//---------------dance-single - ----------------
#NOTES:
     dance-single:
     :
     Medium:
     13:
     0.590513,0.956339,0.258350,0.115812,0.035634,422.000000,29.000000,13.000000,0.000000,0.000000,0.000000,0.590513,0.956339,0.258350,0.115812,0.035634,422.000000,29.000000,13.000000,0.000000,0.000000,0.000000:
0000
0000
0000
0000
,
0000
0000
0000
0000
,
0000
0000
0000
0000
,
1000
0000
0000
0000
0001
0000
0100
0000
1000
0100
0001
0000
0101
0000
0000
0000
,
0001
0000
0000
0000
1000
0000
0010
0000
0001
0010
1000
0000
1010
0000
0000
0000
,
0000
0000
0000
0001
,
0000
0100
0000
0000
1000
0000
0000
0100
,
0000
0001
0000
1000
,
0000
0100
0000
0000
0001
0000
0000
0100
,
0000
1000
0000
0010
,
0000
0100
0000
0000
1000
0000
0000
0100
,
0000
0010
0000
1000
,
0000
0100
0000
0000
0010
0000
0000
0100
,
0000
1000
0000
0100
,
1000
0100
1000
0001
,
0100
0001
0000
0010
,
0001
0010
0001
1000
,
0100
1000
0000
0010
,
0100
0001
0010
0001
,
0010
0100
1000
1200
,
0000
0000
0000
0000
,
0000
0310
0000
1001
,
0010
0000
0001
0000
1000
0001
1000
0001
1000
0000
0010
0000
1000
0000
0200
0000
,
0010
0010
1300
0001
1000
0000
1010
0000
,
1000
0000
0100
0000
0010
0001
0010
0001
1000
0000
0100
0000
1000
0000
0001
0000
,
1000
0000
0100
0000
0010
0000
0001
0000
0100
0001
1000
0100
0010
0000
0000
0000
,
0000
1100
0000
0010
,
0100
0010
0000
1000
,
0100
0010
0001
0100
,
0010
0001
0000
0010
,
1000
0010
0001
0010
,
0100
1000
0100
0001
,
0010
0001
1000
0100
,
1000
1001
0000
0001
,
1000
0010
0001
0010
,
1000
0001
0100
0010
,
0001
0010
1000
0100
,
0001
0100
0010
0001
,
0100
0001
0010
0100
,
1000
0010
0100
0002
,
0000
1000
0000
1000
,
0000
0013
0000
0210
,
0000
0000
0000
0000
,
0000
0000
0000
2000
,
0000
3000
0000
0002
,
0000
0003
0000
2300
,
0000
0000
0000
0000
,
0000
0000
0000
0200
,
0000
0300
0000
0020
,
0000
0000
0030
0000
0000
0000
3001
0100
,
0001
0100
0000
0100
0001
0010
0001
0010
,
0000
0010
0100
1000
0100
0000
0010
0001
,
0010
0100
0000
1000
0001
0000
0100
0010
,
0100
0001
0000
0001
0100
0000
0010
1000
,
0010
1000
0000
1000
0010
0100
0001
0010
,
0000
0100
0010
0001
0100
0000
0001
0010
,
0100
1000
0000
1000
0100
1000
0001
0010
,
0001
0100
1000
0100
0001
0010
0100
0000
,
1000
0100
0001
0100
,
1000
0100
1000
0010
,
0100
0001
0100
0101
,
0000
1001
0000
1000
,
0001
0010
0100
1000
,
0100
0001
0100
1000
,
0010
0100
0010
1000
,
0001
1001
0000
1000
,
0100
0010
0001
0100
,
0001
0010
1000
0010
,
0001
0100
1000
1100
,
0000
0101
0000
0001
,
1000
0100
0010
0100
,
0010
0001
0100
1000
,
0100
0010
0100
0001
,
1000
1001
0000
1100
,
0000
0001
0100
1000
,
0010
0002
0000
1003
,
0100
0001
0000
1000
,
0100
0001
0000
0100
,
0010
0001
1000
0010
,
0100
0001
0010
0001
,
0010
0100
0010
1000
,
0010
0002
0000
1003
,
0000
0010
0001
0010
,
1000
0020
0000
0130
,
0001
0010
1000
0010
,
0001
0100
0000
0010
,
0100
0010
1000
0001
,
1000
0100
0010
0100
,
1000
0010
0100
0101
,
0001
0100
1000
0100
,
0101
0000
1100
0000
0101
0000
0001
0001
,
1000
0100
0001
0100
,
1100
0000
0101
0000
1100
0000
1000
1000
,
0001
0100
0110
1010
,
0011
0101
0011
1100
,
0001
1000
0001
0100
0010
0100
0001
0010
,
0100
0010
0100
1000
0200
0000
0000
0000
,
1300
0100
0010
0001
,
0100
0010
1000
0100
,
0010
0001
0100
0010
,
1000
0100
0001
0100
,
1000
0100
0010
0100
,
1000
0010
0001
0010
,
1000
0100
0010
0001
,
0100
0010
1000
0100
,
0001
0100
1000
0001
,
0100
1000
0001
0010
,
1000
0001
0010
1000
,
0010
0100
1000
0100
,
0010
0001
0100
0010
,
1000
0100
0001
0100
,
1000
0010
1000
0100
,
1000
0001
0010
0001
,
0101
0000
0000
0000
;

//---------------dance-single - ----------------
#NOTES:
     dance-single:
     :
     Hard:
     16:
     0.800502,1.000000,0.614694,0.089086,0.155901,550.000000,69.000000,10.000000,0.000000,0.000000,0.000000,0.800502,1.000000,0.614694,0.089086,0.155901,550.000000,69.000000,10.000000,0.000000,0.000000,0.000000:
0000
0000
0000
0000
,
0000
0000
0000
0000
,
0000
0000
0000
0000
,
0110
0000
0000
1000
0001
0010
0100
0000
1000
0100
0010
0001
0011
0000
0000
0010
,
0001
0000
0000
0100
0001
0010
0001
0010
0100
1000
0100
0000
1001
0000
0000
0000
,
0000
0000
0001
1000
0100
0010
0001
0000
,
0000
1000
0000
0000
0110
0000
0000
0110
,
0000
1001
0000
1000
,
0000
0001
0000
0000
0110
0000
0000
0110
,
0000
1001
0000
0001
,
0000
1000
0000
0000
0011
0000
0000
0011
,
0000
0110
0000
1000
,
0000
0001
0000
0000
1010
0000
0000
1010
,
0000
0110
0000
0010
,
1000
0010
1000
0100
,
0010
0100
0010
0001
,
0010
0001
0100
0010
,
1000
0000
0010
0000
0100
0000
0001
0010
,
0001
0000
0100
0001
0100
0000
0001
1000
,
0100
0010
0001
0010
0100
1000
0002
0000
,
0000
0000
0000
0003
,
0000
0000
0000
0000
0110
0000
0000
0000
0000
0000
0000
0000
1100
0000
0000
1000
,
0100
0000
0000
0000
0010
0000
0000
0000
0001
0010
0001
0010
0001
0000
1000
0000
0001
0000
1000
0000
0000
0000
1000
0000
0100
0000
0000
0000
0001
0000
0100
0000
,
1000
0000
0000
0101
0000
0000
0101
0000
0001
0000
0100
0000
0000
0000
1000
0000
0100
0000
0000
0000
0000
0000
0000
0000
1001
0000
0000
0000
0010
0000
0100
0000
,
1000
0000
0100
0000
0010
0000
0000
0000
0001
1000
0001
1000
0001
0000
1000
0000
0100
0000
0010
0000
0011
0000
0000
0000
0001
0000
0000
0010
0000
0000
0001
0000
,
0000
0100
0000
0000
0101
0000
0000
0000
1000
0000
0000
0010
0000
0000
1000
0000
0000
0100
0000
0000
1100
0000
0000
0000
1001
0000
0000
0000
0000
0000
0000
0000
,
0000
0000
0010
0000
0001
0000
0100
1000
,
0100
0010
0000
1000
,
0100
0000
0010
0001
0010
0000
1100
0000
,
0110
1100
0000
1000
,
0100
0000
0001
0100
1000
0000
0010
0000
,
0001
0000
0010
1000
0100
0000
1000
0000
,
0100
0001
1000
0010
,
0001
0000
1000
0001
1000
0000
1001
0000
,
0010
0100
1000
0000
0001
0100
0001
0000
,
0100
0101
0000
1001
,
0010
0100
0001
0000
1000
0100
1000
0000
,
0100
0000
1100
0000
0000
0000
1000
0010
,
1000
0010
0001
0000
0010
1000
0010
1000
,
0100
0000
0001
0100
1000
0002
2000
0000
,
0000
0000
0000
3003
,
0000
0000
0001
1000
0100
0010
0200
0000
,
0000
0000
0000
0000
,
0000
0000
0000
0002
,
0000
0003
0000
0020
,
0000
0030
0000
2300
,
0000
0100
0000
0000
0100
0000
0000
0010
,
0000
0100
0100
3002
,
0000
0100
0000
0000
0010
0000
0000
1000
,
0000
0000
0013
0000
1001
0000
1000
0100
,
1000
0001
0010
0001
0100
0010
0100
1000
,
0100
1000
0100
0001
0010
1000
0010
0100
,
0010
0001
0010
0001
0101
0000
1001
0100
,
0010
0100
1000
0001
0110
0000
1001
0010
,
0001
0100
1000
0100
0001
0100
0010
1000
,
0010
0001
0011
0000
1010
1000
0001
0010
,
0001
0010
1000
0010
0110
0000
1001
0100
,
0010
0001
0010
0100
0010
1000
0001
0000
,
0100
1000
0001
0010
,
1000
0000
0100
0010
0001
0000
0010
0000
,
1000
0001
0100
1000
,
0001
0000
0010
0100
1000
0000
0100
0000
,
0010
0001
0100
0010
,
0001
0000
0010
1000
0100
0000
0010
0100
,
1000
0000
0010
0000
0100
1000
0100
0000
,
0001
0000
0100
0001
0010
0000
0001
0000
,
0100
0000
1000
0000
0100
0001
1000
0000
,
0100
0000
1000
0001
0100
0000
1000
0000
,
0100
0001
0010
0100
,
0010
0000
0001
0100
0010
0000
1000
0000
,
0100
0000
0001
0000
0100
1000
0001
0000
,
0100
0000
0001
1000
0100
0000
0001
0100
,
1000
0000
0010
0000
0001
0010
1000
0000
,
0010
0000
1000
0100
0010
0000
0001
0000
,
0010
0000
0100
0000
1000
0100
1000
0100
,
1000
0100
0010
0001
,
0100
0000
0010
0000
0100
0010
0100
0000
,
0001
0000
1100
0000
0100
0000
0010
0001
,
0010
0000
0001
0000
1000
0100
1000
0000
,
0010
0000
0001
0010
0001
0000
0010
0000
,
0100
1000
0100
0000
1000
0000
0100
0000
,
0001
0000
1001
0000
0010
0100
0010
0000
,
0001
0000
1000
0000
0001
0100
0001
0100
,
0001
0010
0100
1000
,
0100
0000
1000
0000
0100
0001
0100
0000
,
1000
0001
0100
0110
,
0010
1000
0100
0010
,
1000
0001
0100
0110
,
0010
0000
0000
0000
0001
0000
0000
0000
0100
0000
0000
0000
0010
0000
0010
0010
,
0110
0000
1010
0000
0011
0001
0010
1000
,
1100
0000
0110
0000
1001
0001
0001
0000
,
0110
0000
1100
0000
0101
0001
0100
1000
,
1010
0000
0011
0000
1001
1000
1000
0000
,
0110
0000
1100
0000
0101
0001
0010
0100
,
1100
0000
0101
0000
1100
1000
1010
0000
,
0101
0000
0001
1001
0000
0100
0110
0000
,
1001
0000
0100
0220
0000
0000
0330
0000
,
1000
0000
0100
0010
0001
0000
1000
0000
,
0010
0100
0001
0000
1000
0000
0001
0010
,
0100
0000
1000
0000
0001
0100
0010
0000
,
0100
0000
0010
0100
0010
0000
1000
0000
,
0100
0000
0010
0001
0100
0000
0010
0000
,
0100
0001
0010
0000
0001
1000
0001
0000
,
0100
0000
0010
1000
0100
0000
0010
0000
,
0100
1000
0010
0000
0001
0000
0010
1000
,
0010
0000
0100
0001
1000
0000
0100
0000
,
0010
0001
0100
0000
0010
0000
1000
0001
,
0100
0000
0010
0000
0100
0001
0010
0000
,
0001
0000
0010
0100
0010
0000
0001
0000
,
1000
0000
0010
1000
0100
0000
0010
0000
,
0100
1000
0010
0000
0001
0000
0010
1000
,
0100
0000
0010
0001
0100
0000
1000
0000
,
0100
0001
0010
0000
0100
0000
1000
0000
,
1100
0000
0000
0000
;

//---------------dance-double - ----------------
#NOTES:
     dance-double:
     :
     Hard:
     16:
     0.761050,1.000000,0.445430,0.089086,0.146992,538.000000,50.000000,10.000000,0.000000,0.000000,0.000000,0.761050,1.000000,0.445430,0.089086,0.146992,538.000000,50.000000,10.000000,0.000000,0.000000,0.000000:
00000000
00000000
00000000
00000000
,
00000000
00000000
00000000
00000000
,
00000000
00000000
00000000
00000000
,
00001010
00000000
00000000
00001000
00000010
00000000
00010000
00000100
00001000
00000100
00000010
00000000
00000011
00000000
00000000
00000001
,
00000100
00000000
00000000
00001000
00010000
00001000
00010000
01000000
00100000
00010000
10000000
00000000
10010000
00000000
00000000
00000000
,
00000000
00000000
00010000
10000000
01000000
00100000
00010000
00000000
,
00000000
01000000
00000000
00000000
00001000
00000000
00000000
00100000
,
00000000
00101000
00000000
00000010
,
00000000
00000001
00000000
00000000
00000100
00000000
00000000
00001000
,
00000000
00001100
00000000
00000010
,
00000000
00010000
00000000
00000000
00000100
00000000
00000000
00010000
,
00000000
00110000
00000000
10000000
,
00000000
01000000
00000000
00000000
00001000
00000000
00000000
01000000
,
00000000
11000000
00000000
00100000
,
10000000
00100000
10000000
01000000
,
00100000
01000000
00100000
00010000
,
00100000
00010000
00100000
00001000
,
00010000
00000000
00000100
00000000
00001000
00000000
00000010
00000100
,
00000010
00000000
00000100
00000001
00000100
00000000
00000010
00001000
,
00000010
00001000
00000100
00010000
00001000
00010000
00002000
00000000
,
00000000
00000000
00000000
00003000
,
00000000
00000000
00000000
00000000
01100000
00000000
00000000
00000000
00000000
00000000
00000000
00000000
11000000
00000000
00000000
10000000
,
01000000
00000000
00000000
00000000
00100000
00000000
00000000
00000000
00010000
00100000
00010000
00100000
00010000
00000000
10000000
00000000
00010000
00000000
10000000
00000000
00000000
00000000
10000000
00000000
01000000
00000000
00000000
00000000
00010000
00000000
00001000
00000000
,
00010000
00000000
00000000
00010000
00000000
00000000
00010000
00000000
00000010
00000000
00000001
00000000
00000000
00000000
00000010
00000000
00001000
00000000
00000000
00000000
00000000
00000000
00000000
00000000
00000001
00000000
00000000
00000000
00000010
00000000
00001000
00000000
,
00010000
00000000
00001000
00000000
00000010
00000000
00000000
00000000
00001000
00010000
00001000
00010000
00001000
00000000
00010000
00000000
01000000
00000000
10000000
00000000
11000000
00000000
00000000
00000000
00010000
00000000
00000000
00010000
00000000
00000000
00100000
00000000
,
00000000
00100000
00000000
00000000
00010000
00000000
00000000
00000000
00001000
00000000
00000000
00001000
00000000
00000000
00000010
00000000
00000000
00000010
00000000
00000000
00001000
00000000
00000000
00000000
00001001
00000000
00000000
00000000
00000000
00000000
00000000
00000000
,
00000000
00000000
00000010
00000000
00000001
00000000
00000100
00001000
,
00000100
00000010
00000000
00010000
,
00001000
00000000
00000010
00001000
00000010
00000000
00001000
00000000
,
00010000
00100000
00000000
10000000
,
01000000
00000000
00010000
01000000
10000000
00000000
00100000
00000000
,
00010000
00000000
00001000
00010000
00100000
00000000
10000000
00000000
,
01000000
00010000
00000100
00000010
,
00000001
00000000
00001000
00000001
00001000
00000000
00001001
00000000
,
00000001
00001000
00000100
00000000
00000010
00000000
00000100
00001000
,
00000100
00010100
00000000
00011000
,
00001000
00010000
00001000
00000000
00010000
00000000
00001000
00010000
,
01000000
00000000
01100000
00000000
00000000
00000000
10000000
00100000
,
10000000
00000000
00010000
00100000
00010000
00000000
00001000
00000100
,
00001000
00000100
00000010
00000100
00001000
00000200
00002000
00000000
,
00000000
00000000
00000000
00003300
,
00000000
00000000
00001000
00000100
00000010
00000001
00000200
00000000
,
00000000
00000000
00000000
00000000
,
00000000
00000000
00000000
00000002
,
00000000
00000003
00000000
00000020
,
00000000
00000030
00000000
00020300
,
00000000
01000000
00000000
00000000
01000000
00000000
00000000
00100000
,
00001000
01000000
01000000
00032000
,
00000000
00000100
00000000
00000000
00000010
00000000
00000000
00010000
,
00000000
00000000
00003010
00000000
00011000
00000000
10000000
01000000
,
10000000
00010000
00100000
00010000
01000000
00100000
01000000
00001000
,
00010000
00001000
00011000
00000000
00000110
00000010
00000100
00001000
,
00000100
00000001
00000010
00000001
00001000
00000100
00000010
00000001
,
00001000
00000100
00001100
00000000
00011000
00001000
00010000
00100000
,
00010000
00001000
00010000
00001000
00100000
01000000
00100000
00010000
,
10000000
00010000
01000000
00100000
00010000
00001000
00000100
00000001
,
00000100
00001000
00010000
00100000
10000000
00100000
00010000
00000010
,
00010000
00001000
00000010
00000001
00000100
00001000
00010000
00000000
,
01000000
10000000
00010000
00100000
,
10000000
00000000
00100000
00010000
00001000
00000000
00000100
00000000
,
00000001
00000100
00001000
00000010
,
00000001
00000000
00000010
00000100
00000001
00000000
00001100
00000000
,
00000100
00000010
00000100
00010000
,
01000000
00000000
00100000
00010000
10000000
00000000
01010000
00000000
,
01000000
00100000
00010000
00001000
,
00000100
00000000
00000010
00000100
00000001
00000000
00000100
00000000
,
00001000
00010000
00001000
00100000
,
01000000
00000000
00100000
00010000
10000000
00000000
00100000
00000000
,
01000000
10000000
01000000
00100000
,
00010000
00000000
00001000
00000100
00000010
00000000
00001000
00000000
,
00000100
00000001
00000100
00001000
,
00000010
00000000
00001000
00010000
00001000
00000000
00010000
00000000
,
01000000
10000000
01000000
00010000
,
00100000
00000000
00010000
00001000
00010000
00000000
00001000
00000000
,
00000100
00000000
00000010
00000000
00000001
00000100
00000001
00000100
,
00000001
00001000
00000100
00010000
,
00001000
00000000
00000010
00000000
00000100
00000010
00000100
00000000
,
00010000
00000000
00011000
00000000
00000000
00000000
00001000
00010000
,
00001000
00000000
00010000
00000000
00100000
10000000
00100000
00000000
,
10000000
00000000
01000000
00010000
01000000
00000000
00010000
00000000
,
01000000
10000000
01000000
00000000
10000000
00000000
01000000
00000000
,
00010000
00000000
00001000
00010000
00001000
00010000
00001000
00000000
,
00000100
00000000
00000001
00000000
00001000
00000100
00001000
00000100
,
00001000
00000010
00001000
00010000
,
01000000
00000000
10000000
00000000
01000000
00010000
01000000
00000000
,
00010000
10000000
01000000
01100000
,
00100000
00010000
01000000
00100000
,
00010000
00001000
00010000
00011000
,
00001000
00000000
00000010
00000000
00000001
00000000
00000100
00000100
,
00000110
00000000
00001010
00000000
00000011
00000001
00000010
00001000
,
00001100
00000000
00000110
00000000
00011000
00001000
00001000
00000000
,
01100000
00000000
11000000
00000000
01010000
00010000
01000000
10000000
,
10100000
00000000
00110000
00000000
00011000
00010000
00010000
00000000
,
00000110
00000000
00000101
00000000
00001100
00001000
00010000
01000000
,
01010000
00000000
11000000
00000000
01100000
00100000
00110000
00000000
,
00011000
00000000
00000010
00000110
00000000
00001000
00001001
00000000
,
00010100
00000000
00100000
00202000
00000000
00000000
00303000
00000000
,
00010000
01000000
00100000
00010000
,
00001000
00000010
00001000
00010000
,
00100000
00010000
00001000
00000010
,
00001000
00000000
00100000
00010000
00100000
00000000
00001000
00000000
,
00000010
00000001
00000010
00001000
,
00010000
00000000
00100000
00000000
00010000
00001000
00010000
00000000
,
00001000
00000010
00000100
00010000
,
00001000
00000100
00001000
00000000
00010000
00000000
01000000
10000000
,
01000000
00000000
00100000
00010000
00100000
00000000
00001000
00000000
,
00000100
00001000
00000100
00000000
00001000
00000000
00010000
01000000
,
00010000
00000000
00001000
00000000
00000100
00001000
00000100
00000000
,
00000001
00000000
00000010
00000100
00000010
00000000
00001000
00000000
,
00010000
00000000
00001000
00010000
00000010
00000000
00000100
00000000
,
00000001
00000100
00000010
00000000
00010000
00000000
00001000
00010000
,
00001000
00000000
00100000
01000000
00100000
00000000
00001000
00000000
,
00010000
00100000
00010000
00000000
00001000
00000000
00000100
00000000
,
00000101
00000000
00000000
00000000
;

//---------------dance-single - ----------------
#NOTES:
     dance-single:
     :
     Challenge:
     18:
     1.000000,1.000000,0.783957,0.035634,0.507791,748.000000,88.000000,4.000000,0.000000,0.000000,0.000000,1.000000,1.000000,0.783957,0.035634,0.507791,748.000000,88.000000,4.000000,0.000000,0.000000,0.000000:
// measure 0
0000
0000
0000
0000
,  // measure 1
0000
0000
0000
0000
,  // measure 2
0000
0000
0000
0000
,  // measure 3
0100
0010
0100
0010
1000
0100
1000
0100
0010
0000
0001
0000
1000
0000
0010
0000
1000
0100
1000
0100
0010
0001
0010
0001
0100
0000
0000
0000
0010
0000
1000
0000
,  // measure 4
0100
0010
0100
0010
0001
0100
0001
0100
0010
1000
0010
1000
0100
0000
1000
0000
0001
0010
0001
0010
0001
0100
0001
0100
0010
0000
0000
0000
0000
0000
0000
0000
,  // measure 5
0000
0000
1000
0100
0010
0001
0100
0000
,  // measure 6
0000
1010
0000
0000
1001
0000
0000
0001
,  // measure 7
0100
0000
0100
0010
1000
0000
1001
0000
,  // measure 8
0000
0101
0000
0000
1100
0000
0000
0101
,  // measure 9
0000
0000
0001
0010
0100
1000
0100
0000
,  // measure 10
0000
0011
0000
0000
1010
0000
0000
0011
,  // measure 11
0000
0000
1001
0000
0000
1000
0100
0000
,  // measure 12
0000
0011
0000
0000
1001
0000
0000
1010
,  // measure 13
0000
0000
0100
0001
0010
0100
0010
0000
,  // measure 14
0001
0100
1000
0100
,  // measure 15
0001
0010
1000
0010
,  // measure 16
0001
0010
0100
1000
,  // measure 17
0100
0000
0010
0000
0001
0000
0100
0010
,  // measure 18
1000
0010
0100
0001
0010
0001
1000
0010
,  // measure 19
0100
0010
1000
0100
0010
0001
0200
0000
,  // measure 20
0000
0000
0000
0300
,  // measure 21
0000
0000
0000
0000
0000
0000
0000
0000
0100
0000
0000
0000
0010
0000
0000
0000
1000
0000
0000
0000
0100
0000
0000
0000
0010
0000
0001
0000
0100
0010
1000
0010
,  // measure 22
0100
0001
0010
0100
0010
0001
0000
0000
1000
0100
0001
0100
1000
0010
0001
0010
1000
0000
1001
0000
0000
0000
0101
0000
0101
0000
0000
0000
0010
1000
0100
1000
,  // measure 23
0001
0000
0000
0101
0000
0000
0100
0010
1000
0010
0100
0000
0000
0000
0001
0000
0010
0000
0100
0000
0000
0000
0000
0000
1100
0000
0000
0000
1000
0001
0010
0001
,  // measure 24
0100
0010
1000
0010
0100
0000
0000
0000
0001
0010
0100
1000
0001
0010
0100
1000
0001
0000
0100
0000
0110
0000
1010
0000
1001
0000
0000
0101
0000
0000
0010
1000
,  // measure 25
0100
0000
0000
0101
0000
0000
1100
0000
0000
0000
0000
1001
0000
0000
0001
0100
0001
0100
0010
0000
1000
0000
0100
0000
0011
0000
0000
0000
0000
0000
0000
0000
,  // measure 26
0000
0000
0001
0100
0001
0000
0010
0100
,  // measure 27
1000
0100
0010
0000
0000
0000
1001
0000
,  // measure 28
1000
0100
0001
0100
1000
0000
0010
0000
,  // measure 29
0001
0000
0010
1000
0100
0000
0010
0000
,  // measure 30
0011
0000
0001
0000
0100
0000
0010
1000
,  // measure 31
0100
0000
0010
0001
0100
0000
0001
0000
,  // measure 32
1000
0000
0010
0100
0001
0100
0000
0000
,  // measure 33
0010
0000
1000
0100
0001
0100
1000
0000
,  // measure 34
0001
0010
0100
0000
0010
0001
0100
0000
,  // measure 35
0010
1000
0100
0000
0000
0000
1000
0000
,  // measure 36
0001
0010
1000
0010
0001
0000
0101
0000
,  // measure 37
0110
0000
1010
0000
0000
0000
1000
0100
,  // measure 38
1000
0100
0001
0000
1000
0010
1000
0010
,  // measure 39
0001
0010
1000
0100
0010
0001
0100
0000
,  // measure 40
0000
1010
0000
0000
1001
0000
0000
0101
,  // measure 41
0000
0000
0100
0010
1000
0100
0002
0000
,  // measure 42
0000
0000
0000
0000
,  // measure 43
0000
0000
0000
2000
,  // measure 44
0000
3000
0000
0020
,  // measure 45
0000
0000
0030
0000
0000
0000
0103
0100
,  // measure 46
0010
1001
0000
1000
0001
0001
0100
1010
,  // measure 47
0000
0000
1001
0000
0101
0000
0110
0010
,  // measure 48
1000
0100
0001
0100
1000
0000
0000
1001
,  // measure 49
0010
0000
0100
0000
1000
0100
1000
0100
0010
0001
0010
0001
0100
0000
0000
0000
,  // measure 50
0010
1100
0000
0001
0110
0000
1000
0101
,  // measure 51
0000
0001
0110
0000
1010
0000
1000
1100
,  // measure 52
0100
0010
0001
0100
1010
1010
0000
0101
,  // measure 53
0101
0010
1000
0100
0010
0001
0101
0100
,  // measure 54
0010
1000
0100
0001
1100
0010
0001
0110
,  // measure 55
1000
0001
0011
0010
0110
1000
1001
0010
,  // measure 56
0001
0100
1000
0100
0101
0010
1000
0010
,  // measure 57
0001
0100
0010
0100
0001
0010
0100
0000
,  // measure 58
1000
0010
0100
0010
1000
0000
0001
0000
,  // measure 59
0100
0000
0001
0010
0100
0000
0010
0000
,  // measure 60
1000
0100
0010
0000
0100
0000
1000
0001
,  // measure 61
0010
0001
0100
0010
1000
0000
0010
0000
,  // measure 62
0100
0000
0001
0010
0100
0000
0010
0000
,  // measure 63
0001
0100
1000
0100
0001
0000
0010
1000
,  // measure 64
0010
0000
0001
0100
0010
1000
0100
0000
,  // measure 65
0010
0001
0100
0010
1000
0000
0001
0010
,  // measure 66
0001
0000
0100
0000
0010
1000
0100
0000
,  // measure 67
0010
0100
0010
0001
0100
0000
0010
1000
,  // measure 68
0100
0000
0001
0000
0100
1000
0010
0100
,  // measure 69
0010
0100
0001
0010
0001
0000
0100
0010
,  // measure 70
1000
0100
0010
0001
0100
0000
0010
1000
,  // measure 71
0001
0010
0001
0100
0010
0000
1000
0001
,  // measure 72
0010
0001
0100
0010
0100
0000
0001
0010
,  // measure 73
0100
0010
0001
0000
0100
0000
0010
1000
,  // measure 74
0100
0000
0010
0000
0011
0000
0001
0010
,  // measure 75
0100
0001
0100
1000
0010
0100
0001
0010
,  // measure 76
0100
1001
1001
0101
,  // measure 77
0110
0000
1010
0000
1100
0000
0010
0001
,  // measure 78
0100
0010
0100
0000
0001
0010
0100
0010
,  // measure 79
0001
0000
1000
0100
0010
0100
1000
0000
,  // measure 80
1000
0010
0001
0010
1000
0000
0100
0001
,  // measure 81
0100
1000
0010
0001
0010
1000
0001
0000
,  // measure 82
0100
0000
0010
0000
0100
0000
0001
0010
,  // measure 83
0100
1000
0100
0010
0100
1000
0100
0010
,  // measure 84
0001
0000
0101
0000
0100
0010
1000
0000
,  // measure 85
0010
0100
0001
0000
0010
0000
0100
1000
,  // measure 86
0100
0000
0010
0001
0100
0010
0100
0000
,  // measure 87
0010
1000
0100
1000
0001
0000
0101
0000
,  // measure 88
0100
0000
0000
0000
0000
0000
0000
0000
0010
0000
0000
0000
0000
0000
0000
0000
1000
0000
0000
0000
0000
0000
0000
0000
0110
0000
0010
0000
0001
0100
0001
0000
,  // measure 89
0100
0000
0010
0000
1000
0100
0010
0000
0001
0000
0100
0000
0010
1000
0100
0000
,  // measure 90
0010
0001
0100
0010
0100
0001
0010
0000
0100
0000
1100
0000
1000
0010
0001
0000
,  // measure 91
0010
0000
1000
0000
0100
0000
0001
0000
0100
1000
0010
0100
0010
1000
0001
0000
,  // measure 92
0100
0000
0010
1000
0100
1000
0001
0000
0100
0000
0010
1000
0100
1000
0001
0000
,  // measure 93
0101
0000
0000
0000
0100
0000
0100
0000
0010
1000
0001
0010
0001
0100
0010
0000
,  // measure 94
1000
0100
1000
0000
0001
0100
0001
0000
1000
0001
1000
0000
0010
0100
0001
0100
,  // measure 95
0010
0000
1000
0000
0100
0010
0001
0010
0100
0000
1000
0000
0010
0001
0010
0000
,  // measure 96
1000
0100
0001
0000
0100
0000
1000
0000
1010
0000
0010
0000
0110
0000
0100
0000
,  // measure 97
0101
0011
0110
1100
,  // measure 98
0110
0011
1001
1010
,  // measure 99
0110
0101
0011
1010
,  // measure 100
0011
0101
1100
0101
,  // measure 101
0001
0010
0100
1000
0100
0000
0010
0000
,  // measure 102
0001
0100
1000
0100
0001
1000
0001
0000
,  // measure 103
0100
0010
1000
0100
1000
0000
0001
0010
,  // measure 104
0001
0100
0010
0000
1000
0010
1000
0001
,  // measure 105
0100
0000
0010
1000
0001
1000
0010
0000
,  // measure 106
0100
0001
1000
0001
0100
0000
0010
1000
,  // measure 107
0100
0010
0001
0000
0100
0010
1000
0010
,  // measure 108
0100
0001
0010
1000
0010
0001
0100
0000
,  // measure 109
0010
1000
0100
0001
0100
1000
0010
0001
,  // measure 110
0010
1000
0100
1000
0100
0001
0100
0001
,  // measure 111
0100
1000
0100
0010
0001
0010
0100
1000
,  // measure 112
0100
0010
0001
0010
0100
1000
0001
0000
,  // measure 113
0101
0000
0000
0000
;
