#TITLE:Conflict;
#SUBTITLE:(Turmoil Mix);
#ARTIST:The Azoic;
#TITLETRANSLIT:;
#SUBTITLETRANSLIT:;
#ARTISTTRANSLIT:;
#GENRE:;
#CREDIT:;
#BANNER:Conflict (Turmoil Mix).png;
#BACKGROUND:Conflict (Turmoil Mix)-bg.png;
#LYRICSPATH:;
#CDTITLE:;
#MUSIC:Conflict (Turmoil Mix).ogg;
#OFFSET:-0.900000;
#SAMPLESTART:54.639999;
#SAMPLELENGTH:12.500000;
#SELECTABLE:YES;
#DISPLAYBPM:140.000000;
#BPMS:0.000000=140.000000
;
#STOPS:
;
#BGCHANGES:;
#KEYSOUNDS:;
#ATTACKS:;

//---------------dance-single - ----------------
#NOTES:
     dance-single:
     :
     Beginner:
     3:
     0.145401,0.217396,0.088935,0.019763,0.000000,103.000000,94.000000,9.000000,2.000000,0.000000,0.000000,0.145401,0.217396,0.088935,0.019763,0.000000,103.000000,94.000000,9.000000,2.000000,0.000000,0.000000:
0000
0000
0000
0000
,
0000
0000
0000
0000
,
0000
0000
0000
0000
,
0000
0000
0000
0000
,
0001
0000
0000
0000
,
1000
0000
0000
0000
,
1000
0000
0000
0000
,
0010
0010
0000
0000
,
1000
1000
0000
0000
,
0001
0000
0000
0000
,
0001
0000
0000
0000
,
0100
0100
0000
0000
,
0001
0001
0000
0000
,
1000
0000
1000
0000
,
0001
0000
0001
0000
,
1001
0000
0000
0000
,
1001
0000
0000
0000
,
0010
0000
0010
0000
,
0100
0000
0100
0000
,
0110
0000
0000
0000
,
1000
1000
1000
0000
,
0010
0000
0010
0000
,
0010
0010
0000
0000
,
1000
0000
1000
0000
,
1000
1000
0000
0000
,
0100
0000
0010
0000
,
0100
0100
0000
0000
,
0010
0000
0100
0000
,
0001
0001
0001
0000
,
2002
0000
0000
3003
,
0000
0000
0000
0000
,
0010
0000
0010
0010
,
0000
0000
0000
0000
,
1000
0000
1000
1000
,
0000
0000
0000
0000
,
1001
0000
0000
0000
,
0110
0000
0000
0000
,
1001
0000
0000
0000
,
1000
1000
0000
0000
,
1000
1000
1000
0000
,
0010
0010
0010
0000
,
0100
0100
0100
0000
,
0001
0001
0001
0001
,
0001
0000
0000
0000
,
1000
1000
1000
0000
,
0001
0000
0001
0000
,
0100
0000
0100
0000
,
0110
0000
0000
0000
,
0010
0000
0010
0000
,
0010
0000
0100
0000
,
0100
0000
0100
0000
,
0001
0001
0000
0001
,
0001
0000
0000
0001
,
1000
1000
0000
1000
,
1000
0000
0000
0000
,
1001
0000
0000
0000
;

//---------------dance-single - ----------------
#NOTES:
     dance-single:
     :
     Easy:
     5:
     0.255510,0.271745,0.029645,0.059290,0.000000,181.000000,178.000000,3.000000,6.000000,0.000000,0.000000,0.255510,0.271745,0.029645,0.059290,0.000000,181.000000,178.000000,3.000000,6.000000,0.000000,0.000000:
0000
0000
0000
0000
,
0000
0000
0000
0000
,
0000
0000
0000
0000
,
0000
0000
0000
0000
,
0001
1000
2002
3003
,
0010
0010
0010
1000
,
0010
0010
0100
0001
,
0010
0010
0001
0001
,
0100
0010
1000
1000
,
0010
0000
0010
0000
,
0010
0010
0010
0010
,
1000
0010
1000
0001
,
0200
0000
0000
0300
,
0001
0001
1000
0001
,
0100
0010
1000
0100
,
1000
0100
0100
1000
,
0010
0100
0200
0300
,
0100
0001
1000
1000
,
0001
0100
0100
0010
,
0100
0001
1000
0001
,
0100
0000
0100
0000
,
0001
0001
0000
0001
,
1000
1000
0000
0010
,
0100
0010
0000
0100
,
0001
1000
0001
1000
,
0100
1000
0100
1000
,
0010
1000
0010
0100
,
0001
0001
1000
0001
,
0100
0010
1000
0100
,
2002
0000
0000
0000
,
0000
0000
0000
3003
,
1000
1000
1000
0001
,
0001
0100
0010
1000
,
0010
0100
0001
1000
,
1000
1000
0001
1000
,
0010
0010
0000
0010
,
0100
0100
0000
0100
,
0001
1000
0001
0001
,
1000
0100
0010
1000
,
0010
0010
1000
0001
,
0100
0100
0001
1000
,
0100
0010
0001
0100
,
0010
0100
1000
0001
,
0100
0100
0001
1000
,
0010
0010
1000
0001
,
0100
0000
0100
0000
,
0100
0100
0010
1000
,
0001
0001
0000
1000
,
0001
0001
0000
1000
,
0010
0010
0000
1000
,
0100
0100
0000
1000
,
0010
1000
0001
1000
,
0010
1000
0010
1000
,
0001
0100
0001
1000
,
0001
0100
0010
1000
,
1001
0000
0000
0000
;

//---------------dance-single - ----------------
#NOTES:
     dance-single:
     :
     Medium:
     8:
     0.306330,0.450602,0.256922,0.375502,0.000000,217.000000,191.000000,26.000000,38.000000,0.000000,0.000000,0.306330,0.450602,0.256922,0.375502,0.000000,217.000000,191.000000,26.000000,38.000000,0.000000,0.000000:
0000
0000
0000
0000
,
0000
0000
0000
0000
,
0000
0000
0000
0000
,
0000
0000
0000
0000
,
0001
1000
0001
0000
0200
0000
0300
0000
,
0002
0003
0020
0030
,
0200
0300
2000
3000
,
0002
0003
2000
3000
,
0200
0300
0020
0030
,
2000
3100
2000
3001
,
0200
0010
0010
0310
,
1000
0010
1000
0010
,
2020
0000
0000
3030
,
0100
0001
0001
0100
,
0010
1000
0100
0010
,
0001
1000
1000
0100
,
1100
0000
1100
0000
,
0010
0100
0100
0001
,
1000
0100
0010
0001
,
0100
0010
0010
1000
,
0101
0000
0101
0000
,
0001
0100
0001
0000
1000
0100
1000
0000
,
0001
1000
0001
0000
1000
0000
1000
0000
,
0001
0010
0100
1000
,
2001
3100
1002
0103
,
0010
1000
0010
0000
0020
0000
0130
0000
,
0001
0100
0001
0000
1000
0001
1000
0000
,
0001
0010
0100
1000
,
0120
1030
2010
3001
,
2002
0000
0000
0000
,
0000
0000
0000
3003
,
2100
0010
0001
3010
,
0012
1000
0100
1003
,
0102
1000
0010
2000
,
0000
0000
3003
0000
0001
1000
0001
0000
,
2001
0001
0100
3001
,
2010
0010
0100
3010
,
1002
0010
1000
0200
,
0000
0000
0303
0000
0010
1000
0010
0000
,
0100
0000
0001
0000
0010
0100
0010
0000
,
1000
0000
0001
0000
0100
0010
0100
0000
,
1100
0001
0101
1000
,
1001
1001
1001
1001
,
0110
0100
1000
0010
,
0020
0000
0000
1030
,
2000
0000
0000
3001
,
0200
0000
0300
0000
0010
0100
0010
0000
,
1010
0000
1000
0000
0001
0100
0001
0000
,
0001
0100
0001
1000
,
0010
1000
0010
0100
,
0202
0000
0303
0000
1000
0100
1000
0000
,
0002
1000
1003
0100
,
2000
0010
3010
0100
,
0010
0100
0010
0000
1000
0010
1000
0100
,
1000
0010
1000
0000
1000
0001
1000
0000
,
2002
0000
0000
0000
,
0000
0000
0000
0000
,
3003
0000
0000
0000
;

//---------------dance-single - ----------------
#NOTES:
     dance-single:
     :
     Hard:
     10:
     0.440438,0.506927,0.335975,0.177869,0.014822,312.000000,278.000000,34.000000,18.000000,0.000000,0.000000,0.440438,0.506927,0.335975,0.177869,0.014822,312.000000,278.000000,34.000000,18.000000,0.000000,0.000000:
// measure 0
0000
0000
0000
0000
,  // measure 1
0000
0000
0000
0000
,  // measure 2
0000
0000
0000
0000
,  // measure 3
0000
0000
0000
0000
,  // measure 4
0001
0100
0010
0000
2002
0000
3003
0000
,  // measure 5
1000
0001
0100
0001
,  // measure 6
0001
1000
0100
1000
,  // measure 7
1000
0010
0100
0010
,  // measure 8
0010
0100
0001
0100
,  // measure 9
0010
0000
1000
0000
0001
0000
0000
0200
0000
0000
0000
0300
0001
0000
1000
0000
,  // measure 10
0100
0000
0010
0000
0001
0000
0000
2000
0000
0000
0000
3000
0001
0000
0100
0000
,  // measure 11
0010
0000
0100
0000
0001
0000
0000
2000
0000
0000
0000
3000
0010
0000
0100
0000
,  // measure 12
0220
0000
0000
0330
,  // measure 13
1000
0010
1000
0100
0010
0001
0010
0100
,  // measure 14
1000
0010
0100
0001
0010
0100
0100
0100
,  // measure 15
1000
0010
1000
0100
0010
0001
0010
0100
,  // measure 16
1000
0010
0100
0000
0110
0000
0110
0000
,  // measure 17
0001
1000
0001
0100
0001
0010
0100
1000
,  // measure 18
0001
0100
0010
0100
0001
1000
1000
1000
,  // measure 19
0001
1000
0001
0010
0001
1000
0010
1000
,  // measure 20
0100
0010
0001
0000
0011
0000
0011
0000
,  // measure 21
1000
0001
1000
0000
0001
0000
1000
0000
,  // measure 22
0010
0100
0001
0000
1000
0001
0100
0000
,  // measure 23
0010
1000
0100
0000
1000
0001
0100
0000
,  // measure 24
0001
1000
0001
0000
0101
0000
1100
0000
,  // measure 25
1000
0100
0100
0000
0010
0100
0100
0000
,  // measure 26
0011
0000
1000
0001
1000
0000
0001
0100
,  // measure 27
0001
0000
1100
0000
0010
1000
0100
0000
,  // measure 28
1000
0010
0100
0001
0010
0000
1100
0000
,  // measure 29
0202
0000
0000
0000
,  // measure 30
0000
0000
0000
0303
,  // measure 31
1001
0000
0001
0001
1000
1000
0001
0100
,  // measure 32
0110
0000
1000
1000
0001
0001
1000
0010
,  // measure 33
0110
0000
0001
0010
0100
1000
0010
0100
,  // measure 34
0002
0000
1003
0000
1000
0010
1000
0000
,  // measure 35
1000
0101
0001
0101
,  // measure 36
0010
1010
0100
0110
,  // measure 37
0010
1000
0010
0100
0010
1000
0001
0000
,  // measure 38
0200
0001
0301
1100
,  // measure 39
1000
1000
0100
0010
0001
0001
0100
0010
,  // measure 40
0100
0100
0001
1000
0100
0100
0010
0100
,  // measure 41
1000
1000
0010
0100
0001
0001
1000
0100
,  // measure 42
0010
0010
0002
0000
1000
0000
0103
0000
,  // measure 43
0101
1010
0110
0101
,  // measure 44
1100
1001
0110
0011
,  // measure 45
2000
0010
0010
0010
0000
0010
3020
0000
,  // measure 46
0100
0000
0130
0000
0010
0100
0010
0000
,  // measure 47
2020
0000
0000
3030
,  // measure 48
0100
0000
0001
0000
1000
0001
1000
0000
,  // measure 49
0100
0000
1000
0000
0010
1000
0010
0100
,  // measure 50
0001
0000
1000
0000
0100
1000
0100
0000
,  // measure 51
1100
0000
1100
0000
0010
1000
0100
0000
,  // measure 52
0110
0000
0110
0000
0001
0100
0001
0100
,  // measure 53
0010
0000
0100
0000
0001
0010
0100
1000
,  // measure 54
0010
0100
0010
1000
0100
0010
0001
0000
,  // measure 55
0202
0000
0000
0000
,  // measure 56
0000
0000
0000
0000
,  // measure 57
0303
0000
0000
0000
;

//---------------dance-double - ----------------
#NOTES:
     dance-double:
     :
     Beginner:
     1:
     0.151048,0.190221,0.079053,0.000000,0.000000,107.000000,99.000000,8.000000,0.000000,0.000000,0.000000,0.151048,0.190221,0.079053,0.000000,0.000000,107.000000,99.000000,8.000000,0.000000,0.000000,0.000000:
00000000
00000000
00000000
00000000
,
00000000
00000000
00000000
00000000
,
00000000
00000000
00000000
00000000
,
01000000
00000000
10010000
00000000
,
00000000
00000000
00000000
00000000
,
10010000
00000000
00000000
00000000
,
01000000
00000000
00000000
00000000
,
01000000
01000000
00000000
00000000
,
00100000
00100000
00000000
00000000
,
00001000
00000000
00000001
00000000
,
00001000
00000000
00000001
00000000
,
00000100
00000100
00000000
00000000
,
00011000
00000000
00000000
00000000
,
00010000
00010000
00010000
00000000
,
00000100
00000100
00000100
00000000
,
00000001
00000000
00000001
00000000
,
00001000
00001000
00001000
00000000
,
00000010
00000000
00000010
00000000
,
00001000
00000000
00001000
00000000
,
01000000
01000000
01000000
00000000
,
10010000
00000000
00000000
00000000
,
00100000
00000000
00100000
00000000
,
01000000
00000000
01000000
00000000
,
00010000
00000000
10000000
00000000
,
10000000
10000000
10000000
00000000
,
00010000
00000000
00010000
00000000
,
00000100
00000000
00000100
00000000
,
00000010
00000000
00000010
00000000
,
00000100
00000100
00000100
00000000
,
00011000
00000000
00000000
00000000
,
00000000
00000000
00000000
00000000
,
10000000
10000000
10000000
00000000
,
10000000
00000000
10000000
00000000
,
00010000
00010000
00010000
00000000
,
00010000
00000000
01000000
00000000
,
00100000
00100000
00100000
00000000
,
10000000
00000000
00010000
00000000
,
00010000
00010000
00000000
00010000
,
00000000
00000000
00000000
00000000
,
00001000
00000000
00001000
00000000
,
00000001
00000000
00000001
00000000
,
00000100
00000000
00000001
00000000
,
00000010
00000000
00000100
00000000
,
00001000
00000000
00001000
00000000
,
00010000
00010000
00000000
00000000
,
00100000
00100000
00000000
00000000
,
01000000
01000000
00000000
00000000
,
10000000
10000000
00000000
10000000
,
00000000
00000000
00000000
00000000
,
00010000
00010000
00000000
00010000
,
00000000
00000000
00000000
00000000
,
00010000
00000000
00000000
00000000
,
10010000
00000000
00000000
00000000
,
01100000
00000000
00000000
00000000
,
00100000
00100000
00000000
00000000
,
00011000
00000000
00000000
00000000
;

//---------------dance-double - ----------------
#NOTES:
     dance-double:
     :
     Easy:
     4:
     0.196221,0.253464,0.059290,0.069171,0.000000,139.000000,133.000000,6.000000,7.000000,0.000000,0.000000,0.196221,0.253464,0.059290,0.069171,0.000000,139.000000,133.000000,6.000000,7.000000,0.000000,0.000000:
00000000
00000000
00000000
00000000
,
00000000
00000000
00000000
00000000
,
00000000
00000000
00000000
00000000
,
00000000
00000000
00000000
00000000
,
00010000
00001000
00010000
00000000
,
00000100
00000100
00000010
00001000
,
00000001
00000000
00000010
00000000
,
00000001
00001000
00000100
00001000
,
00000001
00000100
00000100
00000010
,
00010000
00001000
01000000
00100000
,
10000000
00000000
00100000
00000000
,
00010000
10000000
01000000
10000000
,
00020000
00000000
00000000
00030000
,
01000000
01000000
00010000
00000000
,
10000000
00000000
10000000
00000000
,
01000000
00100000
00010000
01000000
,
00010000
00001000
00000100
00000000
,
00000010
00000010
00000001
00000000
,
00000100
00000000
00000100
00000000
,
00000010
00001000
00000010
00001000
,
00000100
00001000
00000001
00001000
,
00000000
00001000
00000000
00000100
,
00000000
00010000
00000000
01000000
,
00000000
00100000
00000000
10000000
,
00100000
10000000
00100000
00000000
,
00000000
10000000
00000000
00010000
,
00000000
01000000
00000000
00001000
,
00000000
00000100
00000000
00000010
,
00000001
00000100
00000001
00000000
,
00000002
00000000
00000000
00000000
,
00000000
00000000
00000000
00000003
,
00001001
00000000
00000000
00000000
,
00000110
00000000
00000000
00000000
,
00011000
00000000
00000000
00000000
,
01100000
00000000
10000000
10000000
,
10010000
00000000
00000000
00000000
,
10000000
01000000
00010000
01000000
,
00100000
00100000
00100000
00200000
,
00000000
00000000
00000000
00300000
,
10000000
00010000
10000000
10000000
,
10000000
00100000
00010000
01000000
,
10000000
00100000
00010000
01000000
,
10000000
00100000
00010000
01000000
,
10000000
00010000
01000000
00001000
,
00010000
00000010
00000100
00000001
,
00000200
00000000
00000000
00000300
,
00000000
00000000
00000000
00000000
00000001
00001000
00000001
00000000
,
00002000
00000000
00000000
00003000
,
00000001
00000100
00000001
00000100
,
00000000
00000001
00000000
00001000
,
00000000
00000100
00000000
00010000
,
00000000
00001000
00000000
00100000
,
00000000
00010000
00000000
10000000
,
00000000
10000000
00000000
00100000
,
00000000
01000000
00000000
00010000
,
00022000
00000000
00000000
00000000
,
00000000
00000000
00000000
00000000
,
00033000
00000000
00000000
00000000
;

//---------------dance-double - ----------------
#NOTES:
     dance-double:
     :
     Medium:
     5:
     0.306330,0.450602,0.256922,0.375502,0.000000,217.000000,191.000000,26.000000,38.000000,0.000000,0.000000,0.306330,0.450602,0.256922,0.375502,0.000000,217.000000,191.000000,26.000000,38.000000,0.000000,0.000000:
00000000
00000000
00000000
00000000
,
00000000
00000000
00000000
00000000
,
00000000
00000000
00000000
00000000
,
00000000
00000000
00000000
00000000
,
00001000
00010000
00001000
00000000
02000000
00000000
03000000
00000000
,
00020000
00030000
20000000
30000000
,
02000000
03000000
00020000
00030000
,
00002000
00003000
00020000
00030000
,
00000200
00000300
00000020
00000030
,
00000002
00000103
00002000
00003100
,
00000020
00000100
00000100
00000130
,
00001000
00010000
00001000
00010000
,
00022000
00000000
00000000
00033000
,
00001000
00100000
00100000
00010000
,
10000000
00010000
01000000
00100000
,
10000000
01000000
00010000
00001000
,
00011000
00000000
00011000
00000000
,
00010000
00000100
00000100
00001000
,
00000001
00001000
00000010
00000100
,
00000001
00000100
00001000
00010000
,
00011000
00000000
00011000
00000000
,
00010000
01000000
00010000
00000000
10000000
01000000
10000000
00000000
,
10000000
01000000
00010000
00000000
00001000
00000000
00001000
00000000
,
00010000
00000100
00000010
00000100
,
00001002
00000103
00002001
00003100
,
00000001
00000100
00001000
00000000
00020000
00000000
00031000
00000000
,
00100000
01000000
00100000
00000000
00010000
10000000
00010000
00000000
,
10000000
00010000
00100000
01000000
,
00210000
01300000
21000000
30010000
,
20020000
00000000
00000000
00000000
,
00000000
00000000
00000000
30030000
,
21000000
00100000
00010000
30100000
,
00120000
10000000
01000000
00130000
,
00102000
00010000
00100000
00020000
,
00000000
00000000
00033000
00000000
00001000
00000100
00000001
00000000
,
00001002
00001000
00000010
00001003
,
00000102
00000100
00000010
00000103
,
00002001
00000100
00000001
00000020
,
00000000
00000000
00003030
00000000
00000001
00000100
00000001
00000000
,
00000100
00000000
00001000
00000000
00010000
00001000
00010000
00000000
,
01000000
00000000
10000000
00000000
00100000
01000000
00100000
00000000
,
01010000
00010000
11000000
10000000
,
10010000
01100000
01010000
00011000
,
00001100
00000010
00000001
00000100
,
00000020
00000000
00000000
00001030
,
00000002
00000000
00000000
00000103
,
00002000
00000000
00003000
00000000
00000001
00001000
00000001
00000000
,
00001001
00000000
00000001
00000000
00001000
00000100
00001000
00000000
,
00000100
00010000
00001000
00100000
,
00010000
01000000
00100000
01000000
,
02020000
00000000
03030000
00000000
10000000
01000000
10000000
00000000
,
00200000
10000000
10300000
01000000
,
20000000
00100000
30100000
01000000
,
00010000
00001000
00010000
00000000
00000010
00001000
00000001
00001000
,
00000100
00000010
00000001
00000000
00001000
00000001
00001000
00000000
,
00002002
00000000
00000000
00000000
,
00000000
00000000
00000000
00000000
,
00003003
00000000
00000000
00000000
;

//---------------dance-double - ----------------
#NOTES:
     dance-double:
     :
     Hard:
     7:
     0.460201,0.506927,0.365620,0.167988,0.009882,326.000000,289.000000,37.000000,17.000000,0.000000,0.000000,0.460201,0.506927,0.365620,0.167988,0.009882,326.000000,289.000000,37.000000,17.000000,0.000000,0.000000:
00000000
00000000
00000000
00000000
,
00000000
00000000
00000000
00000000
,
00000000
00000000
00000000
00000000
,
00000000
00000000
00000000
00000000
,
00100000
10000000
00010000
00000000
00022000
00000000
00033000
00000000
,
00010000
00000010
00000100
00000001
,
00000001
00001000
00000100
00010000
,
00010000
00001000
01000000
00100000
,
00100000
10000000
00010000
01000000
,
00001000
00010000
00000100
00000000
00002000
00000000
00003010
00000100
,
00000001
00000000
00000100
00000000
00001000
00000000
00000000
00020000
00000000
00000000
00000000
00030000
00001000
00000000
01000000
00000000
,
00010000
00000000
01000000
00000000
00100000
00000000
00000000
20000000
00000000
00000000
00000000
30000000
01000000
00000000
00010000
00000000
,
00022000
00000000
00000000
00033000
,
00011000
00000000
00010000
00001000
00000100
00000010
00001000
00000001
,
00000010
00000100
00001000
00000001
00000100
00001000
00010000
00000000
,
00001000
00010000
00100000
01000000
00100000
10000000
00100000
01000000
,
00010000
00100000
01000000
00000000
02200000
00000000
03300000
00000000
,
00010000
10000000
00010000
01000000
00001000
00010000
00000100
00000010
,
00000001
00001000
00000010
00000100
00000001
00001000
00001000
00000000
,
00010000
00001000
00010000
00000100
00010000
00001000
00100000
00010000
,
01000000
00100000
10000000
00000000
20200000
00000000
30300000
00000000
,
10000000
00010000
01000000
00000000
00010000
00000000
00011000
00000000
,
00001000
00010000
00000100
00000000
00000010
00000000
00001100
00000000
,
00000010
00000001
00001000
00000000
00000010
00000000
00000101
00000000
,
00000001
00000100
00001000
00000000
00010000
00000000
00101000
00000000
,
00010000
01000000
01000000
00000000
00001000
00010000
00010000
00000000
,
00000010
00000000
00001000
00000000
00000001
00000100
00000100
00000000
,
00001100
00000000
00000101
00000000
00000010
00001000
00000100
00000000
,
00001100
00000000
00010100
00000000
00010000
00001000
00010000
00000000
,
00022000
00000000
00000000
00000000
,
00000000
00000000
00000000
00033000
,
00001000
00010000
00000010
00000010
00001000
00000001
00000100
00000010
,
00001000
00000001
00000001
00000100
00000010
00000010
00001000
00001000
,
00000100
00010000
00001000
00001000
00010000
01000000
10000000
10000000
,
00010000
00010000
00100000
00010000
10000000
01000000
10000000
00000000
,
10010000
00000000
01010000
00000000
00100000
10000000
01000000
00000000
,
00110000
00000000
10100000
00000000
10000000
01000000
00010000
00000000
,
00001000
00000100
00000010
00001000
00000100
00000010
00000001
00000100
,
00000010
00001000
00001000
00011000
,
00010000
00010000
00001000
00100000
00010000
00010000
01000000
00100000
,
10000000
10000000
00010000
10000000
01000000
01000000
00100000
00010000
,
10000000
10000000
00100000
01000000
00010000
00010000
00100000
00001000
,
00010000
00010000
00000020
00000000
00001000
00000000
00000130
00000000
,
00000110
00001001
00000101
00001100
,
00011000
00110000
01100000
10010000
,
00020000
00100000
00100000
00130000
00010000
00100000
01000000
01000000
,
10000000
00100000
01000000
01000000
00100000
01000000
00100000
01000000
,
01100000
00000000
10010000
00000000
10000000
01000000
00010000
00001000
,
00000100
00000000
00000110
00000000
00001000
00000010
00000100
00001000
,
00010000
00000000
00011000
00000000
00001000
00010000
00100000
10000000
,
01000000
00000000
01100000
00000000
01000000
00010000
00001000
00000000
,
01001000
00000000
01010000
00000000
00010000
01000000
00001000
00000000
,
00011000
00000000
00010100
00000000
00010000
00000100
00010000
00001000
,
00000010
00000000
00000001
00000000
00001000
00000010
00000100
00001000
,
00010000
00100000
01000000
10000000
01000000
00100000
00010000
00001000
,
00022000
00000000
00000000
00000000
,
00000000
00000000
00000000
00000000
,
00033000
00000000
00000000
00000000
;

//---------------dance-single - ----------------
#NOTES:
     dance-single:
     :
     Challenge:
     12:
     0.578781,0.591415,0.415028,0.088935,0.138343,410.000000,368.000000,42.000000,9.000000,0.000000,0.000000,0.578781,0.591415,0.415028,0.088935,0.138343,410.000000,368.000000,42.000000,9.000000,0.000000,0.000000:
// measure 0
0000
0000
0000
0000
,  // measure 1
0000
0000
0000
0000
,  // measure 2
0000
0000
0000
0000
,  // measure 3
0000
0000
0000
0000
,  // measure 4
1000
0010
0001
0000
2002
0000
3003
0000
,  // measure 5
1100
1100
0011
0011
,  // measure 6
0110
0110
1100
1100
,  // measure 7
1001
0000
1001
0000
0011
0000
0001
0010
,  // measure 8
0100
1000
0000
0000
1000
0010
0000
0100
0001
0100
0001
0000
1000
0000
0000
1000
,  // measure 9
0010
0000
0000
0010
0100
0000
0000
0001
0010
0001
0010
0000
1000
0000
0010
0000
,  // measure 10
0001
0100
0000
0100
0010
0000
1000
0000
0010
0100
0000
0000
0101
0000
0000
0000
,  // measure 11
0011
0000
0000
0010
1000
0000
0010
0001
0010
0001
0000
0000
0100
0000
0100
0000
,  // measure 12
1010
0000
0000
1000
0001
0000
0100
0001
0000
0100
0000
0000
0110
0000
0000
0000
,  // measure 13
1010
1000
0100
0010
0001
0100
1000
0100
,  // measure 14
0001
0010
1000
0010
0001
0100
1000
0001
,  // measure 15
0010
1000
0001
0010
0100
0001
0100
1000
,  // measure 16
0001
0100
0010
0100
0001
0010
0100
0000
,  // measure 17
1100
0000
1010
0010
0100
0001
0010
0000
,  // measure 18
1100
0100
1000
0010
0100
0001
0010
0000
,  // measure 19
0110
0100
1000
0010
0001
1000
0100
0001
,  // measure 20
0101
0000
1100
0000
1010
0000
0011
0001
,  // measure 21
0010
0000
1010
0100
0010
0001
0010
0100
,  // measure 22
1000
0100
0001
1000
0010
0000
0001
0010
,  // measure 23
1000
0100
0001
1000
0010
0001
0100
0010
,  // measure 24
0100
0001
0010
1000
0001
0100
1000
0001
,  // measure 25
1000
1010
0110
0101
,  // measure 26
0001
0010
0100
0001
0100
1000
0010
0100
,  // measure 27
0001
0010
0001
1000
0010
0100
0010
1000
,  // measure 28
0001
0010
0001
0000
0100
0000
0010
0000
1000
0000
1000
0000
0100
0000
0100
0000
,  // measure 29
2002
0000
0000
0000
,  // measure 30
0000
0000
0000
3003
,  // measure 31
0010
0010
0110
0100
1000
1000
1001
0001
,  // measure 32
0010
0010
0110
0100
1000
1000
1001
0001
,  // measure 33
0010
0010
0001
0100
1000
0100
0001
0010
,  // measure 34
1010
0000
1000
0000
0010
0001
0000
0000
0001
0000
1000
0000
0010
1000
0000
0000
,  // measure 35
0100
0010
0001
0010
0100
1000
0001
0010
,  // measure 36
0001
0010
0100
0001
0100
1000
0100
0010
,  // measure 37
1000
0010
0001
0100
1000
0100
0001
0010
,  // measure 38
1100
0000
1000
0000
0010
0100
0010
0000
0100
0000
0001
0000
0020
0000
0000
0000
,  // measure 39
0130
0000
0100
0000
1000
0001
1000
0000
0010
0000
0100
0000
0102
0000
0000
0000
,  // measure 40
0013
0000
1000
0000
0010
0001
0010
0000
0100
0000
1000
0000
1200
0000
1000
0000
,  // measure 41
0310
0100
0001
0010
0001
1000
0010
0000
,  // measure 42
0100
0001
0010
1000
0010
0001
0100
0100
,  // measure 43
0010
1000
0100
0001
0100
1000
0010
1000
,  // measure 44
0100
1000
0010
1000
0100
1000
0010
0100
,  // measure 45
0001
0001
0010
0000
0100
0100
1000
0000
,  // measure 46
0010
0000
0010
0000
0100
0001
0000
0000
1000
0000
1000
0000
0010
0100
0000
0000
,  // measure 47
0001
1000
1100
0000
0010
0100
1100
0000
,  // measure 48
1000
0100
0101
0000
0001
0010
1000
0010
,  // measure 49
0001
0100
1000
0100
0001
0010
0100
1000
,  // measure 50
0100
0010
0001
1000
0010
1000
0001
0100
,  // measure 51
0010
1000
0010
0100
0001
0010
0100
1000
,  // measure 52
0001
0010
0001
0000
0100
0000
0010
0000
1000
0000
0010
0000
0100
0000
0001
0000
,  // measure 53
0010
0100
0010
0000
0100
0000
1000
0000
0001
0000
0010
0000
0001
0000
0010
0000
,  // measure 54
0001
1000
0001
0000
1000
0000
0100
0000
0010
0000
0001
0000
0100
0000
0010
0000
,  // measure 55
2020
0000
0000
0000
,  // measure 56
0000
0000
0000
0000
,  // measure 57
3030
0000
0000
0000
;
