#TITLE:Cleopatrysm;
#SUBTITLE:;
#ARTIST:ピラミッ℃;
#TITLETRANSLIT:;
#SUBTITLETRANSLIT:;
#ARTISTTRANSLIT:Pyrami℃;
#GENRE:;
#CREDIT:;
#BANNER:Cleopatrysm.png;
#BACKGROUND:;
#LYRICSPATH:;
#CDTITLE:;
#MUSIC:Cleopatrysm.mp3;
#OFFSET:0.000000;
#SAMPLESTART:69.152870;
#SAMPLELENGTH:15.000000;
#SELECTABLE:YES;
#DISPLAYBPM:190.000000;
#BPMS:0.000000=190.007996
;
#STOPS:
;
#BGCHANGES:;
#KEYSOUNDS:;
#ATTACKS:;

//---------------dance-single - ----------------
#NOTES:
     dance-single:
     :
     Easy:
     7:
     0.316182,0.528845,0.127689,0.102151,0.000000,260.000000,245.000000,15.000000,12.000000,0.000000,0.000000,0.316182,0.528845,0.127689,0.102151,0.000000,260.000000,245.000000,15.000000,12.000000,0.000000,0.000000:
0000
0000
0000
0000
,
0000
0000
0000
0000
,
0000
0000
0000
0000
,
0000
0000
0000
0000
,
0000
0000
0000
0000
,
0000
0000
0000
0000
,
1000
0001
0100
1000
,
1000
0001
0010
0001
,
1000
0000
0100
0001
,
0002
0000
0000
0003
,
1000
0000
0000
0000
,
0100
0100
0100
0000
,
0001
0001
0100
0100
,
0010
0100
0001
0010
,
1000
0000
0000
0000
,
0100
0010
1000
0000
,
0100
0010
0010
0001
,
0010
1000
0100
0000
,
1001
0000
0100
0010
,
0001
0000
0000
0000
,
0100
1000
0001
0010
,
0001
0001
0010
1001
,
1001
0000
0000
0000
,
0100
0100
0100
0001
,
1000
0000
0000
2002
,
0000
0000
0000
3003
,
0000
1000
0001
1000
,
0001
0001
0001
0001
,
0001
1000
0100
0000
,
1001
0000
1000
0001
,
1000
0010
2002
3003
,
0010
0000
0001
1000
,
0010
1000
0001
0000
,
0010
1000
0001
1000
,
0001
1000
0002
0003
,
1000
0010
0001
0001
,
0001
1000
0001
0000
,
1000
0010
0001
1000
,
0001
1000
0010
0000
,
1000
0001
0001
0010
,
0000
0000
1001
0000
,
1000
0001
0010
1000
,
1000
0010
0001
0000
,
1000
0100
0001
0001
,
0100
0100
0020
0030
,
1000
0001
0010
0001
,
0000
0100
0100
0001
,
0001
1000
0010
0001
,
0000
0100
0001
0100
,
1000
0100
0010
0001
,
0000
1000
0010
0000
,
0001
0010
0100
0001
,
0010
1000
0010
0000
,
2002
0000
0000
3003
,
0000
0000
0000
0000
,
0001
0010
0100
0000
,
0001
0010
1000
0000
,
0001
1000
0100
0000
,
1000
0010
0100
0001
,
0001
0000
1000
0000
,
0020
0000
0000
0030
0000
0000
0000
0000
,
0100
0010
0010
0010
,
1000
0100
0001
0000
,
1000
0001
0001
0000
,
1000
0100
0001
0000
,
0100
0100
0001
0010
,
1000
0100
0001
0000
,
1000
0001
0001
0100
,
0020
0000
0000
0030
,
1001
0000
0010
0000
,
0100
0001
0010
0000
,
1000
1000
1000
0000
,
1000
1000
0001
0000
,
0001
0010
0010
0000
,
1000
1000
1000
0000
,
0001
0000
0001
0100
,
0001
0001
0010
1000
,
1001
0000
0000
0000
,
0100
0001
0010
0000
,
1000
1000
1000
0000
,
1000
0010
0001
0010
,
0001
0010
0010
0000
,
0010
1000
0100
0001
,
1001
1001
1001
1001
,
1002
0000
1000
0000
,
0100
0000
0003
0000
,
0100
0001
0100
0000
,
0100
1000
0100
0100
,
0100
0001
0100
0010
;

//---------------dance-single - ----------------
#NOTES:
     dance-single:
     :
     Medium:
     11:
     0.454816,0.605245,0.246865,0.153227,0.000000,374.000000,345.000000,29.000000,18.000000,0.000000,0.000000,0.454816,0.605245,0.246865,0.153227,0.000000,374.000000,345.000000,29.000000,18.000000,0.000000,0.000000:
0000
0000
0000
0000
,
0000
0000
0000
0000
,
0000
0000
0000
0000
,
0000
0000
0000
0000
,
0000
0000
0000
0000
,
0000
0000
0000
0000
,
0001
1000
0010
0100
0000
0001
0000
0001
,
0000
1000
0000
0010
0000
0000
1100
0000
,
0011
0000
0000
0100
0000
1000
0100
2000
,
0000
0000
0000
3000
,
0001
0000
0000
1000
0000
0001
0010
0100
,
0000
0100
0000
0100
0000
0100
0010
1000
,
0000
1000
0000
0100
0010
0100
1000
0010
,
0000
0100
0000
1000
0000
0010
0000
0001
,
0010
0000
0000
0001
0010
0001
1000
0100
,
0000
0010
0000
0001
0100
0000
0100
0000
,
0010
0000
0100
0010
0000
0000
1000
0010
,
0000
0011
0000
0110
0000
1100
0000
0001
,
1000
0000
0000
0000
0100
0010
0000
1000
,
0000
0100
0000
0010
0000
0100
0000
0100
,
0000
0001
0000
1000
0000
0010
0000
1000
,
0000
1100
0000
0110
0000
1001
0000
0001
,
1000
0001
0000
0001
0000
0100
0010
0100
,
0000
0100
0000
0100
0000
0100
1000
0001
,
0010
0000
0001
1000
0000
0010
1000
0000
,
0001
1000
0001
0001
,
0001
0010
1000
0000
1000
0000
0100
0000
,
1000
0010
1000
1000
,
1000
0001
1000
0001
0010
0000
0000
0000
,
1001
0000
0110
0000
0001
0000
1000
0010
,
0001
0000
0010
0000
2002
0000
0000
3003
,
0020
0000
0000
1030
0000
1000
0001
0010
,
0000
0001
0010
0001
2000
0000
0000
3000
,
0021
0000
0031
0000
1001
0000
0000
0001
,
1000
0000
0001
0000
2000
0000
0000
3000
,
0001
0010
0000
1000
0000
0100
1000
0010
,
1000
0001
1000
0100
,
1001
0010
1000
0001
,
1000
0000
0001
0000
0010
0100
0010
0000
,
0001
1000
0010
0000
1000
0000
0010
0000
,
0000
0000
0010
1000
0100
0000
0000
0000
,
0001
1000
0010
0000
0010
0000
0001
0000
,
0001
0000
0010
1000
0001
0000
0000
0000
,
0001
0100
1000
1000
,
0100
1000
0100
1000
0010
0000
0000
0000
,
0001
1000
0010
1000
,
0000
0100
0010
0000
0100
1000
0000
0100
,
1000
0001
0010
1010
,
0000
0000
1100
0000
1000
0001
1000
0001
,
1000
0100
0010
1000
,
0000
0010
0001
0000
0010
0000
0000
0000
,
1000
0000
0010
0100
0000
0010
1000
0000
,
0010
0001
0010
0000
,
2002
0000
0000
3003
,
0000
0000
0000
0000
,
1000
0000
0010
0100
0000
0000
0000
0000
,
1000
0100
0010
0001
0000
0000
0000
0000
,
1000
0001
0010
0002
0000
0003
0010
0000
,
0001
0010
0100
1000
,
1000
0001
1000
0010
0000
0001
0100
0020
,
0000
0000
0000
0030
0000
0000
0000
0000
,
0100
0010
0100
0010
0000
0000
0010
1000
,
0000
0000
0100
1000
0000
0000
0010
0000
,
0001
1000
0001
2000
0000
0000
3001
0000
,
0001
0100
0010
2000
0000
0000
3001
0000
,
0100
0000
0100
2000
0000
3000
0010
0002
,
0000
0003
0100
1000
0000
0010
0100
0000
,
0001
1000
0001
1000
0000
0001
0100
0020
,
0000
0000
1000
1030
,
1001
0000
0010
0000
,
0100
0010
1000
0000
0010
0000
0000
0000
,
0001
0000
0001
0000
0001
0000
0000
0010
,
0001
0011
1010
0010
,
1000
0000
0010
0000
0010
0100
0000
0010
,
0100
0000
0001
0100
0001
1000
0000
0000
,
0001
0000
0000
0000
1000
0100
0000
1000
,
0100
1000
0010
0001
,
1001
0000
0010
0000
,
0100
0010
1000
0000
0010
0000
0000
0000
,
0001
0000
0001
0000
0001
0000
0000
0010
,
0001
0010
1000
0010
,
1000
0000
0010
0000
0010
0100
0000
0010
,
0100
0000
0001
0100
0001
1000
0000
0000
,
1001
1001
1001
1001
,
0110
0000
0011
0000
1010
0000
0000
2002
,
0000
0000
0000
0000
0000
0000
0000
3003
0000
0000
0000
0000
0000
0000
0000
0000
,
0100
1000
0100
0010
,
0100
0010
0001
0001
,
0100
0000
1000
0001
1000
0010
1000
0010
;

//---------------dance-single - ----------------
#NOTES:
     dance-single:
     :
     Hard:
     15:
     0.705329,0.832212,0.195790,0.153227,0.251122,580.000000,557.000000,23.000000,18.000000,0.000000,0.000000,0.705329,0.832212,0.195790,0.153227,0.251122,580.000000,557.000000,23.000000,18.000000,0.000000,0.000000:
// measure 0
0000
0000
0000
0000
,  // measure 1
0000
0000
0000
0000
,  // measure 2
0000
0000
0000
0000
,  // measure 3
0000
0000
0000
0000
,  // measure 4
0000
0000
0000
0000
,  // measure 5
0000
0000
0000
0000
,  // measure 6
1000
0001
0100
0010
0000
1000
0100
1000
,  // measure 7
0000
0000
0001
1000
0010
0000
0100
0000
0000
0000
0000
0000
1001
0000
0000
0000
,  // measure 8
0100
1000
0100
0011
0000
0001
0010
0002
,  // measure 9
0000
1000
1000
0103
,  // measure 10
1000
0000
0000
0001
0000
1000
0100
0010
,  // measure 11
0000
0010
0000
0010
0000
0010
0100
0001
,  // measure 12
0000
0001
0000
0010
0100
0010
1000
0100
,  // measure 13
0000
0010
0000
0001
0000
0110
0000
1000
,  // measure 14
0100
0000
0000
1000
0100
1000
0001
0010
,  // measure 15
0000
0100
0000
1000
0100
0010
0001
0010
,  // measure 16
0000
0010
1000
0100
0000
0100
0001
0100
,  // measure 17
0000
1100
0000
0110
0000
0011
0000
1000
,  // measure 18
1001
0000
0000
0000
0010
0100
0010
0001
,  // measure 19
0000
0010
0000
0100
0000
0010
0001
0010
,  // measure 20
0000
1000
0000
0001
0010
0100
0010
0001
,  // measure 21
0000
0011
0000
0110
0000
1001
0000
1000
,  // measure 22
0100
1000
0000
1000
0000
0010
0100
0010
,  // measure 23
0000
0010
0000
0010
0100
0010
0001
1000
,  // measure 24
0101
0000
1000
0001
0000
0100
0001
0000
,  // measure 25
1000
0000
0000
0000
0001
0000
0000
0000
1010
0000
0000
0000
1000
0001
0000
0000
,  // measure 26
1000
0001
1000
0000
0001
0000
0000
0000
2001
0000
0000
0000
3010
0000
0000
0000
,  // measure 27
0001
1000
0100
0010
0001
0010
0001
0100
,  // measure 28
0001
0000
0010
0000
0100
1000
0100
0000
0010
0000
0100
0000
0010
0001
0010
0000
,  // measure 29
0011
0000
0000
0000
0110
0000
0000
0000
1000
0000
0000
0000
0001
1000
0100
1000
,  // measure 30
0001
1000
0100
0000
2002
0000
0000
3003
,  // measure 31
0200
0000
0000
0301
0000
0001
0010
0100
,  // measure 32
0000
1000
0100
1000
0002
0000
1000
0003
,  // measure 33
1200
0000
0000
0000
1300
0000
0000
0000
1001
0000
0000
0000
1000
0100
1000
0100
,  // measure 34
1000
0001
1000
0000
0002
0000
1000
0003
,  // measure 35
1000
0100
0010
0001
0100
0010
0001
0100
,  // measure 36
0001
0000
0000
1000
0100
1000
0001
0010
0001
0010
0000
0000
,  // measure 37
1200
0000
0000
0000
1300
0000
0000
0000
1001
0000
0000
0000
0001
0100
0001
0100
,  // measure 38
0001
1000
0001
0000
0100
0010
0100
0000
,  // measure 39
1000
0100
0010
0001
0000
0000
0100
0010
,  // measure 40
0000
0000
0100
0001
0100
0001
0100
0000
0010
0000
0000
0000
0100
0000
0000
0000
,  // measure 41
1000
0000
0000
0000
0100
0000
0000
0000
0100
0000
0000
0000
0010
0001
0100
0001
,  // measure 42
0100
0001
0100
0000
1000
0000
0000
0000
,  // measure 43
1000
0100
0010
0100
1000
0001
1000
0100
,  // measure 44
0010
0000
0001
0000
0010
0000
0001
0000
0100
0000
0000
0000
0001
0100
0001
0100
,  // measure 45
0010
0100
0001
1000
0100
0000
0100
1000
,  // measure 46
0000
0000
0010
0000
0100
0000
0001
0000
0010
0001
1000
0000
0100
0000
0010
0000
,  // measure 47
0001
1000
0001
0000
0100
0010
1000
0000
,  // measure 48
0001
0000
0010
0000
0001
0000
0010
0000
0001
1000
0001
0000
0010
0000
0100
0000
,  // measure 49
1000
0000
0010
0100
0000
0100
0001
0000
,  // measure 50
0000
0001
0010
0000
0010
0100
0010
0100
,  // measure 51
1000
0000
0100
0010
0000
0100
1000
0000
,  // measure 52
0100
0000
0000
1000
0000
0000
0100
0000
0010
0000
0001
0000
,  // measure 53
1000
0000
0000
0100
0001
0000
0000
0100
,  // measure 54
0010
0001
0010
0100
0000
1000
0100
1000
,  // measure 55
0001
0100
0010
0000
0100
0000
0010
0000
0000
0000
0100
0000
0010
0100
0010
0000
,  // measure 56
0001
0000
0010
0000
0100
0000
1000
0000
0000
0000
1000
0100
0010
0000
0100
0000
,  // measure 57
0001
0000
1000
0000
0100
0000
2000
0000
0000
3000
0001
1000
0001
1000
0001
0000
,  // measure 58
0000
0000
1000
0010
1000
0000
0010
0000
0000
0000
0100
0000
0001
0000
1000
0000
,  // measure 59
0001
0010
0001
0010
0001
0000
0200
0000
0000
0000
0310
0000
1000
0000
0200
0000
,  // measure 60
0000
0010
0310
1001
,  // measure 61
0010
0100
0010
0002
0000
1003
0100
2000
,  // measure 62
0000
0000
3001
0000
0010
0000
0001
0000
0000
0000
0100
0000
0010
0000
1000
0010
,  // measure 63
1000
0000
0100
0000
1000
0000
0002
0000
0000
0000
1003
0000
0001
1000
0001
0000
,  // measure 64
1000
0000
0010
0000
0100
0000
0001
0000
0000
0000
1000
0100
1000
0100
1000
0000
,  // measure 65
0010
0100
0010
0002
0000
1003
0100
2000
,  // measure 66
0000
3001
0010
0001
0000
0100
0010
1000
,  // measure 67
0001
0100
0001
1000
0000
0001
0010
0200
,  // measure 68
0000
0000
0001
0301
,  // measure 69
1001
0001
0100
0001
0100
0010
0000
0100
,  // measure 70
0010
1000
0100
0000
1000
0000
0010
0000
0100
0000
0001
0000
0100
0001
0100
0000
,  // measure 71
0001
0000
0010
0000
0100
0000
0001
0000
0100
0000
0010
0000
0000
0000
0100
0001
,  // measure 72
0100
0000
0000
0000
1000
0100
0000
0000
1000
0001
0000
0000
0100
0001
0100
0000
,  // measure 73
0001
0010
0100
1000
0100
0010
0000
0100
,  // measure 74
0010
0001
0100
0000
0001
0000
0010
0000
0100
0000
1000
0000
0100
1000
0100
0000
,  // measure 75
1000
0000
0010
0000
0100
0000
0001
0000
0100
0000
0010
0000
0000
0000
1000
0100
,  // measure 76
1000
0000
0001
0000
0010
0000
0100
0000
1000
0000
0010
0000
0100
0010
0100
0000
,  // measure 77
0000
0000
0000
0000
1000
0100
0000
0100
,  // measure 78
0010
0001
0100
0000
0001
0000
0010
0000
0100
0000
1000
0000
0100
1000
0100
0000
,  // measure 79
1000
0000
0010
0000
0100
0000
1000
0000
0100
0000
0010
0000
0000
0000
0100
0001
,  // measure 80
1000
0000
0000
0000
0001
0100
0000
0000
0100
1000
0000
0000
0100
1000
0100
0000
,  // measure 81
1000
0010
0100
0001
0100
0010
0000
0100
,  // measure 82
0010
1000
0100
0000
1000
0000
0010
0000
0100
0000
0001
0000
0100
0001
0100
0000
,  // measure 83
0001
0010
0100
1000
0100
0010
0100
1000
,  // measure 84
0001
0100
0001
0100
0001
0000
0100
0000
0001
1000
0001
1000
0001
0000
1001
0000
,  // measure 85
0000
0010
0100
0001
1000
0100
1000
0001
,  // measure 86
0010
0100
0010
0001
0010
0100
0010
0100
,  // measure 87
0010
0001
0100
0010
1000
0100
1000
0100
,  // measure 88
0010
0100
0001
0010
0001
0100
0010
0100
;

//---------------dance-double - ----------------
#NOTES:
     dance-double:
     :
     Easy:
     7:
     0.317398,0.453296,0.102151,0.093639,0.000000,261.000000,249.000000,12.000000,11.000000,0.000000,0.000000,0.317398,0.453296,0.102151,0.093639,0.000000,261.000000,249.000000,12.000000,11.000000,0.000000,0.000000:
00000000
00000000
00000000
00000000
,
00000000
00000000
00000000
00000000
,
00000000
00000000
00000000
00000000
,
00000000
00000000
00000000
00000000
,
00000000
00000000
00000000
00000000
,
00000000
00000000
00000000
00000000
,
00001000
00010000
01000000
10000000
,
10000000
00010000
00100000
00010000
,
10000000
00000000
01000000
00010000
,
00001000
00000000
00000000
00000000
,
00000001
00000000
00000000
00000000
,
00000100
00000100
00000100
00000000
,
00010000
00010000
01000000
01000000
,
00100000
10000000
00100000
00010000
,
00001000
00000000
00000000
00000000
,
00000100
00000010
00001000
00000000
,
00000100
00000010
00000010
00000001
,
00000001
00000100
00001000
00000000
,
00011000
00000000
01000000
00100000
,
00010000
00000000
00000000
00000000
,
01000000
10000000
00010000
00100000
,
00001000
00001000
00000010
00000010
,
00000011
00000000
00000000
00000000
,
00000100
00000100
00000100
00000001
,
00000100
00001000
00010000
02020000
,
00000000
00000000
00000000
03030000
,
00000000
10000000
00010000
10000000
,
10000000
01000000
00010000
00001000
,
00000100
00000001
00000010
00000000
,
00001001
00000000
00000010
00001000
,
00010000
00100000
20020000
30030000
,
00100000
00000000
00010000
10000000
,
10000000
01000000
00010000
00000000
,
00001000
00000100
00000001
00001000
,
00000001
00001000
00000002
00000003
,
00000100
00001000
00010000
01000000
,
00010000
10000000
00010000
00000000
,
10000000
00100000
00010000
00001000
,
00000100
00000001
00000010
00000000
,
00000001
00000010
00001000
00010000
,
00000000
00000000
10010000
00000000
,
10000000
01000000
00010000
00001000
,
00001000
00000010
00000001
00000000
,
00000001
00000100
00001000
00010000
,
00100000
10000000
00200000
00300000
,
10000000
00010000
00100000
00010000
,
00000000
01000000
01000000
00010000
,
00010000
10000000
00100000
00010000
,
00000000
00001000
00000010
00000001
,
00001000
00000100
00000010
00000001
,
00000000
00000001
00000010
00000000
,
00001000
00010000
01000000
10000000
,
00100000
10000000
00100000
00000000
,
20020000
00000000
00000000
30030000
,
00000000
00000000
00000000
00000000
,
00010000
00001000
00000100
00000000
,
00001000
00000010
00000001
00000000
,
00001000
00000001
00000100
00000000
,
00000001
00000100
00001000
00010000
,
01000000
00000000
10000000
00000000
,
00200000
00000000
00000000
00300000
00000000
00000000
00000000
00000000
,
01000000
00100000
00100000
00100000
,
10000000
01000000
00010000
00000000
,
00001000
00000100
00000001
00000000
,
00000001
00000100
00001000
00000000
,
00010000
00010000
00100000
10000000
,
10000000
01000000
00010000
00000000
,
10000000
00010000
00010000
01000000
,
00002000
00000000
00010000
00013000
,
00011000
00000000
00000010
00000000
,
00000100
00001000
00000010
00000000
,
00001000
00001000
00001000
00000000
,
01000000
01000000
10000000
00000000
,
10000000
00100000
00010000
00000000
,
00001000
00000010
00000001
00000000
,
00000001
00000000
00000001
00000100
,
00001000
00010000
00100000
10000000
,
10010000
00000000
00000000
00000000
,
01000000
00010000
00100000
00000000
,
10000000
10000000
10000000
00000000
,
10000000
00100000
00010000
00001000
,
00000010
00000001
00000100
00000000
,
00000100
00000001
00000100
00001000
,
00010000
01000000
10010000
10010000
,
10020000
00000000
10000000
00000000
,
01000000
00000000
00030000
00000000
,
01000000
00010000
00001000
00000000
,
00000100
00000001
00000010
00001000
,
00010000
01000000
10000000
00100000
;

//---------------dance-double - ----------------
#NOTES:
     dance-double:
     :
     Medium:
     11:
     0.432926,0.453934,0.195790,0.119176,0.000000,356.000000,333.000000,23.000000,14.000000,0.000000,0.000000,0.432926,0.453934,0.195790,0.119176,0.000000,356.000000,333.000000,23.000000,14.000000,0.000000,0.000000:
00000000
00000000
00000000
00000000
,
00000000
00000000
00000000
00000000
,
00000000
00000000
00000000
00000000
,
00000000
00000000
00000000
00000000
,
00000000
00000000
00000000
00000000
,
00000000
00000000
00000000
00000000
,
00001000
00000001
00000010
00000100
00000000
00001000
00000000
00000001
,
00000000
00000100
00000000
00001000
00000000
00000000
00011000
00000000
,
01010000
00000000
00000000
01000000
00000000
00010000
01000000
00200000
,
00000000
00000000
00000000
00300000
,
00010000
00000000
00000000
10000000
00000000
00010000
00000000
01000000
,
00000000
10000000
00000000
01000000
00000000
00010000
00000000
00001000
,
00000000
00000100
00000000
00000001
00000010
00000100
00001000
00000010
,
00000000
00000100
00000000
00001000
00000000
00000010
00000000
00001000
,
00000010
00000000
00000000
00001000
00000010
00001000
00000001
00000100
,
00000000
00001000
00000000
00000001
00000000
00000100
00000000
00001000
,
00000000
00010000
00000000
00100000
00000000
00000000
10000000
00100000
,
00000000
00110000
00000000
01100000
00000000
11000000
00000000
00010000
,
10000000
00000000
00000000
00000000
01000000
00100000
00000000
10000000
,
00000000
01000000
00000000
00010000
00000000
00001000
00000000
00000100
,
00000000
00000001
00000000
00000001
00000000
00000010
00000000
00000001
,
00000000
00000101
00000000
00000110
00000000
00001001
00000000
00001000
,
00000100
00000000
00000000
00000000
00000000
00010000
00001000
00010000
,
00000000
00000000
00001000
00010000
,
00100000
00000000
10000000
00010000
00000000
00100000
00010000
00000000
,
10000000
00000000
01000000
00000000
00010000
00000000
00001000
00010000
,
00001000
00000100
00000001
00000001
,
00000001
00000100
00001000
00010000
,
00100000
00000000
10000000
00010000
00100000
00000000
00000000
00000000
,
10010000
00000000
01100000
00000000
00010000
00000000
10000000
00100000
,
00010000
00100000
20020000
30030000
,
10000000
01000000
00010000
00001000
,
00000100
00000000
00000001
00000010
00000002
00000000
00000000
00000003
,
00001020
00001030
00001001
00000001
,
00000100
00001000
00020000
00030000
,
00010000
00100000
00000000
10000000
00000000
01000000
10000000
00100000
,
10000000
00010000
10000000
01000000
,
00010000
00001000
00000100
00000001
,
00001000
00000000
00000001
00000000
00000010
00000100
00000010
00000000
,
00000001
00001000
00000010
00000000
00000001
00000000
00000010
00000000
,
00000000
00000000
00001000
00010000
01000000
00000000
00000000
00000000
,
00010000
10000000
00100000
00000000
00100000
00000000
00010000
00000000
,
00010000
00000000
00100000
10000000
00010000
00000000
00000000
00000000
,
10000000
01000000
00010000
00001000
,
00000100
00000001
00001001
00000000
,
00001000
00000001
00000010
00000001
,
00000000
00000100
00000010
00000000
00000100
00000001
00000000
00000100
,
00000001
00000100
00001000
00110000
,
00000000
00000000
11000000
00000000
10000000
00010000
10000000
00010000
,
10000000
01000000
00100000
10000000
,
00000000
00100000
00010000
00000000
00100000
00000000
00000000
00000000
,
10000000
00000000
00100000
01000000
00000000
00001000
00010000
00000000
,
00010000
00001000
00000100
00000000
,
00002002
00000000
00000000
00003003
,
00000000
00000000
00000000
00000000
,
00001000
00000000
00100000
00010000
00000000
00000000
00000000
00000000
,
10000000
01000000
00100000
00010000
00000000
00000000
00000000
00000000
,
10000000
00010000
00100000
00020000
00000000
00030000
00100000
00000000
,
10000000
00100000
00010000
00001000
,
00000100
00000001
00001000
00000010
00000000
00000001
00000100
00000020
,
00000000
00000030
00000000
00000000
,
00000010
00000100
00000010
00000100
00000000
00000000
00010000
00001000
,
00000000
00000000
00100000
00010000
00000000
00000000
10000000
00000000
,
00010000
10000000
00010000
20000000
00000000
00000000
31000000
00000000
,
00010000
01000000
00100000
20000000
00000000
00000000
30100000
00000000
,
00100000
01000000
00100000
01000000
00000000
00000000
00001000
00010000
,
00000000
00000000
00000010
00001000
00000000
00000000
00001001
00000000
,
00001000
00000100
00000010
00000001
00000000
00000100
00000010
00001000
,
00000000
00000000
00000100
00001000
,
00011000
00000000
00000010
00000000
,
00001000
00010000
00100000
00000000
10000000
00000000
00000000
00000000
,
10000000
00000000
10000000
00000000
10000000
00000000
00000000
00100000
,
10000000
00100000
10000000
01000000
,
00010000
00000000
00001000
00000000
00000100
00000001
00000000
00001000
,
00000100
00000000
00000001
00000100
00000001
00001000
00000000
00000000
,
00000001
00000000
00000000
00000000
00001000
00000100
00000000
00001000
,
00000100
00000001
00000100
00001000
,
00011000
00000000
00100000
00000000
,
01000000
00100000
10000000
00000000
00100000
00000000
00000000
00000000
,
00010000
00000000
00001000
00000000
00000100
00000000
00000000
00000001
,
00000100
00000001
00000001
00000100
,
00001000
00000000
00010000
00000000
00100000
01000000
00000000
00100000
,
01000000
00000000
00010000
01000000
00010000
10000000
00000000
00000000
,
10000000
01000000
00010000
00001000
,
00000100
00000000
00000011
00000000
00001001
00000000
00000000
00002002
,
00000000
00000000
00000000
00003003
00000000
00000000
00000000
00000000
,
00000001
00000100
00001000
00010000
,
01000000
10000000
00100000
10000000
,
01000000
00000000
00010000
00001000
00000100
00000001
00000100
00000001
;

//---------------dance-double - ----------------
#NOTES:
     dance-double:
     :
     Hard:
     15:
     0.674927,0.794385,0.102151,0.076613,0.225584,555.000000,543.000000,12.000000,9.000000,0.000000,0.000000,0.674927,0.794385,0.102151,0.076613,0.225584,555.000000,543.000000,12.000000,9.000000,0.000000,0.000000:
00000000
00000000
00000000
00000000
,
00000000
00000000
00000000
00000000
,
00000000
00000000
00000000
00000000
,
00000000
00000000
00000000
00000000
,
00000000
00000000
00000000
00000000
,
00000000
00000000
00000000
00000000
,
00000001
00000100
00001000
00010000
00000000
01000000
10000000
00010000
,
00000000
00000000
10000000
00010000
00100000
00000000
01000000
00000000
00000000
00000000
00000000
00000000
10000000
00000000
00000000
00000000
,
01000000
10000000
01000000
00010000
00000000
00011000
00000010
00000002
,
00000000
00001000
00001000
00000103
,
00001000
00000000
00000000
00010000
00000000
00100000
10000000
00100000
,
00000000
00010000
00000000
00001000
00000000
00010000
00000100
00010000
,
00000000
00001000
00000000
00000100
00000001
00000010
00000001
00000100
,
00000000
00001000
00000000
00010000
00000000
01000000
00000000
10000000
,
01000000
00000000
00000000
10000000
01000000
10000000
00010000
00100000
,
00000000
01000000
00000000
10000000
01000000
00100000
00010000
10000000
,
00000000
01000000
00010000
00001000
00000000
00000100
00000001
00000010
,
00000000
00000101
00000000
00000110
00000000
00001010
00000000
00000001
,
00000100
00000000
00000000
00000000
00001000
00010000
00100000
10000000
,
00000000
00100000
00000000
01000000
00000000
00100000
00010000
00100000
,
00000000
10000000
00000000
00010000
00100000
01000000
00100000
00010000
,
00000000
00110000
00000000
00011000
00000000
00001100
00000000
00000001
,
00000100
00000001
00000000
00001000
00000000
00000010
00000100
00000010
,
00000000
00000100
00000000
00000001
00000100
00001000
00010000
01000000
,
10000000
00000000
10000000
00010000
00000000
01000000
00010000
00000000
,
10000000
00000000
00000000
00000000
01000000
00000000
00000000
00000000
00010000
00000000
00000000
00000000
00001000
00010000
00000000
00000000
,
00001000
00010000
00001000
00000000
00010000
00000000
00000000
00000000
00001000
00000000
00000000
00000000
00000010
00000000
00000000
00000000
,
00000001
00001000
00000100
00000010
00000001
00000010
00000001
00000100
,
00000001
00000000
00000010
00000000
00000100
00001000
00000100
00000000
00000010
00000000
00000100
00000000
00000010
00000001
00000010
00000000
,
00000011
00000000
00000000
00000000
00001010
00000000
00000000
00000000
00011000
00000000
00000000
00000000
00010000
00001000
00010000
00001000
,
00010000
00001000
00010000
00000000
02000000
00000000
00000000
03000000
,
20000000
00000000
00000000
30010000
00000000
00010000
00100000
01000000
,
00000000
10000000
01000000
00010000
00002000
00000000
00003100
00000000
,
00000201
00000000
00000000
00000000
00000301
00000000
00000000
00000000
00001001
00000000
00000000
00000000
00000010
00000100
00000001
00000100
,
00000001
00001000
00000001
00000000
00000200
00000000
00001300
00000000
,
00010000
01000000
10000000
00010000
01000000
00100000
10000000
01000000
,
10000000
00000000
00000000
00010000
01000000
00010000
10000000
00100000
10000000
00100000
00000000
00000000
,
10000000
00000000
00000000
00000000
01000000
00000000
00000000
00000000
00010000
00000000
00000000
00000000
00010000
00001000
00010000
00001000
,
00010000
00001000
00010000
00000000
00001000
00000100
00000001
00000000
,
00001000
00000100
00000010
00000001
00000000
00000000
00000100
00001000
,
00000000
00000000
00010000
00001000
00010000
00001000
00010000
00000000
01000000
00000000
00000000
00000000
10000000
00000000
00000000
00000000
,
10000000
00000000
00000000
00000000
01000000
00000000
00000000
00000000
01000000
00000000
00000000
00000000
00100000
00010000
01000000
00010000
,
01000000
00010000
01000000
00000000
10000000
00000000
00000000
00000000
,
10000000
01000000
00010000
00000000
00001000
00000100
00000001
00000010
,
00000001
00000000
00001000
00000000
00000010
00000000
00000100
00000000
00000001
00000000
00000000
00000000
00000100
00000001
00000100
00000000
,
00000010
00000100
00000001
00000100
00001000
00000000
00010000
01000000
,
00000000
00000000
00100000
00000000
01000000
00000000
10000000
00000000
00010000
01000000
00010000
00000000
00100000
00000000
01000000
00000000
,
10000000
00010000
10000000
00000000
01000000
00010000
00001000
00000000
,
00001000
00000000
00010000
00000000
00000100
00000000
00000000
00000000
00000100
00001000
00000100
00000000
00000010
00000000
00000001
00000000
,
00000100
00000000
00000100
00001000
00000000
00010000
00100000
00000000
,
00000000
10000000
00010000
00000000
00100000
01000000
00100000
01000000
,
10000000
00000000
01000000
00100000
00000000
01000000
10000000
00000000
,
01000000
00000000
00000000
10000000
00000000
00000000
01000000
00000000
00010000
00000000
00001000
00000000
,
00000100
00000000
00000000
00000001
00000100
00000000
00000000
00000010
,
00001000
00000100
00000010
00000100
00000000
00001000
00010000
00100000
,
00010000
01000000
00010000
00000000
01000000
00000000
00100000
00000000
00000000
00000000
01000000
00000000
00100000
01000000
00100000
00000000
,
10000000
00000000
01000000
00000000
00010000
00000000
00001000
00000000
00000000
00000000
00001000
00010000
00001000
00000000
00010000
00000000
,
00001000
00000000
00000100
00000000
00000001
00000000
00002000
00000000
00000000
00000000
00003001
00001000
00000001
00001000
00000001
00000000
,
00000000
00000000
00001000
00000010
00001000
00000000
00000010
00000000
00000000
00000000
00000100
00000000
00000001
00000000
00001000
00000000
,
00000001
00000010
00000001
00000010
00000001
00000000
00000100
00000000
00000000
00000000
00001000
00000000
00010000
00000000
01000000
00000000
,
00000000
00000000
10000000
10000000
,
00010000
01000000
00100000
10000000
00000000
10000000
01000000
00010000
,
00000000
00000000
00001000
00000000
00000010
00000000
00000001
00000000
00000000
00000000
00000100
00000000
00000010
00000000
00001000
00000010
,
00001000
00000000
00000100
00000000
00001000
00000000
00000002
00000000
00000000
00000000
00001003
00000000
00000100
00001000
00000100
00000000
,
00010000
00000000
00001000
00000000
00010000
00000000
00001000
00000000
00000000
00000000
00100000
00001000
00100000
00001000
00100000
00000000
,
00010000
00100000
00010000
01000000
00000000
00001000
00100000
00001000
,
00000000
00010000
00001000
00010000
00000000
00001000
00010000
00000000
,
00001000
00000100
00000001
00001000
00000000
00000100
00000001
00000200
,
00000000
00000000
00001000
00001300
,
00010000
01000000
10000000
00010000
01000000
00001000
00000000
00010000
,
00100000
01000000
00100000
00000000
10000000
00000000
00100000
00000000
01000000
00000000
00010000
00000000
10000000
00100000
10000000
00000000
,
01000000
00000000
00010000
00000000
00001000
00000000
00010000
00000000
00001000
00000000
00000100
00000000
00000000
00000000
00000001
00000100
,
00000001
00000000
00000000
00000000
00000001
00000100
00000000
00000000
00000100
00001000
00000000
00000000
00001000
00010000
00001000
00000000
,
00010000
01000000
10000000
00010000
01000000
00100000
00000000
10000000
,
01000000
10000000
01000000
00000000
10000000
00000000
00100000
00000000
01000000
00000000
00001000
00000000
00010000
00001000
00010000
00000000
,
00001000
00000000
00000100
00000000
00000001
00000000
00000010
00000000
00000100
00000000
00000010
00000000
00000000
00000000
00000100
00001000
,
00000100
00000000
00000010
00000000
00000001
00000000
00000010
00000000
00000100
00000000
00001000
00000000
00000100
00001000
00000100
00000000
,
00000000
00000000
00000000
00000000
00010000
00001000
00000000
00010000
,
00100000
01000000
00100000
00000000
10000000
00000000
00100000
00000000
01000000
00000000
00010000
00000000
10000000
00100000
10000000
00000000
,
01000000
00000000
00010000
00000000
00001000
00000000
00010000
00000000
00001000
00000000
00000100
00000000
00000000
00000000
00000001
00000100
,
00000001
00000000
00000000
00000000
00000001
00000100
00000000
00000000
00000100
00001000
00000000
00000000
00001000
00010000
00001000
00000000
,
00010000
01000000
10000000
00010000
01000000
00100000
00000000
10000000
,
01000000
10000000
01000000
00000000
10000000
00000000
00100000
00000000
01000000
00000000
00000000
00000000
00010000
00000000
00000000
00000000
,
10000000
01000000
00010000
00001000
00000100
00000001
00000010
00000001
,
00001000
00000000
00000001
00000000
00000001
00000100
00001000
00010000
,
00000000
00000100
00010000
00001000
00010000
00001000
00010000
00001000
,
00010000
01000000
10000000
00100000
10000000
01000000
00010000
00001000
,
00010000
00001000
00000100
00000001
00001000
00000100
00000001
00000100
,
00000010
00000001
00000100
00001000
00010000
01000000
10000000
01000000
;

//---------------dance-single - ----------------
#NOTES:
     dance-single:
     :
     Challenge:
     17:
     0.901119,1.100093,0.417117,0.400092,0.710802,741.000000,692.000000,49.000000,47.000000,0.000000,0.000000,0.901119,1.100093,0.417117,0.400092,0.710802,741.000000,692.000000,49.000000,47.000000,0.000000,0.000000:
// measure 0
0000
0000
0000
0000
,  // measure 1
0000
0000
0000
0000
,  // measure 2
0000
0000
0000
0000
,  // measure 3
0000
0000
0000
0000
,  // measure 4
0000
0000
0000
0000
,  // measure 5
0000
0000
0000
0000
,  // measure 6
0100
0000
0010
1000
0010
1000
0200
0000
0000
0000
1300
0001
1000
0001
0020
0000
,  // measure 7
0000
0000
0031
0100
0001
0100
2000
0000
0000
0000
3100
0000
0001
0010
0001
0000
,  // measure 8
0101
0000
0100
0000
0010
0000
1001
0000
0000
0000
0001
0100
0001
1000
0200
0000
,  // measure 9
0000
0000
0000
0020
0000
0000
0330
0000
,  // measure 10
1001
0000
0000
0110
0000
0100
0010
1010
,  // measure 11
0000
1000
0000
0001
0000
0001
0100
0110
,  // measure 12
0000
0110
0000
1000
0100
0001
0100
1100
,  // measure 13
0000
0000
1001
0000
0000
0000
0011
0000
0000
0000
0010
0100
1000
0000
0100
0000
,  // measure 14
0020
0000
0000
0000
0000
0000
0031
0000
1000
0000
0001
0000
0100
0010
0100
0000
,  // measure 15
0001
0000
0000
0000
1000
0000
0100
0000
0010
0000
1000
0000
0010
0100
0010
0000
,  // measure 16
0000
0000
0001
0000
0100
0000
0001
0010
0001
0000
1000
0000
0010
1000
0010
0000
,  // measure 17
0100
0000
0101
0000
0000
0000
1001
0000
0000
0000
1010
0000
0000
0000
0010
1000
,  // measure 18
0001
0000
0000
0100
0010
1000
0001
1001
,  // measure 19
0000
0000
0100
0100
0000
0001
1000
0001
,  // measure 20
0000
0100
0000
0010
1000
0010
0100
0001
,  // measure 21
0000
1001
0000
1010
0000
0110
0000
0100
,  // measure 22
0010
0100
0001
1000
0010
0100
0001
0010
,  // measure 23
0100
1000
0001
1000
0010
0100
0001
1000
,  // measure 24
0101
0000
0000
0000
0010
0001
0010
0001
1000
0010
1000
0010
0100
0000
0000
0000
,  // measure 25
0001
0000
0000
0000
1000
0000
0000
0000
0100
0000
0000
0000
0010
0001
0000
0000
,  // measure 26
1000
0000
0000
0001
0000
0000
1000
0000
0000
0000
0000
0000
0010
0000
0000
0000
1000
0000
0000
0000
0100
0000
0000
0000
0010
0000
0000
0000
0001
0000
0000
0000
0100
0000
0000
0000
0001
0000
0000
0000
0010
0000
0000
0000
0100
0000
0000
0000
,  // measure 27
1000
0010
0001
0010
1000
0100
0001
0100
1000
0010
0100
0001
,  // measure 28
1000
0100
1000
0100
0010
0001
0010
0001
1000
0010
1000
0010
0100
0001
0100
0001
,  // measure 29
1000
0000
0000
0000
1010
0000
0000
0000
0110
0000
0000
0000
0001
0100
0010
0100
,  // measure 30
0001
1000
0010
1000
0002
0000
0000
0000
0203
0000
0000
0000
0010
0000
0300
0000
,  // measure 31
1020
0000
0000
0000
0000
0000
0000
0000
0000
1030
0000
0000
0001
0000
0000
1000
0000
0000
0001
0000
0100
0000
0010
0000
,  // measure 32
1000
0100
0010
0100
2000
0000
3001
0000
,  // measure 33
1000
0001
1000
0000
0010
0000
0000
0000
0110
0000
0000
0000
0001
1000
0001
1000
,  // measure 34
0001
1000
0001
0000
0200
0000
0000
0000
0320
0000
0000
0000
1000
0000
0030
0000
,  // measure 35
1000
0001
0100
0001
1000
0100
0010
0001
,  // measure 36
0100
0000
0000
0001
0000
0000
1000
0000
0100
0000
1000
0000
0001
0000
0010
0000
0001
0000
0100
0000
0000
0010
0000
0000
,  // measure 37
2000
0000
0000
0000
3001
0000
0000
0000
0110
0000
0000
0000
1000
0001
1000
0001
,  // measure 38
1000
0010
1000
0010
0200
0000
0000
0000
0301
0000
1000
0000
0001
0000
0000
0000
,  // measure 39
0100
0010
0000
0010
1000
0000
0001
0000
0200
0000
0000
0000
0310
0000
1000
0000
,  // measure 40
0001
0000
1000
0010
1000
0010
1000
0000
1200
0000
0000
0000
0310
0000
0000
0000
,  // measure 41
1002
0000
0000
0000
0103
0000
0000
0000
0010
1000
0010
0000
0100
0001
1000
0001
,  // measure 42
0100
0001
1000
0001
0100
0000
0000
0000
0110
0000
0010
0000
1010
0000
0000
0000
,  // measure 43
1000
0001
0010
0001
0100
0010
1000
0010
,  // measure 44
0100
0000
0001
0000
0010
0000
0100
1000
0100
1000
0100
1000
0001
1000
0001
1000
,  // measure 45
0001
0100
0010
1000
0010
0100
0001
0200
,  // measure 46
0000
0000
0320
0000
0000
0000
1030
0100
0010
0000
0100
0000
0001
0000
0100
0000
,  // measure 47
0020
0000
0031
0100
1000
0100
0002
0000
,  // measure 48
0013
0000
0100
0000
0001
0000
0100
0000
0010
1000
0010
0000
0100
0000
1000
0000
,  // measure 49
0010
0100
0001
0010
0000
0010
0200
0000
,  // measure 50
0000
0000
1300
0000
0000
0000
0001
0010
0100
0010
0001
0000
1000
0000
0100
0000
,  // measure 51
2001
0000
3001
0021
0000
0031
0201
0000
,  // measure 52
0310
0000
0000
0000
0000
0000
0000
0000
0000
1001
0000
0000
0000
0000
0000
0000
0000
0000
0001
0000
0000
1000
0000
0000
0001
0000
0000
0000
0000
0000
0000
0000
0010
0000
0000
0000
0000
0000
0000
0000
0100
0000
0000
0000
0000
0000
0000
0000
,  // measure 53
2100
0000
0000
3001
0100
0000
0000
0001
,  // measure 54
1000
0000
0010
0000
1000
0000
0002
0000
0000
0000
0103
0010
0100
0010
1000
0000
,  // measure 55
0001
0000
1000
0010
1000
0010
0200
0000
0000
0000
0310
0000
1000
0001
0100
0000
,  // measure 56
0001
0000
0010
0000
0100
0000
2000
0000
0000
0000
3001
0100
0010
0100
0001
0000
,  // measure 57
1000
0100
0010
0001
1000
0000
0002
0000
0000
0000
0103
0010
1000
0010
0200
0000
,  // measure 58
0000
0000
0301
0100
0010
0100
0002
0000
0000
0000
0013
0000
0100
0000
1000
0000
,  // measure 59
0010
0100
0001
0010
0100
0000
0020
0000
0000
0000
0130
1000
0001
1000
0200
0000
,  // measure 60
0000
0000
0000
0000
0010
0000
0000
0000
0301
0010
0100
1000
0001
0000
0000
0000
,  // measure 61
1010
0000
0100
0000
0001
0000
0201
0000
0000
0000
0310
1000
0001
0000
2001
0000
,  // measure 62
0000
0000
3010
0000
0100
0000
0102
0000
0000
0000
1003
0010
1000
0000
0001
0000
,  // measure 63
0100
0000
0010
0100
0001
0000
0021
0000
0000
0000
0130
0000
1000
0100
1000
0000
,  // measure 64
0100
0000
0010
0000
0100
0000
0120
0000
0000
0000
0031
1000
0010
1000
0001
0000
,  // measure 65
0100
0000
0010
1000
0001
0000
2001
0000
0000
0000
3010
0100
0001
0000
0201
0000
,  // measure 66
0000
0000
0310
1000
0001
0000
2001
0000
0000
0000
3010
0000
0100
0000
0001
0000
,  // measure 67
1010
0000
0100
0000
0110
0000
0020
0000
0000
0000
1030
0100
1000
0000
0020
0000
,  // measure 68
0000
0000
0000
0000
0100
0100
0130
0000
,  // measure 69
1001
0000
0001
0000
0100
0000
0010
0000
0100
0001
1000
0001
1000
0000
0010
0100
,  // measure 70
0010
1000
0001
0000
1000
0000
0010
0000
0100
0010
0000
0010
1000
0001
0100
0000
,  // measure 71
0001
0000
1000
0000
0010
0000
1000
0000
0001
0100
0000
0100
0010
0000
1000
0001
,  // measure 72
1000
0000
0010
1000
0100
0000
0010
0000
0001
1000
0001
0000
0100
0001
0100
0000
,  // measure 73
0001
0000
0010
0000
0100
0000
1000
0000
0100
0010
0001
1000
0100
0000
1000
0000
,  // measure 74
0010
0100
0001
0010
0001
0000
0010
0000
0100
1000
0100
0000
1000
0001
1000
0000
,  // measure 75
0010
0000
0100
0000
0001
0000
0010
0000
0100
1000
0010
1000
0001
0000
1000
0100
,  // measure 76
1000
0000
0001
0000
1000
0100
0000
0100
1000
0001
1000
0001
0010
0100
0020
0000
,  // measure 77
0000
0000
0000
0000
0000
0000
0030
0000
0100
1000
0001
0000
1000
0000
0100
0010
,  // measure 78
0001
1000
0001
0010
0100
0000
1000
0000
0001
1000
0001
0000
0100
0000
0010
1000
,  // measure 79
0001
0000
0010
0100
0010
0000
0100
0000
1000
0010
1000
0001
0100
0000
1000
0010
,  // measure 80
0100
0000
0000
0000
0010
0100
0000
0000
0100
1000
0000
0000
1000
0100
0001
0000
,  // measure 81
1000
0000
0010
0000
0100
0000
0001
0000
0100
0010
1000
0010
0100
0000
0001
0010
,  // measure 82
0001
1000
0100
1000
0010
0000
0100
0000
0001
0010
0001
0010
0001
0000
0100
0010
,  // measure 83
1000
0000
0010
0000
0100
0000
0001
0000
0100
0010
1000
0000
0100
0000
1000
0000
,  // measure 84
0001
0010
0001
0100
0001
1000
0001
0010
0001
0100
0001
1000
0001
0000
1001
0000
,  // measure 85
1000
0010
0100
0001
1000
0100
1000
0001
,  // measure 86
0010
0100
0010
0011
0010
0100
0010
0100
,  // measure 87
0010
0011
0100
0010
1000
0100
1000
0100
,  // measure 88
0010
0101
0001
0010
0001
0100
0010
0220
,  // measure 89
0000
0330
0000
0000
0000
0000
0000
0000
;

//---------------dance-single - OLD----------------
#NOTES:
     dance-single:
     :
     Edit:
     16:
     0.795320,1.059180,0.314966,0.340504,0.463936,654.000000,617.000000,37.000000,40.000000,0.000000,0.000000,0.795320,1.059180,0.314966,0.340504,0.463936,654.000000,617.000000,37.000000,40.000000,0.000000,0.000000:
// measure 0
0000
0000
0000
0000
,  // measure 1
0000
0000
0000
0000
,  // measure 2
0000
0000
0000
0000
,  // measure 3
0000
0000
0000
0000
,  // measure 4
0000
0000
0000
0000
,  // measure 5
0000
0000
0000
0000
,  // measure 6
0100
0000
0010
1000
0010
0000
0200
0000
0000
0000
0301
1000
0001
0000
0020
0000
,  // measure 7
0000
0000
0031
0100
0001
0000
2000
0000
0000
0000
0000
0000
3010
0100
0010
0000
,  // measure 8
0101
0000
0000
0000
0010
0000
1001
0000
0000
0000
0001
0100
0001
0000
0200
0000
,  // measure 9
0010
0000
0000
0020
0000
0000
0330
0000
,  // measure 10
1000
0000
0000
0001
0000
0100
0010
1000
,  // measure 11
0000
1000
0000
0001
0000
0001
0100
0010
,  // measure 12
0000
0010
0000
1000
0100
0001
0100
1000
,  // measure 13
0000
1000
0000
0010
0000
0010
0000
0100
,  // measure 14
0002
0000
0000
1003
0010
1000
0100
0010
,  // measure 15
0000
0001
0000
0100
0010
1000
0010
0100
,  // measure 16
0000
0001
0100
0001
0000
1000
0010
1000
,  // measure 17
0000
0000
1010
0000
0000
0000
0110
0000
0000
0000
0101
0000
0000
0000
0010
1000
,  // measure 18
0001
0000
0000
0000
0001
0100
0001
1000
,  // measure 19
0000
0010
0000
0100
0000
0001
1000
0001
,  // measure 20
0000
0100
0000
0010
1000
0010
0100
0001
,  // measure 21
0000
1001
0000
1010
0000
0110
0000
0100
,  // measure 22
0010
0100
0000
0001
1000
0010
1000
0001
,  // measure 23
0000
0100
0000
0100
0010
0100
0001
1000
,  // measure 24
0101
0000
0000
0000
0100
0001
0100
0001
1000
0010
1000
0010
1000
0000
0000
0000
,  // measure 25
0100
0000
0000
0000
0010
0000
0000
0000
0100
0000
0000
0000
0010
0001
0000
0000
,  // measure 26
1000
0001
1000
0000
0010
0000
0100
0000
0010
0000
1000
0000
0001
0000
1000
0000
,  // measure 27
0100
0010
0100
1000
0100
1000
0100
0010
0001
0010
0001
0010
,  // measure 28
1000
0000
0000
0000
0010
0000
0000
0000
0001
0000
0000
0000
0100
0000
0000
0010
0000
0000
0100
0000
0000
0010
0000
0000
1000
0000
0000
0010
0000
0000
1000
0000
0000
0001
0000
0000
1000
0000
0000
0001
0000
0000
1000
0000
0000
0000
0000
0000
,  // measure 29
1001
0000
0000
0000
1010
0000
0000
0000
0110
0000
0000
0000
0001
0100
0010
0100
,  // measure 30
0001
1000
0010
1000
0002
0000
0000
0000
0203
0000
0000
0000
0010
0000
0300
0000
,  // measure 31
0020
0000
0000
1030
0000
1000
0001
0100
,  // measure 32
0000
0100
0010
0100
0002
0000
1003
0000
,  // measure 33
1000
0001
1000
0000
0010
0000
0000
0000
0110
0000
0000
0000
0001
1000
0001
1000
,  // measure 34
0001
1000
0001
0000
0200
0000
0000
0000
0320
0000
0000
0000
1000
0000
0030
0000
,  // measure 35
1000
0001
0100
0001
1000
0100
0010
0001
,  // measure 36
0100
0000
0000
0001
0000
0000
1000
0000
0100
0000
1000
0000
0001
0000
0010
0000
0001
0000
0100
0000
0000
0010
0000
0000
,  // measure 37
2000
0000
0000
0000
3001
0000
0000
0000
0110
0000
0000
0000
1000
0100
1000
0100
,  // measure 38
1000
0010
1000
0010
0200
0000
0000
0000
0301
0000
1000
0000
0001
0000
0000
0000
,  // measure 39
0100
0010
0000
0010
1000
0000
0001
0000
0200
0000
0000
0000
0310
0000
1000
0000
,  // measure 40
0001
0000
1000
0010
1000
0010
1000
0000
0100
0000
0000
0000
0010
0000
0000
0000
,  // measure 41
1002
0000
0000
0000
0103
0000
0000
0000
0010
0000
0000
0000
0001
1000
0001
1000
,  // measure 42
0100
0010
0001
0100
0001
0000
0000
0000
0101
0000
0000
0000
0110
0000
0000
0000
,  // measure 43
1000
0001
0010
0001
0100
0010
1000
0010
,  // measure 44
0100
0000
0001
0000
0010
0000
0100
0000
1000
0000
0000
0000
0001
1000
0001
1000
,  // measure 45
0001
0100
0010
1000
0010
0000
0100
0002
,  // measure 46
0000
0000
2003
0000
0000
0000
3010
0100
0010
0000
1000
0000
0001
0000
0100
0000
,  // measure 47
0020
0000
0130
0001
1000
0001
2000
0000
,  // measure 48
3010
0000
0100
0000
0001
0000
0100
0000
0010
1000
0010
0000
0100
0000
0001
0000
,  // measure 49
0010
0100
1000
0010
0000
0010
0200
0000
,  // measure 50
0000
0000
0301
0000
0000
0000
1000
0010
0100
0000
0010
0000
1000
0000
0001
0000
,  // measure 51
2000
0000
3001
0100
0000
0001
0200
0000
,  // measure 52
0310
0000
0000
1001
0000
0000
0001
0000
0010
0000
0100
0000
,  // measure 53
2000
0000
0000
3001
0100
0000
0000
0001
,  // measure 54
1000
0000
0010
0000
1000
0000
0001
0000
0000
0000
0100
0010
0100
0000
0010
0000
,  // measure 55
1000
0000
0100
0010
0100
0000
0002
0000
0000
0000
0103
0000
1000
0001
0100
0000
,  // measure 56
0001
0000
1000
0000
0010
0000
2000
0000
0000
0000
3001
0100
0010
0000
0100
0000
,  // measure 57
0001
0010
0100
0000
1000
0000
0002
0000
0000
0000
0103
0010
1000
0010
0100
0000
,  // measure 58
0000
0000
0001
0100
0010
0000
0110
0000
0000
0000
0001
0000
1000
0000
0010
0000
,  // measure 59
1000
0001
0100
0001
1000
0000
0020
0000
0000
0000
0130
0001
1000
0000
0102
0000
,  // measure 60
0000
0000
0000
0000
0100
0000
0000
0000
0103
0000
0001
1000
0001
0000
0000
0000
,  // measure 61
1010
0000
0100
0000
0001
0000
0201
0000
0000
0000
0310
1000
0001
0000
2001
0000
,  // measure 62
0000
0000
3010
0000
0100
0000
0102
0000
0000
0000
1003
0010
1000
0000
0001
0000
,  // measure 63
0100
0000
0010
0100
0001
0000
0021
0000
0000
0000
0130
0000
1000
0100
1000
0000
,  // measure 64
0100
0000
0010
0000
0100
0000
0120
0000
0000
0000
0031
1000
0010
1000
0001
0000
,  // measure 65
0100
0000
0010
1000
0001
0000
2001
0000
0000
0000
3010
0100
0001
0000
0201
0000
,  // measure 66
0000
0000
0310
1000
0001
0000
2001
0000
0000
0000
3010
0000
0100
0000
0001
0000
,  // measure 67
1001
0000
0100
0000
0110
0000
0020
0000
0000
0000
1030
0100
1000
0000
0020
0000
,  // measure 68
0000
0000
0000
0000
0100
0100
0130
0000
,  // measure 69
1001
0000
0001
0000
0100
0000
0010
0000
0100
0000
0001
0000
1000
0000
0010
0100
,  // measure 70
0010
1000
0001
0000
1000
0000
0010
0000
0100
0000
0010
0000
1000
0001
0100
0000
,  // measure 71
0001
0000
1000
0000
0010
0000
1000
0000
0001
0100
0000
0100
0010
0000
1000
0001
,  // measure 72
1000
0000
0010
0000
1000
0100
0000
0000
1000
0001
0000
0000
0100
0001
0100
0000
,  // measure 73
0001
0000
0010
0000
0100
0000
1000
0000
0100
0000
0010
0001
0000
0000
0100
0000
,  // measure 74
0010
1000
0001
0000
0001
0000
0010
0000
0100
0000
1000
0000
0100
1000
0100
0000
,  // measure 75
1000
0000
0010
0000
0100
0000
0001
0000
0100
0000
0010
1000
0000
0000
1000
0100
,  // measure 76
1000
0000
0001
0000
0010
0000
0100
0000
1000
0000
0010
0000
0100
0010
0200
0000
,  // measure 77
0000
0000
0000
0300
0001
0100
0000
0100
,  // measure 78
0010
1000
0001
0000
1000
0000
0100
0000
0010
0000
0001
0000
1000
0001
1000
0000
,  // measure 79
0001
0000
0010
0000
0100
0000
1000
0000
0100
0000
0010
0001
0000
0000
0001
0100
,  // measure 80
0010
0000
1000
0000
0001
0100
0000
0000
0100
0010
0000
0000
0010
0100
0001
0000
,  // measure 81
1000
0000
0010
0000
0100
0000
0001
0000
0100
0000
0010
1000
0000
0000
0100
0000
,  // measure 82
0010
0100
1000
0000
1000
0000
0010
0000
0100
0000
0001
0000
0100
0001
0100
0000
,  // measure 83
0001
0010
0100
1000
0100
0010
0100
1000
,  // measure 84
0001
0100
0001
0100
0001
0000
0100
0000
0001
1000
0001
1000
0001
0000
1001
0000
,  // measure 85
0000
0010
0100
0001
1000
0100
1000
0001
,  // measure 86
0010
0100
0010
0011
0010
0100
0010
0100
,  // measure 87
1000
1100
0100
0010
0001
0100
0001
0100
,  // measure 88
0010
0110
0100
0001
1000
0100
0010
0011
;
