#TITLE:CLASSIC PARTY triathlon;
#SUBTITLE:;
#ARTIST:HIDEYUKI ONO;
#TITLETRANSLIT:;
#SUBTITLETRANSLIT:;
#ARTISTTRANSLIT:;
#GENRE:;
#CREDIT:;
#BANNER:CLASSIC PARTY triathlon.png;
#BACKGROUND:CLASSIC PARTY triathlon-bg.png;
#LYRICSPATH:;
#CDTITLE:./CDTITLES/GuitarFreaks&DrumMania.png;
#MUSIC:CLASSIC PARTY triathlon.mp3;
#OFFSET:-0.060000;
#SAMPLESTART:2.772000;
#SAMPLELENGTH:14.800000;
#SELECTABLE:YES;
#DISPLAYBPM:52.000000:180.000000;
#BPMS:0.000000=173.494003
,16.000000=173.912994
,76.000000=172.248993
,80.000000=175.182007
,88.000000=173.632996
,94.000000=173.703003
,110.000000=174.544998
,126.000000=169.014008
,130.000000=152.542007
,132.000000=124.999992
,134.000000=54.054001
,140.000000=54.216999
,142.000000=53.891998
,144.000000=53.570999
,146.000000=52.326000
,148.000000=51.873001
,150.000000=52.174000
,152.000000=176.759003
,164.000000=118.420998
,168.000000=123.711006
,176.000000=123.924011
,184.000000=124.138000
,188.000000=125.436005
,192.000000=92.783997
,193.000000=166.667007
,195.000000=163.636002
,196.000000=175.824005
,212.000000=176.039001
,228.000000=178.218002
,244.000000=180.000000
;
#STOPS:
;
#BGCHANGES:;
#KEYSOUNDS:;
#ATTACKS:;

//---------------dance-single - ----------------
#NOTES:
     dance-single:
     :
     Beginner:
     2:
     0.119418,0.118926,0.043089,0.000000,0.000000,92.000000,5.000000,0.000000,0.000000,0.000000,0.000000,0.119418,0.118926,0.043089,0.000000,0.000000,92.000000,5.000000,0.000000,0.000000,0.000000,0.000000:
0000
0000
0000
0000
,
0000
0000
0000
0000
,
0100
0000
0000
0000
,
0001
0000
0000
0000
,
1000
0000
1000
0000
,
0001
0000
0000
0000
,
0100
0100
0100
0000
,
0100
0000
0000
0000
,
0010
0010
0010
0000
,
0010
0000
0000
0000
,
1000
0000
0000
0000
,
0001
0000
0000
0000
,
1000
0000
0001
0000
,
1000
0000
0000
0000
,
1001
0000
0000
0000
,
0000
0000
0000
0000
,
0110
0000
0000
0000
,
0000
0000
0000
0000
,
0001
0000
1000
0000
,
0001
0000
0000
0000
,
1000
0000
0001
0000
,
1000
0000
0000
0000
,
0010
0000
0000
0000
,
0000
0000
0100
0000
,
0000
0000
0001
0000
,
0000
0000
1000
0000
,
0000
0000
0001
0000
,
0000
0000
0100
0100
,
0100
0000
0100
0000
,
0000
0000
0010
0000
,
0010
0000
1000
0000
,
1000
0000
0001
0000
,
0001
0000
0010
0000
,
0010
0000
0100
0000
,
0000
0000
1000
0000
,
0000
0000
0010
0000
,
0100
0000
0010
0000
,
0100
0000
0010
0000
,
1001
0000
0000
0000
,
0000
0000
0000
0000
,
0110
0000
0000
0000
,
0000
0000
0000
0000
,
0001
0000
1000
0000
,
0001
0000
0000
0000
,
1000
0000
0100
0000
,
1000
0000
0000
0000
,
0001
0000
0100
0000
,
0001
0000
0000
0000
,
1001
0000
0000
0000
,
0100
0000
0100
0000
,
0010
0000
0000
0000
,
1000
0000
0000
0000
,
0001
0000
0000
0000
,
0100
0000
0000
0000
,
0100
0000
0100
0000
,
0010
0000
0000
0000
,
1000
0000
1000
0000
,
0001
0000
0000
0000
,
0100
0000
0001
0000
,
0100
0000
0000
0000
,
0010
0000
1000
0000
,
0010
0000
0000
0000
,
0100
0000
0000
0000
,
0001
0000
0001
0000
,
1000
0000
1000
0000
,
0001
0000
0000
0000
,
0010
0000
0000
0000
,
0100
0000
0100
0000
,
0010
0000
0010
0000
,
0100
0000
0000
0000
;

//---------------dance-single - ----------------
#NOTES:
     dance-single:
     :
     Easy:
     3:
     0.201903,0.237851,0.060325,0.284387,0.000000,124.000000,7.000000,33.000000,0.000000,0.000000,0.000000,0.201903,0.237851,0.060325,0.284387,0.000000,124.000000,7.000000,33.000000,0.000000,0.000000,0.000000:
0000
0000
0000
0000
,
0000
0000
0000
0000
,
0001
0000
1000
0000
,
0001
0000
0001
0000
,
1000
0000
0100
0000
,
0010
0000
0001
0000
,
1000
1000
1000
0000
,
0001
0000
0100
0000
,
0001
0001
0001
0000
,
0100
0000
0010
0000
,
2002
0000
3003
0000
,
0220
0000
0330
0000
,
1000
0000
0001
0000
,
1000
1000
1000
0001
,
2002
0000
0000
0000
,
0000
0000
0000
3003
,
0220
0000
0000
0000
,
0000
0000
0000
0330
,
0010
0100
0010
0000
,
0001
0100
0001
0000
,
1000
0100
1000
0000
,
2002
0000
0000
3003
,
1000
0000
0002
0000
,
0000
0003
0001
0000
,
0010
0000
0100
0100
,
0100
0000
1000
0000
,
0001
0000
1000
0000
,
0001
0000
0010
0100
,
0010
0000
0100
0010
,
0100
0000
1000
0000
,
0001
0000
1000
0000
,
0001
0000
0100
0000
,
0010
0000
1000
0001
,
1000
0001
2000
0000
,
0000
3000
0020
0000
,
0000
0030
0200
0300
,
0002
0003
2000
3000
,
0200
0300
0020
0030
,
2002
0000
0000
0000
,
0000
0000
0000
0000
,
0000
0000
0000
0000
,
3003
0000
0000
0000
,
0010
0000
0100
0000
,
0010
0000
0100
0000
,
0002
0000
0000
0003
,
1000
0000
0001
0000
,
2000
0000
0000
3000
,
0020
0000
0000
0030
,
0010
0000
0000
0000
,
0001
0000
0001
0000
,
0010
0000
0000
0000
,
1000
0000
1000
0000
,
0010
0100
0010
0000
,
1000
0000
0001
0000
,
1000
0001
1000
0000
,
0010
0000
0100
0000
,
0010
0100
0010
0000
,
1000
0000
0001
0000
,
1000
0001
1000
0000
,
0100
0000
0010
0000
,
0100
0010
0100
0000
,
0020
0000
0000
0030
,
0010
0000
0002
0003
,
2000
3000
0002
0003
,
2000
3000
0000
0000
,
0200
0000
0000
0300
,
0100
0000
0002
0003
,
2000
3000
0002
0003
,
2000
0000
0000
3000
,
1001
0000
0000
0000
;

//---------------dance-single - ----------------
#NOTES:
     dance-single:
     :
     Medium:
     9:
     0.429658,0.475702,0.413654,0.189591,0.000000,279.000000,48.000000,22.000000,0.000000,0.000000,0.000000,0.429658,0.475702,0.413654,0.189591,0.000000,279.000000,48.000000,22.000000,0.000000,0.000000,0.000000:
0000
0000
0000
0000
,
0000
0000
0000
0000
,
1000
0100
0001
0100
,
1000
0010
0001
0010
,
0001
0010
1000
0001
,
0100
0001
1000
0100
,
1100
1001
1100
1001
,
1000
0100
0010
0001
,
1001
0101
1001
0101
,
0010
0100
1000
0000
,
0022
0000
0000
0033
,
2020
0000
0000
3030
,
2200
3300
0202
0303
,
0001
0010
0100
1000
,
1001
0100
0010
0100
,
0010
0001
0010
0001
,
1001
0010
0100
0010
,
0100
1000
0100
1000
,
0010
0001
0100
0000
0010
1000
0100
0000
,
0010
1000
0100
0001
0100
1000
0010
0000
,
0010
0001
0100
0000
0010
1000
0100
0000
,
0110
0000
0000
0000
0001
0010
0100
0000
,
1000
0100
0010
0000
2002
0000
0000
0000
,
0000
3003
0001
1000
,
0001
1000
0101
1100
,
0101
0000
0010
0100
,
0010
0100
1000
0100
,
0010
0001
0020
0230
,
2300
0000
3200
0320
,
0032
0000
1003
0001
,
1000
0010
0100
0001
,
0100
0001
1100
0101
,
1100
0000
0101
0000
0010
0001
0100
1000
,
0100
0001
0010
0100
2000
0000
3002
0000
,
2003
0000
3010
0100
0002
0000
2003
0000
,
3002
0000
1003
0100
1000
0010
0100
0001
,
0100
0010
1000
0100
1000
0000
0001
1000
,
0001
0000
0010
0100
1000
0010
1000
0001
,
1001
0100
0100
0100
,
1100
0101
1100
0101
,
0100
0100
0100
0100
,
1001
0000
1000
0010
,
0001
0010
1000
0010
,
0100
0001
0010
1000
,
0110
0000
1001
0000
,
0010
1000
0100
0001
,
0110
0000
1001
0000
,
0010
0001
0100
1000
,
1001
0000
0000
0000
,
1100
0000
0001
0010
0100
0000
0010
0100
,
1000
0100
0010
0100
1000
0000
0101
0000
,
1000
0100
0010
0000
0001
0010
0100
0000
,
1100
0101
1100
0000
,
1100
0000
0001
0010
0100
0000
0010
0100
,
1000
0100
0010
0100
1000
0000
0000
0000
,
1100
0000
1000
0100
0010
0000
0001
0010
,
0100
0010
0001
0010
0100
0000
0000
0000
,
0110
0000
0001
0100
1000
0000
0100
0001
,
0100
1000
0100
0001
0100
0000
0000
0000
,
0110
0000
1000
0100
0001
0000
0100
0001
,
0100
1000
0100
0001
0100
0000
0000
0000
,
1000
0001
1000
0001
,
0010
0100
0110
0000
,
0001
0000
0110
0000
,
1000
0000
0000
0000
0001
1000
0001
0000
,
0010
0100
0010
0100
,
1000
0001
1001
0000
,
0100
0000
1001
0000
,
0010
0000
0000
0000
1000
0001
1000
0000
,
1001
0000
0000
0000
;

//---------------dance-single - ----------------
#NOTES:
     dance-single:
     :
     Hard:
     12:
     0.657414,0.654090,0.508450,0.422272,0.198209,426.000000,59.000000,49.000000,0.000000,0.000000,0.000000,0.657414,0.654090,0.508450,0.422272,0.198209,426.000000,59.000000,49.000000,0.000000,0.000000,0.000000:
// measure 0
0000
0000
0000
0000
,  // measure 1
0000
0000
0000
0000
,  // measure 2
0010
1000
0001
0100
1000
0001
0010
1000
,  // measure 3
0100
1000
0010
0100
0001
0010
1000
0000
,  // measure 4
0010
0001
0100
0010
1000
0100
0010
0100
,  // measure 5
1000
0010
0100
0001
0010
1000
0100
0000
,  // measure 6
1001
1010
0011
1100
,  // measure 7
1000
0001
0010
1000
0100
0001
0010
0000
,  // measure 8
1001
0011
1010
0101
,  // measure 9
1000
0001
0010
1000
0100
0000
0000
0000
,  // measure 10
2001
0000
0000
3001
0100
0010
0000
0000
,  // measure 11
1002
0000
0000
0000
0000
0000
1003
0000
0100
0000
0010
0000
0000
0000
1000
0100
,  // measure 12
1000
0000
0010
0000
0000
0000
0100
0001
0100
0000
0010
0000
0000
0000
1000
0100
,  // measure 13
1000
0100
0010
0001
0010
0001
0010
0001
,  // measure 14
2000
0001
0001
0001
,  // measure 15
0010
0010
0010
3010
,  // measure 16
0002
1000
1000
1000
,  // measure 17
0100
0000
0000
0000
0100
0000
0000
0000
0100
0000
0000
0000
0103
0000
0001
0100
,  // measure 18
0001
0000
1000
0000
0100
0000
1000
0100
1000
0000
0100
0000
0010
0000
0001
0010
,  // measure 19
0001
0000
1000
0000
0010
0000
1000
0010
1000
0000
0001
0000
0100
0000
0010
0100
,  // measure 20
0010
0000
1000
0000
0001
0000
1000
0001
1000
0000
0100
0000
0010
0000
0001
1000
,  // measure 21
0002
0000
0000
0000
0000
0000
1003
0100
1000
0000
0100
0000
0010
0000
0000
0000
,  // measure 22
0001
0010
0100
0000
2002
0000
0000
0000
,  // measure 23
0000
0000
3003
0000
1000
0100
0010
0001
,  // measure 24
1000
0001
0010
0100
1000
0100
0010
0100
,  // measure 25
0110
0000
1001
0000
0110
0001
1000
0001
,  // measure 26
0100
1000
0100
0010
1000
0100
0010
0100
,  // measure 27
1000
0001
1000
0001
2001
3000
0201
0300
,  // measure 28
0022
0000
0033
0000
1002
0003
1200
0300
,  // measure 29
2020
0000
3030
0000
0101
1000
0001
0000
,  // measure 30
0110
0001
1000
0001
0010
0100
1000
0001
,  // measure 31
0210
0300
2001
3000
0021
0030
0201
0300
,  // measure 32
1020
0030
1200
0300
1000
0001
1000
0100
,  // measure 33
1000
0000
0010
0000
0001
0000
0100
0000
1000
0000
0000
0100
0001
0000
0002
0000
,  // measure 34
0100
0103
0000
0010
2000
0000
0100
3100
0020
0000
0000
0001
0031
0000
2000
0000
,  // measure 35
0100
3100
0000
0001
0100
0000
1000
0000
0010
0000
0000
0100
0002
0000
0000
0000
,  // measure 36
2003
0000
0000
0010
3010
0000
0100
0000
0020
0000
0000
1000
1030
0000
0001
0000
,  // measure 37
0100
0100
0000
0010
0010
0000
0100
0000
0001
0000
0000
1000
1000
0000
0001
0001
,  // measure 38
1000
0100
1000
0100
1000
0001
1000
0001
,  // measure 39
0100
0010
0100
0010
1000
0010
1000
0010
,  // measure 40
0100
0001
0100
0001
1000
0001
1000
0001
,  // measure 41
2001
0000
0000
3100
0000
0000
0000
0000
1001
0000
0000
0000
1100
0000
0000
0000
,  // measure 42
0101
0000
0000
0000
0000
0000
0000
0000
0000
0000
0000
0000
0000
0000
0000
0000
1000
0000
0000
0000
0000
0000
0000
0000
0000
0000
0000
0100
0000
0000
0000
0000
0001
0000
0000
0000
0000
0000
0000
0000
0000
0000
0000
0000
0000
0000
0000
0000
0001
0000
0000
0000
0000
0000
0000
0000
0000
0000
0000
0100
0000
0000
0000
0000
,  // measure 43
1000
0000
0000
0000
0000
0000
0000
0000
0000
0000
0000
0000
0000
0000
0000
0000
1000
0000
0000
0000
0000
0000
0000
0000
0000
0000
0000
0010
0000
0000
0000
0000
0001
0000
0000
0000
0000
0000
0000
0000
0000
0000
0000
0001
0000
0000
0000
0000
0010
0000
0000
0000
0000
0000
0000
0000
0000
0000
0000
1000
0000
0000
0000
0000
,  // measure 44
1001
0000
0000
0000
0000
0000
0000
0000
0000
0000
0000
0000
0000
0000
0000
0000
0000
0000
0000
0000
0000
0000
0000
0000
0000
0000
0000
0110
0000
0000
0000
0000
0000
0000
0000
0000
0000
0000
0000
0000
0000
0000
0000
0000
0000
0000
0000
0000
1000
0000
0000
0000
0000
0000
0000
0000
0000
0000
0000
0001
0000
0000
0000
0000
,  // measure 45
0100
0000
0000
0000
0000
0000
0000
0000
0000
0000
0000
0000
0000
0000
0000
0000
1000
0000
0000
0000
0000
0000
0000
0000
0000
0000
0000
0000
0000
0000
0000
0000
1000
0000
0000
0000
0000
0000
0000
0000
0000
0000
0000
0100
0000
0000
0000
0000
0000
0000
0000
0000
0000
0001
0000
0000
0000
0000
0000
0000
0000
0000
0000
0000
,  // measure 46
0010
0000
0000
0000
0000
0000
0000
0000
0000
0000
0000
0001
0000
0000
0000
0000
1000
0000
0000
0000
0000
0000
0000
0000
0000
0000
0000
0001
0000
0000
0000
0000
0000
0000
0000
0000
0000
0000
0000
0000
0000
0000
0000
0000
0000
0000
0000
0000
1000
0000
0000
0000
0000
0000
0000
0000
0000
0000
0000
0000
0000
0000
0000
0000
,  // measure 47
1100
0000
0000
0000
0000
0000
0000
0000
0000
0000
0000
0000
0000
0000
0000
0000
0001
0000
0000
0000
0000
0000
0000
0000
0000
0000
0000
0000
0000
0000
0000
0000
0101
0000
0000
0000
0000
0000
0000
0000
0000
0000
0000
0000
0000
0000
0000
0000
0000
0000
0000
0000
0000
0001
0000
0000
0000
0000
0000
0000
0000
0000
0000
0000
,  // measure 48
1001
0000
0000
0000
1000
0000
0100
0000
0010
0000
0001
0000
1000
0001
1000
0001
,  // measure 49
1000
0000
0010
0100
0001
0000
0010
0100
,  // measure 50
1000
0000
0100
0000
0010
0100
0010
0100
0010
0000
0000
0000
0001
0000
1000
0000
,  // measure 51
0001
0010
1000
0100
0001
0010
1000
0100
,  // measure 52
1001
0000
0101
0000
1100
0000
0100
0010
,  // measure 53
1001
0000
0010
0100
1001
1000
0100
0010
,  // measure 54
0001
0100
0010
0100
0010
0100
0010
1000
,  // measure 55
1001
0000
0100
0010
1001
0001
0010
0100
,  // measure 56
1000
0100
0010
0001
1001
0000
1000
0100
,  // measure 57
1100
0000
0001
0100
0110
0010
1000
0001
,  // measure 58
0100
0010
1000
0001
0100
1000
0100
0001
,  // measure 59
0110
0000
1000
0100
0110
0001
1000
0100
,  // measure 60
0010
0001
1000
0001
2002
0000
0003
0000
,  // measure 61
3001
0010
1000
0100
0002
0000
0000
0103
,  // measure 62
1000
0010
0100
0001
0220
0000
0330
0000
,  // measure 63
0202
0303
2200
3300
,  // measure 64
0202
0000
0000
0000
0303
0000
0000
0000
0001
0100
0001
0100
0001
0000
0000
0000
,  // measure 65
1000
0010
0001
0100
2000
0000
3000
0100
,  // measure 66
0001
0010
0100
1000
2002
0000
3003
0000
,  // measure 67
2020
3030
0022
0033
,  // measure 68
2020
0000
0000
0000
3030
0000
0000
0000
1001
0000
0000
0000
1000
0100
1000
0100
,  // measure 69
1000
0000
0000
0000
;

//---------------dance-double - ----------------
#NOTES:
     dance-double:
     :
     Beginner:
     1:
     0.120649,0.118926,0.051707,0.000000,0.000000,92.000000,6.000000,0.000000,0.000000,0.000000,0.000000,0.120649,0.118926,0.051707,0.000000,0.000000,92.000000,6.000000,0.000000,0.000000,0.000000,0.000000:
00000000
00000000
00000000
00000000
,
00000000
00000000
00000000
00000000
,
00000001
00000000
00000000
00000000
,
00001000
00000000
00000000
00000000
,
00000100
00000000
00000100
00000000
,
00010000
00000000
00000000
00000000
,
00001000
00001000
00001000
00000000
,
00001000
00000000
00000000
00000000
,
01000000
01000000
01000000
00000000
,
01000000
00000000
00000000
00000000
,
00100000
00000000
00000000
00000000
,
10000000
00000000
00000000
00000000
,
01000000
00000000
00010000
00000000
,
01000000
00000000
00000000
00000000
,
00011000
00000000
00000000
00000000
,
00000000
00000000
00000000
00000000
,
00000110
00000000
00000000
00000000
,
00000000
00000000
00000000
00000000
,
00001000
00000000
00000001
00000000
,
00001000
00000000
00000000
00000000
,
00010000
00000000
00001000
00000000
,
00010000
00000000
00000000
00000000
,
10000000
00000000
00000000
00000000
,
00000000
00000000
00010000
00000000
,
00000000
00000000
00100000
00000000
,
00000000
00000000
01000000
00000000
,
00000000
00000000
10000000
00000000
,
00000000
00000000
00010000
00010000
,
00010000
00000000
00010000
00000000
,
00000000
00000000
00001000
00000000
,
00001000
00000000
00000100
00000000
,
00000100
00000000
00000001
00000000
,
00000001
00000000
00000010
00000000
,
00000010
00000000
00000100
00000000
,
00000000
00000000
00010000
00000000
,
00000000
00000000
01000000
00000000
,
01000000
00000000
10000000
00000000
,
10000000
00000000
00010000
00000000
,
10010000
00000000
00000000
00000000
,
00000000
00000000
00000000
00000000
,
00011000
00000000
00000000
00000000
,
00000000
00000000
00000000
00000000
,
00001000
00000000
00010000
00000000
,
00001000
00000000
00000000
00000000
,
00000100
00000000
00000001
00000000
,
00000100
00000000
00000000
00000000
,
00001000
00000000
00010000
00000000
,
00001000
00000000
00000000
00000000
,
00011000
00000000
00000000
00000000
,
01000000
00000000
01000000
00000000
,
10000000
00000000
00000000
00000000
,
00010000
00000000
00000000
00000000
,
00100000
00000000
00000000
00000000
,
00001000
00000000
00000000
00000000
,
00010000
00000000
00010000
00000000
,
00001000
00000000
00000000
00000000
,
00000100
00000000
00000100
00000000
,
00000001
00000000
00000000
00000000
,
00000100
00000000
00000100
00000000
,
00001000
00000000
00000000
00000000
,
00010000
00000000
01000000
00000000
,
00010000
00000000
00000000
00000000
,
10000000
00000000
00000000
00000000
,
01000000
00000000
01000000
00000000
,
00010000
00000000
00010000
00000000
,
10000000
00000000
00000000
00000000
,
00010000
00000000
00000000
00000000
,
00000100
00000000
00000100
00000000
,
00000010
00000000
00000010
00000000
,
00001001
00000000
00000000
00000000
;

//---------------dance-double - ----------------
#NOTES:
     dance-double:
     :
     Easy:
     3:
     0.221600,0.237851,0.043089,0.275769,0.000000,143.000000,5.000000,32.000000,0.000000,0.000000,0.000000,0.221600,0.237851,0.043089,0.275769,0.000000,143.000000,5.000000,32.000000,0.000000,0.000000,0.000000:
00000000
00000000
00000000
00000000
,
00000000
00000000
00000000
00000000
,
00000001
00000000
00000100
00000000
,
00000001
00000000
00001000
00000000
,
00000100
00000000
00010000
00000000
,
00001000
00000000
00010000
00000000
,
01000000
10000000
01000000
00000000
,
00010000
00000000
01000000
00000000
,
00010000
00001000
00010000
00000000
,
00001000
00000000
00000100
00000000
,
00002002
00000000
00003003
00000000
,
00000220
00000000
00000330
00000000
,
00000001
00000000
00001000
00000000
,
00000001
00000100
00001000
00010000
,
00022000
00000000
00000000
00000000
,
00000000
00000000
00000000
00000000
,
00000000
00000000
00000000
00000000
,
00000000
00000000
00000000
00033000
,
00010000
00010000
01000000
01000000
,
10000000
10000000
01000000
00010000
,
00001000
00001000
00000100
00000100
,
00000002
00000000
00000000
00000003
,
00000001
00000000
00000020
00000000
,
00000000
00000030
00000100
00000000
,
00010000
00000000
00001000
00010000
,
00001000
00000000
00010000
00000000
,
01000000
00000000
10000000
00000000
,
01000000
00000000
10000000
00010000
,
10000000
00000000
00010000
10000000
,
00010000
00000000
01000000
00000000
,
00010000
00000000
00001000
00000000
,
00010000
00000000
00000100
00000000
,
00001000
00000000
00000010
00000100
,
00000010
00000100
00000020
00000000
,
00000000
00000030
00002000
00000000
,
00000000
00003000
00010000
01000000
,
10000000
00100000
00020000
00030000
,
00002000
00003000
00000010
00000001
,
00002002
00000000
00000000
00000000
,
00000000
00000000
00000000
00000000
,
00000000
00000000
00000000
00000000
,
00003003
00000000
00000000
00000000
,
00000001
00000000
00001000
00000000
,
00000001
00000000
00000100
00001000
,
00020000
00000000
00000000
00030000
,
01000000
00000000
10000000
01000000
,
00200000
00000000
00000000
00300000
,
00010000
00000000
10000000
01000000
,
00010000
00000000
00000000
00000000
,
00001000
00000000
00000100
00000000
,
00000001
00000000
00000000
00000000
,
00000001
00000001
00000100
00001000
,
00010000
01000000
10000000
00000000
,
20000000
30000000
00020000
00030000
,
10000000
01000000
00010000
00001000
,
00000200
00000300
00000020
00000030
,
00001000
00000001
00001000
00000000
,
00000002
00000003
00002000
00003000
,
00000001
00000100
00001000
00010000
,
02000000
03000000
00200000
00300000
,
00010000
10000000
00010000
00000000
,
10000000
01000000
00010000
00000000
,
00010000
00001000
00020000
00030000
,
00002000
00003000
00020000
00030000
,
00002000
00003000
00000000
00000000
,
00000001
00000100
00001000
00000000
,
00010000
00001000
00020000
00030000
,
00002000
00003000
00020000
00030000
,
00002000
00000000
00000000
00003000
,
00011000
00000000
00000000
00000000
;

//---------------dance-double - ----------------
#NOTES:
     dance-double:
     :
     Medium:
     7:
     0.433352,0.445971,0.413654,0.310241,0.000000,268.000000,48.000000,36.000000,0.000000,0.000000,0.000000,0.433352,0.445971,0.413654,0.310241,0.000000,268.000000,48.000000,36.000000,0.000000,0.000000,0.000000:
00000000
00000000
00000000
00000000
,
00000000
00000000
00000000
00000000
,
00000001
00001000
00001000
00000010
,
00010000
00000000
00001000
00000000
00001000
00010000
01000000
00000000
,
10000000
00100000
00100000
01000000
,
00010000
00000000
10000000
00000000
01000000
00010000
01000000
00000000
,
01010000
00010000
00011000
00001000
,
00000100
00000000
00000001
00000000
00000010
00000001
00000100
00000000
,
00001100
00001000
00011000
00010000
,
01000000
10000000
00100000
01000000
00010000
00000000
00000000
00000000
,
00022000
00000000
00000000
00033000
,
00020020
00000000
00000000
00030030
,
00002020
00003030
00000202
00000303
,
00000001
00000100
00001000
00010000
,
20010000
00000000
00010000
00000000
,
00100000
00000000
00100000
30000000
,
02010000
00000000
00010000
00000000
,
00100000
00000000
00100000
03000000
,
10000000
00010000
10000000
01000000
00010000
00001000
00000100
00000000
,
00000001
00001000
00000001
00000100
00001000
00010000
01000000
00000000
,
10000000
00010000
10000000
01000000
00010000
00001000
00010000
00000000
,
00011000
00000000
00000000
00000000
00010000
00001000
00000100
00000000
,
00001000
00010000
01000000
00000000
20020000
00000000
00000000
00000000
,
00000000
30030000
10000000
00000000
,
00010000
00000000
00001000
00000000
,
00000001
00000000
00000000
00000000
00000001
00000100
00001000
00000000
,
00000100
00001000
00010000
00000000
00001000
00010000
01000000
00000000
,
00010000
01000000
10000000
00000000
11000000
00000000
01010000
00000000
,
00110000
00000000
00001010
00001100
,
00000101
00000000
00000000
00000000
00000001
00000100
00001000
00000100
,
00000100
00001000
00010000
00010000
00001000
00010000
01000000
01000000
,
10000000
00010000
10000000
00010000
,
10000000
00000000
00010000
00000000
00010000
10000000
01000000
00010000
,
00001000
00010000
01000000
10000000
00020000
00000000
02030000
00000000
,
03002000
00000000
00013000
00000100
00000020
00000000
00000032
00000000
,
00000023
00000000
00000031
00000100
00001000
00000000
01000000
00100000
,
10000000
00100000
01000000
00010000
01000000
00000000
00001000
00010000
,
00001000
00000000
00010000
00000100
00001000
00000100
00000010
00000001
,
00002001
00000001
00000001
00003001
,
00000200
00010000
00010000
00010300
,
00002000
01000000
01000000
01003000
,
10010000
00000000
10000000
00100000
,
00010000
00001000
00000010
00000001
,
00000010
00001000
00010000
00100000
,
10010000
00000000
01100000
00000000
,
10000000
01000000
00010000
00001000
,
00011000
00000000
01001000
00000000
,
00001000
00000100
00000001
00000010
,
00001001
00000000
00000000
00000000
,
00000110
00000000
00000001
00000100
00001000
00000000
00011000
00000000
,
00010000
01000000
10000000
01000000
00010000
00000000
00000000
00000000
,
00010000
01000000
00010000
00001000
00000100
00001000
00010000
00000000
,
00002000
00003200
00000302
00000003
,
00000011
00000001
00000011
00000001
,
00000110
00001100
00011000
00000000
,
10100000
10000000
10100000
10000000
,
01100000
01010000
00011000
00000000
,
00001100
00000100
00001100
00000100
,
00000110
00001001
00011000
00000000
,
01010000
01000000
01010000
01000000
,
01100000
10010000
00011000
00000000
,
00001000
00010000
00001000
00010000
00001000
00000000
00000000
00010000
,
02000000
23000000
30200000
00000000
,
00320000
00000000
00032000
00000000
,
00003020
00000000
00000000
00000030
,
00001000
00000001
00001000
00000001
00001000
00000000
00000000
00000001
,
00000200
00002300
00023000
00000000
,
02030000
00000000
23000000
00000000
,
30200000
00000000
00000000
00000000
10300000
01000000
00010000
00000000
,
00011000
00000000
00000000
00000000
;

//---------------dance-double - ----------------
#NOTES:
     dance-double:
     :
     Hard:
     9:
     0.600783,0.535165,0.163738,0.293005,0.206827,435.000000,19.000000,34.000000,0.000000,0.000000,0.000000,0.600783,0.535165,0.163738,0.293005,0.206827,435.000000,19.000000,34.000000,0.000000,0.000000,0.000000:
00000000
00000000
00000000
00000000
,
00000000
00000000
00000000
00000000
,
00001000
00000100
00010000
01000000
00000000
01000000
00100000
01000000
,
00000000
00010000
00000010
00000100
00000000
00000100
00000001
00001000
,
00000000
00000010
00000100
00000001
00000000
00000001
00000100
00000010
,
00000000
00001000
00000100
00010000
01000000
10000000
01000000
00000000
,
00200000
00302000
00023000
00030200
,
00000310
00000001
00000100
00001000
00010000
01000000
10000000
00000000
,
00002000
02003000
03020000
20030000
,
30100000
10000000
01000000
00010000
00001000
00000000
00000000
00000000
,
00012000
00000000
00000000
00013000
00000100
00001000
00000000
00000000
,
00001002
00000000
00000000
00001003
00000010
00000100
00000000
00000001
,
00000100
00001000
00000000
00010000
00100000
10000000
00000000
10000000
,
01000000
00010000
00001000
00010000
00001000
00000100
00000001
00000100
,
00002000
00010000
00000100
00010000
,
00000100
00010000
00100000
01003000
,
00200000
01000000
00010000
01000000
,
00010000
00000000
01000000
00000000
00010000
00000000
00301000
00010000
,
00010000
00000000
00001000
00000000
00010000
00000000
00000100
00001000
00000100
00000000
00000010
00000000
00000010
00000000
00000001
00000000
,
00000001
00000000
00001000
00000000
00001000
00000000
00000010
00000100
00000010
00000000
00010000
00000000
00010000
00000000
01000000
00000000
,
01000000
00000000
10000000
00000000
10000000
00000000
00010000
01000000
00010000
00000000
00100000
00000000
00100000
00000000
00010000
10000000
,
00020000
00000000
00000000
00000000
00000000
00000000
01030000
00100000
01000000
00000000
00001000
00000000
00001000
00000000
00000000
00000000
,
00010000
00000010
00000100
00000000
00000001
00000010
00000001
00000100
,
00001000
00000000
00000110
00000000
00001001
00000000
00000100
00010000
,
01000000
01000000
11000000
01010000
,
20020000
00000000
30030000
00000000
01100000
00010000
10000000
00010000
,
00100000
00001000
00100000
00001000
00010000
00000010
00010000
00000010
,
00001000
00000001
00001000
00000001
00000200
00000000
00000320
00000000
,
00002030
00000000
00003002
00000023
,
00002030
00000000
00000000
00000000
00103000
00010000
10000000
00000000
,
00110000
00010000
10000000
01000000
11000000
01000000
00010000
00001000
,
00011000
00010010
00002000
00003002
,
00002003
00000000
00003002
00000000
00000013
00000001
00000100
00001000
,
00010000
00000000
00100000
00000000
10000000
00000000
01000000
00000000
00010000
00000000
00000000
00001000
00010000
00000000
00010000
00000000
,
00001000
00000100
00000000
00000001
00000010
00000000
00001000
00010000
00100000
00000000
00000000
00001000
00000100
00000000
00010000
00000000
,
01000000
10000000
00000000
00100000
01000000
00000000
00010000
00000000
10000000
00000000
00000000
00010000
00001000
00000000
00000000
00000000
,
00000001
00000000
00000000
00000010
00000100
00000000
00010000
00000000
00001000
00000000
00000000
00100000
10000000
00000000
00010000
00000000
,
10000000
01000000
00000000
00100000
01000000
00000000
00001000
00000000
00000100
00000000
00000000
00000001
00001000
00000000
00000001
00000010
,
00000100
00001000
00000100
00001000
00000001
00000100
00000001
00000100
,
00001000
00010000
00001000
00010000
00100000
10000000
00100000
10000000
,
01000000
00010000
01000000
00010000
00001000
00010000
00001000
00010000
,
00011000
00000000
00000000
00020000
00000000
00000000
00000000
00000000
02030000
00000000
00000000
00000000
23000000
00000000
00000000
00000000
,
30020000
00000000
00000000
00000000
00000000
00000000
00030000
00000000
10000000
00000000
00000000
00000000
00000000
01000000
00000000
00000000
00010000
00000000
00000000
00000000
00000000
00000000
00000000
00000000
00001000
00000000
00000000
00000000
00000000
00000100
00000000
00000000
,
00000001
00000000
00000000
00000000
00000000
00000000
00000000
00000000
00000001
00000000
00000000
00000000
00000000
00000100
00000000
00000000
00001000
00000000
00000000
00000000
00000000
00001000
00000000
00000000
00010000
00000000
00000000
00000000
00000000
00001000
00000000
00000000
,
00000110
00000000
00000000
00000000
00000000
00000000
00000000
00000000
00000000
00000000
00000000
00000000
00000000
00001001
00000000
00000000
00000000
00000000
00000000
00000000
00000000
00000000
00000000
00000000
00000001
00000000
00000000
00000000
00000000
00000100
00000000
00000000
,
00001000
00000000
00000000
00000000
00000000
00000000
00000000
00000000
00000000
00000000
00000000
00000000
00000000
00000000
00000000
00000000
00010000
00000000
00000000
00000000
00000000
00000000
00000000
00000000
00000000
00000000
00000000
00000000
00000000
00000000
00000000
00000000
00100000
00000000
00000000
00000000
00000000
00000000
00000000
00000000
00000000
00000000
10000000
00000000
00000000
00000000
00000000
00000000
00000000
00000000
00000000
00000000
00000000
01000000
00000000
00000000
00000000
00000000
00000000
00000000
00000000
00000000
00000000
00000000
,
00100000
00000000
00000000
00000000
00000000
00010000
00000000
00000000
10000000
00000000
00000000
00000000
00000000
00010000
00000000
00000000
00000000
00000000
00000000
00000000
00000000
00000000
00000000
00000000
10000000
00000000
00000000
00000000
00000000
00000000
00000000
00000000
,
01000000
00000000
00000000
00000000
00000000
00000000
00000000
00000000
00000000
00000000
00000000
00000000
00000000
00000000
00000000
00000000
00010000
00000000
00000000
00000000
00000000
00000000
00000000
00000000
00000000
00000000
00000000
00000000
00000000
00000000
00000000
00000000
00001000
00000000
00000000
00000000
00000000
00000000
00000000
00000000
00000000
00000000
00000000
00000000
00000000
00000000
00000000
00000000
00000000
00000000
00000000
00000000
00000000
00000100
00000000
00000000
00000000
00000000
00000000
00000000
00000000
00000000
00000000
00000000
,
00000001
00000000
00000000
00000000
00000010
00000000
00000001
00000000
00000100
00000000
00001000
00000000
00010000
00001000
00010000
00001000
,
00010000
00000000
00001000
00010000
00001000
00000000
00010000
01000000
,
10000000
00000000
00100000
00000000
10000000
00010000
10000000
00010000
10000000
00000000
00000000
00000000
00010000
00000000
10000000
00000000
,
01000000
00010000
00001000
00000010
00000001
00000100
00001000
00010000
,
01000000
00000000
00000000
00000000
10000000
01000000
10000000
01000000
10000000
00000000
00000000
00000000
01000000
00000000
00100000
00000000
,
00010000
00000000
00100000
00001000
00010000
00001000
00010000
00001000
,
00000100
00000001
00000010
00000100
00000010
00000100
00001000
00000001
,
00001001
00000000
00000001
00000010
00000100
00001000
00000100
00001000
,
00000100
00010000
00001000
00010000
00011000
00000000
00010000
00100000
,
01000000
00000000
00100000
10000000
01000000
10000000
01000000
10000000
,
00010000
00100000
00001000
00010000
00001000
00010000
00001000
00000010
,
00000110
00000000
00000010
00000100
00001000
00000001
00001000
00000001
,
00001000
00000100
00000010
00000001
00002002
00000000
00000003
00000000
,
00003001
00000100
00001000
00010000
02000000
00000000
00000000
13000000
,
01000000
00000000
00010000
00000000
00001000
00000000
00000100
00000000
00000001
00000100
00000001
00000000
00000100
00000000
00000000
00000000
,
00001000
00000100
00001000
00000000
00000100
00000000
00000000
00000000
00000001
00000100
00000001
00000000
00000100
00000000
00000000
00000000
,
00001000
00000100
00001000
00000000
00000200
00000000
00000000
00000000
00000000
00000000
00000000
00000000
00000300
00000000
00000000
00000000
,
00000001
00000100
00001000
00010000
02000000
00000000
00000000
03010000
,
01000000
00000000
10000000
00000000
00100000
00000000
10000000
00000000
01000000
10000000
01000000
00000000
10000000
00000000
00000000
00000000
,
01000000
00010000
01000000
00000000
00010000
00000000
00000000
00000000
01000000
10000000
01000000
00000000
10000000
00000000
00000000
00000000
,
01000000
00010000
01000000
00000000
00010000
00000000
00000000
00000000
00000000
00000000
00000000
00000000
00001000
00010000
00001000
00010000
,
00001000
00000000
00000000
00000000
;

//---------------dance-single - ----------------
#NOTES:
     dance-single:
     :
     Challenge:
     15:
     0.837157,0.896789,0.663570,0.387801,0.504141,558.000000,77.000000,45.000000,0.000000,0.000000,0.000000,0.837157,0.896789,0.663570,0.387801,0.504141,558.000000,77.000000,45.000000,0.000000,0.000000,0.000000:
// measure 0
0000
0000
0000
0000
,  // measure 1
0000
0000
0000
0000
,  // measure 2
1100
0010
0001
0100
1000
0100
0001
0010
,  // measure 3
1000
0000
0100
0000
1000
0000
0010
0000
0001
0000
1000
0000
0002
0000
0000
0003
,  // measure 4
1010
0100
0001
1000
0010
0001
0100
0010
,  // measure 5
1001
0000
0100
0000
0010
0000
0100
0000
0010
0001
1000
0001
1000
0001
1000
0000
,  // measure 6
0102
0000
0000
0003
0210
0000
0000
0300
2010
0000
0000
3000
0001
1000
0001
1000
,  // measure 7
0001
0100
1000
0001
0010
1000
0001
0000
,  // measure 8
1002
0000
0000
0003
2010
0000
0000
3000
0120
0000
0000
0030
0201
0000
0000
0300
,  // measure 9
1000
0001
1000
0001
1000
0001
1000
0000
2002
0000
0000
0000
0000
0000
3003
0000
,  // measure 10
0210
0000
0000
0301
1000
0001
0000
0000
,  // measure 11
1020
0000
0000
0000
0000
0000
0130
0000
0001
0000
0100
0000
0000
0000
0010
1000
,  // measure 12
0010
0000
0101
0000
0000
0000
1000
0100
1000
0000
0101
0000
0000
0000
0100
1000
,  // measure 13
0010
0000
0101
0000
0010
0000
1000
0000
0100
0000
1000
0010
0100
0001
0100
0000
,  // measure 14
0010
0010
0010
1000
1000
0100
1000
0001
,  // measure 15
0100
0010
0100
0001
0010
0100
1000
0001
,  // measure 16
0010
1000
0010
0001
0100
1000
0100
0001
,  // measure 17
2000
0000
0000
0000
3010
0100
0001
0000
0100
0000
0010
0000
1000
0000
0100
0010
,  // measure 18
0001
0000
0100
0000
0010
0000
1000
0001
1000
0000
0010
0000
0100
0000
0001
1000
,  // measure 19
0001
0000
0100
0000
0010
0000
1000
0001
1000
0000
0010
0000
0100
0000
0010
1000
,  // measure 20
0010
0000
1000
0000
0100
0000
0001
0010
0001
0000
0100
0000
1000
0000
0001
0100
,  // measure 21
0010
0000
1000
0000
0010
0000
1000
0001
1000
0000
0010
0000
0100
0000
0000
0000
,  // measure 22
0011
0000
0100
0000
1000
0000
0000
0000
0110
0000
0000
0000
0001
1000
0001
1000
,  // measure 23
0001
0000
0000
0000
1010
0000
0000
0000
0110
0000
0100
0000
0001
0000
0000
0010
,  // measure 24
0001
0100
0001
0000
1000
0000
0010
0000
0100
0000
0010
0000
1000
0000
0001
0100
,  // measure 25
0001
1000
0010
0000
1000
0000
0100
0000
0001
0000
0010
0000
0001
0000
0100
0000
,  // measure 26
1000
0010
0001
0010
1000
1000
0100
0100
,  // measure 27
0010
0001
0010
0001
0010
0001
0010
0001
0200
0000
0300
0000
2001
0000
3000
0000
,  // measure 28
0202
0000
0303
0000
2001
3000
1020
0030
,  // measure 29
0202
0000
0000
0303
1000
0001
1000
0000
0110
0000
1000
0000
0010
0000
0000
0000
,  // measure 30
0011
0000
0100
0000
1000
0000
0001
0000
1000
0010
1000
0010
0100
0010
0100
0001
,  // measure 31
0100
0011
0110
1100
,  // measure 32
1001
0000
0101
0000
0110
0010
1000
1000
,  // measure 33
0001
0000
0001
0000
0100
0000
0100
0000
1020
0000
0100
0100
0130
0000
0001
1000
,  // measure 34
0001
0001
0100
1000
0011
0000
1000
0001
0200
0001
0010
0010
0310
0000
1100
0000
,  // measure 35
0001
0000
0001
0000
0000
0000
1000
0000
0200
0000
0000
0000
2300
0000
0000
0000
3020
0000
0000
0000
0030
0000
0100
0001
0100
0000
0000
0000
0010
0000
1000
0000
,  // measure 36
0100
0100
1000
0001
0100
0000
0110
0010
2000
0000
0000
3001
0101
0000
1000
0000
,  // measure 37
0010
1010
0000
0100
0101
0000
0001
0000
2010
0000
3000
0010
0010
0000
0100
0001
,  // measure 38
0010
0100
1000
0010
0001
0010
1000
0100
,  // measure 39
0001
0010
0001
0100
1000
0010
0001
1000
,  // measure 40
0100
0001
1000
0010
0100
0010
1000
0001
,  // measure 41
0201
0000
0000
0310
0000
0000
0000
0000
1001
0000
0000
0000
1100
0000
0000
0000
,  // measure 42
0101
0000
0000
0000
0000
0000
0000
0000
0100
0000
0000
0000
0000
0000
0000
0000
0001
0000
0000
0000
1000
0000
0000
0000
0100
0000
0000
0000
0010
0000
0000
0000
0001
0000
0000
0000
0000
0000
0000
0000
0000
0000
0100
0000
0000
0000
0000
0000
0001
0000
0000
0000
0000
0000
0000
0000
0000
0000
0000
0100
0000
0000
0000
0000
,  // measure 43
1000
0000
0000
0000
0000
0000
0000
0000
0000
0000
0000
0000
0000
0000
0000
0000
1000
0000
0000
0000
0000
0000
0000
0000
0000
0000
0000
0010
0000
0000
0000
0000
0001
0000
0000
0000
0000
0000
0000
0000
0000
0000
0000
0001
0000
0000
0000
0000
0010
0000
0000
0000
0000
0000
0000
0000
0000
0000
0000
1000
0000
0000
0000
0000
,  // measure 44
2002
0000
0000
0000
0000
0000
0000
0000
0000
0000
0000
0000
0000
0000
0000
0000
3003
0000
0000
0000
0000
0000
0000
0000
0000
0000
0000
0220
0000
0000
0000
0000
0000
0000
0000
0000
0000
0000
0000
0000
0330
0000
0000
0000
0000
0000
0000
0000
1000
0000
0000
0000
0000
0000
0000
0000
0000
0000
0000
0001
0000
0000
0000
0000
,  // measure 45
0100
0000
0000
0000
0000
0000
0000
0000
0000
0000
0000
0000
0000
0000
0000
0000
1000
0000
0000
0000
0000
0000
0000
0000
0000
0000
0000
0000
0000
0000
0000
0000
1000
0000
0000
0000
0000
0000
0000
0000
0000
0000
0000
0100
0000
0000
0000
0000
0000
0000
0000
0000
0000
0001
0000
0000
0000
0000
0000
0000
0000
0000
0000
0000
,  // measure 46
0010
0000
0000
0000
0000
0000
0000
0000
0000
0000
0000
0001
0000
0000
0000
0000
1000
0000
0000
0000
0000
0000
0000
0000
0000
0000
0000
0001
0000
0000
0000
0000
0000
0000
0000
0000
0000
0000
0000
0000
0000
0000
0000
0000
0000
0000
0000
0000
1000
0000
0000
0000
0000
0000
0000
0000
0000
0000
0000
0000
0000
0000
0000
0000
,  // measure 47
1100
0000
0000
0000
0000
0000
0000
0000
0000
0000
0000
0000
0000
0000
0000
0000
0001
0000
0000
0000
0000
0000
0000
0000
0000
0000
0000
0000
0000
0000
0000
0000
0202
0000
0000
0000
0000
0000
0000
0000
0000
0000
0000
0000
0303
0000
0000
0000
0000
0000
0000
0000
0000
0001
0000
0000
0000
0000
0000
0000
0000
0000
0000
0000
,  // measure 48
2002
0000
0000
3003
1000
0000
0010
0000
0001
0000
0010
0000
1000
0001
1000
0001
,  // measure 49
1000
0000
0010
0100
0001
0000
0010
0001
,  // measure 50
0100
0001
0100
0001
0100
0001
0100
0001
0100
0000
0000
0000
0010
0000
1000
0000
,  // measure 51
0011
0100
0001
0100
1010
0100
0010
0100
,  // measure 52
0010
0001
1000
0001
1000
0001
1000
0001
0200
0000
0000
0300
1001
0000
0010
0000
,  // measure 53
2200
0000
0000
3300
0110
0000
1000
0000
0101
0000
1000
0000
0010
0000
0100
0000
,  // measure 54
0011
0100
0010
1000
0110
0000
0011
0100
,  // measure 55
1010
0000
0110
0001
1010
0100
0010
0001
,  // measure 56
1000
0010
1000
0000
0010
0000
0100
0000
0012
0000
0000
0000
1003
0000
0100
0000
,  // measure 57
0011
0000
0100
0010
1010
1000
0001
0100
,  // measure 58
0110
0010
1010
1000
1001
0001
0100
0010
,  // measure 59
0110
0000
1000
0001
0011
0010
1000
0010
,  // measure 60
0101
0000
0010
0000
1001
0000
0010
0000
0101
0000
0010
0000
1000
0100
1000
0100
,  // measure 61
1000
0001
0010
0001
0210
0000
0000
0301
,  // measure 62
0010
0000
1000
0000
0010
0001
0010
0001
0100
0010
0100
0010
0100
0010
0100
0000
,  // measure 63
0010
1000
0010
1000
0010
1000
0010
0000
1000
0001
1000
0001
1000
0001
1000
0000
,  // measure 64
0001
0100
0001
0100
0001
0100
0001
0100
0001
0100
0001
0100
0001
0000
0000
0000
,  // measure 65
1010
0100
0001
0100
1002
0000
0003
0100
,  // measure 66
0010
0000
1000
0000
0010
0100
0001
0000
0100
0010
1000
0010
0100
0000
0001
0000
,  // measure 67
1000
0100
1000
0100
1000
0100
1000
0000
0010
0100
0010
0100
0010
0100
0010
0000
,  // measure 68
0100
0001
0100
0001
0100
0001
0100
0000
0001
1000
0001
1000
0001
1000
0001
0000
,  // measure 69
2002
0000
0000
3003
0000
0000
0000
0000
;
