#VERSION:0.83;
#TITLE:City Never Sleeps;
#SUBTITLE:;
#ARTIST:Dirty Androids;
#TITLETRANSLIT:;
#SUBTITLETRANSLIT:;
#ARTISTTRANSLIT:;
#GENRE:;
#ORIGIN:;
#CREDIT:;
#BANNER:City Never Sleeps.png;
#BACKGROUND:City Never Sleeps-bg.png;
#PREVIEWVID:;
#JACKET:City Never Sleeps-jacket.png;
#CDIMAGE:;
#DISCIMAGE:;
#LYRICSPATH:;
#CDTITLE:;
#MUSIC:City Never Sleeps.ogg;
#OFFSET:0.000000;
#SAMPLESTART:68.760002;
#SAMPLELENGTH:15.000000;
#SELECTABLE:YES;
#BPMS:0.000=178.000;
#STOPS:;
#DELAYS:;
#WARPS:;
#TIMESIGNATURES:0.000=4=4;
#TICKCOUNTS:0.000=4;
#COMBOS:0.000=1;
#SPEEDS:0.000=1.000=0.000=0;
#SCROLLS:0.000=1.000;
#FAKES:;
#LABELS:0.000=Song Start;
#BGCHANGES:;
#KEYSOUNDS:;
#ATTACKS:
;

//---------------dance-single - ----------------
#NOTEDATA:;
#CHARTNAME:;
#STEPSTYPE:dance-single;
#DESCRIPTION:;
#CHARTSTYLE:;
#DIFFICULTY:Beginner;
#METER:4;
#RADARVALUES:0.170078,0.251893,0.019517,0.087827,0.000000,122.000000,120.000000,2.000000,9.000000,0.000000,0.000000,0.000000,0.000000,0.000000,0.170078,0.251893,0.019517,0.087827,0.000000,122.000000,120.000000,2.000000,9.000000,0.000000,0.000000,0.000000,0.000000,0.000000;
#CREDIT:;
#NOTES:
0000
0000
0000
0000
,
0000
0000
0000
0000
,
0000
0000
0000
0000
,
0000
0000
0000
0000
,
0000
0000
0000
0000
,
0002
0000
0000
0000
,
0003
0000
0000
0000
,
2000
0000
0000
0000
,
3000
0000
0000
0000
,
0001
0000
0010
0000
,
0001
0000
0010
0000
,
0001
0000
0100
0000
,
0001
0000
0000
0000
,
1000
0000
0010
0000
,
1000
0000
0010
0000
,
1000
0000
0100
0000
,
1000
0000
0000
0000
,
0001
0000
0010
0000
,
0001
0000
0100
0000
,
0010
0000
1000
0000
,
0010
0000
0000
0000
,
1000
0000
0010
0000
,
1000
0000
0100
0000
,
0010
0000
0001
0000
,
0010
0000
0000
0000
,
0001
0000
0100
0000
,
0010
0010
0010
0000
,
0100
0000
0001
0000
,
1000
0000
0000
0000
,
1000
0000
0010
0000
,
0100
0100
0100
0000
,
0010
0000
1000
0000
,
0001
0000
0000
0000
,
0001
0000
0010
0000
,
0001
0000
0100
0000
,
0010
0000
1000
0000
,
0100
0000
0000
0000
,
1000
1000
1000
0000
,
1000
1000
1000
0000
,
0100
0000
0010
0000
,
0001
0001
0001
0000
,
0002
0000
0000
0000
,
0003
0000
0000
0000
,
0020
0000
0000
0000
,
0030
0000
0000
0000
,
0200
0000
0000
0000
,
0300
0000
0000
0000
,
2000
0000
0000
0000
,
3000
0000
0000
0000
,
1001
0000
0000
0000
,
0000
0000
0000
0000
,
0001
0001
0001
0000
,
0010
0000
0100
0000
,
0010
0010
0010
0000
,
1000
0000
0100
0000
,
1000
1000
1000
0000
,
0100
0000
0010
0000
,
0100
0100
0100
0000
,
0010
0000
0001
0000
,
0001
0001
0010
0000
,
0100
0000
0010
0000
,
1000
1000
0010
0000
,
0100
0000
0010
0000
,
0001
0001
0001
0000
,
0010
0010
0010
0000
,
0100
0000
1000
0000
,
1001
0000
0000
0000
,
2000
0000
0000
0000
,
3000
0000
0000
0000
,
0100
0100
0100
0000
,
0010
0010
0010
0000
,
0002
0000
0003
0000
,
2000
0000
3000
0000
,
0010
0000
0000
0010
0000
0000
0010
0000
;

//---------------dance-single - ----------------
#NOTEDATA:;
#CHARTNAME:;
#STEPSTYPE:dance-single;
#DESCRIPTION:;
#CHARTSTYLE:;
#DIFFICULTY:Easy;
#METER:7;
#RADARVALUES:0.338762,0.360457,0.029276,0.097586,0.000000,243.000000,240.000000,3.000000,10.000000,0.000000,0.000000,0.000000,0.000000,0.000000,0.338762,0.360457,0.029276,0.097586,0.000000,243.000000,240.000000,3.000000,10.000000,0.000000,0.000000,0.000000,0.000000,0.000000;
#CREDIT:;
#NOTES:
0000
0000
0000
0000
,
0000
0000
0000
0000
,
0000
0000
0000
0000
,
0000
0000
0000
0000
,
0000
0000
0000
0000
,
0001
0000
0000
1000
0000
0100
0000
1000
,
0000
0000
0000
0000
,
0010
0000
0000
0100
0000
0010
0000
0100
,
0000
1001
0000
0000
,
0001
1000
0001
1000
,
0001
0100
0001
0100
,
0010
1000
0010
1000
,
0100
1000
0100
0000
,
1000
0001
1000
0001
,
0010
0001
0010
0001
,
0100
0010
0100
0010
,
1000
0000
0001
0000
1000
0001
1000
0000
,
0001
0100
0001
0010
,
0100
1000
0001
0000
,
1000
0010
0100
0001
,
0010
0100
1000
0000
,
0001
0100
0010
0100
,
0010
1000
0001
0000
,
1000
0100
1000
0100
,
0010
0001
1000
0000
,
1000
0010
0100
0010
,
1000
0100
0010
0010
,
0001
1000
0001
0100
,
0010
0100
0001
0001
,
1000
0010
1000
0100
,
0001
0100
1000
1000
,
0001
0010
0001
0100
,
1000
0100
0001
0001
,
1000
0100
1000
0100
,
1000
0000
0010
0000
0100
0100
0100
0000
,
0001
1000
0001
1000
,
0001
0000
0010
0000
0100
0100
0100
0000
,
1000
1000
1000
0010
,
0100
0100
0100
0001
,
1000
0100
1000
0100
,
0001
0100
0001
0000
,
0002
0000
0003
0000
,
0020
0000
0030
0000
,
0200
0000
0300
0000
,
2000
0000
3000
0000
,
2000
0000
3000
0000
,
0200
0000
0300
0000
,
0020
0000
0030
0000
,
0002
0000
0003
0000
,
2002
0000
0000
0000
,
3003
0000
0000
0000
,
0001
0100
0001
0100
,
0010
1000
0010
1000
,
0100
1000
0100
1000
,
0001
0000
0010
0000
0001
0001
0001
0000
,
1000
0001
1000
0001
,
0100
0010
0100
0010
,
1000
0001
1000
0001
,
0010
0000
0100
0000
0010
0010
0010
0000
,
0001
0010
0100
1000
,
0001
0010
0100
1000
,
0010
0100
0001
0100
,
0010
0000
1000
0000
0001
0001
0001
0000
,
1000
1000
0001
0010
,
0001
0001
0100
0010
,
1000
0010
0001
0010
,
1000
0001
1001
0000
,
1000
0000
0100
0000
1000
0010
1000
0000
,
0001
0010
0100
1000
,
0001
0000
0100
0000
0001
0010
0001
0000
,
1000
0100
0001
0100
,
1000
0010
1000
0010
,
0100
0000
0001
0000
0100
0100
0100
0000
,
0010
0000
0000
1000
0000
0000
0001
1000
;

//---------------dance-single - ----------------
#NOTEDATA:;
#CHARTNAME:;
#STEPSTYPE:dance-single;
#DESCRIPTION:;
#CHARTSTYLE:;
#DIFFICULTY:Medium;
#METER:12;
#RADARVALUES:0.561815,0.612777,0.195171,0.165896,0.019517,403.000000,383.000000,20.000000,17.000000,0.000000,0.000000,0.000000,0.000000,0.000000,0.561815,0.612777,0.195171,0.165896,0.019517,403.000000,383.000000,20.000000,17.000000,0.000000,0.000000,0.000000,0.000000,0.000000;
#CREDIT:;
#NOTES:
0000
0000
0000
0000
,
0000
0000
0000
0000
,
0000
0000
0000
0000
,
0000
0000
0000
0000
,
0000
0000
0000
0000
,
0001
0100
0000
0010
0000
1000
0000
2002
,
0000
0000
0000
0000
3003
0000
0010
0100
,
0010
0000
1000
0100
0000
1100
0000
0101
,
0000
2002
0000
3003
,
0001
0100
0000
0100
0000
0100
0010
1000
,
0100
0010
0000
0010
0000
0010
0001
0010
,
0100
1000
0000
1000
0000
1000
0001
0100
,
0010
1000
0000
1000
0000
1000
0001
0100
,
0001
0001
1000
1000
,
0001
0001
1000
1000
,
0001
0010
0001
0000
1000
0010
1000
0000
,
0001
1000
0001
1000
0001
0000
1001
0000
,
0000
1000
0010
0000
0100
0001
0000
0001
,
0000
1000
0100
0000
0010
0001
0000
0001
,
0000
0100
0010
0000
1000
0001
0000
0001
,
0000
1000
0100
1000
0000
0010
0100
0001
,
0000
0001
0100
0000
0010
0100
0000
0100
,
0000
0010
1000
0000
0100
0010
0000
0010
,
0000
0001
0100
0000
0001
1000
0000
0100
,
1000
1000
0100
1000
0002
0000
2003
0000
,
3010
0010
0000
1001
0000
0000
0000
0000
,
2000
0000
0000
3100
0000
0000
0000
0000
,
0010
0001
0010
0000
0110
0000
0001
0100
,
1000
0000
0100
0000
0000
0000
0110
0000
0000
0000
0000
0000
0000
0000
0001
0010
,
0002
0000
0000
0000
0003
1000
0100
1000
,
0000
0010
0100
0010
1000
0001
0000
0000
,
0002
0000
0000
2000
0000
0000
0000
0000
,
3003
0000
0010
0000
0000
1000
0000
0000
0100
0000
0000
0010
0000
0000
0001
0000
,
1000
1000
0000
1001
0000
0010
1000
0100
,
0000
0010
0001
0100
0000
0010
1000
0100
,
1000
0000
0001
0000
0100
0010
1000
0001
,
0000
0010
0001
1000
0010
0100
0001
1000
,
0100
0000
0010
0000
0000
0010
0000
0000
0001
0000
0000
0000
0100
0000
0001
0000
,
1000
0100
1000
0002
0000
0203
0000
2300
,
0000
3200
0000
0302
0000
0000
0000
1003
,
0000
0100
0010
0100
1000
0001
1000
0001
,
1000
0010
0000
1010
0000
1000
0001
0000
,
0100
0001
0000
0101
0000
0010
0001
0000
,
0100
0010
0000
1010
0000
1000
0100
0000
,
0010
0001
0000
0101
0000
0010
0100
0000
,
0001
1000
0000
1001
0000
0010
0100
0000
,
1000
0100
0000
0110
0000
0001
0100
0000
,
0010
1000
0000
0101
0000
0100
0010
0000
,
0001
0010
0000
0010
0100
0000
1000
0000
,
2002
0000
0000
0000
,
0000
0000
0000
3003
,
1000
0010
1000
0100
0010
0100
1000
0010
,
0100
0001
0100
0001
0010
0001
0100
0010
,
1000
0001
0100
0001
1000
0100
1000
0010
,
0100
0001
1000
0001
0000
0001
1000
0000
,
0001
0010
0001
0100
0010
0100
0001
0010
,
0100
1000
0100
1000
0010
1000
0100
0010
,
0001
1000
0100
1000
0001
0100
0001
0010
,
0100
1000
0001
1000
0000
1000
0001
0000
,
1000
0100
0001
0100
1000
0010
0100
0001
,
1000
0100
0001
0100
1000
0010
0100
0010
,
1000
0100
0001
0100
1000
0001
0010
0100
,
1000
0001
0100
0010
0000
0010
1000
0000
,
0001
0100
0001
0100
0000
0110
0000
1001
,
0000
0000
0010
0010
1000
0001
0100
0010
,
0100
0000
0001
0010
0000
1000
0010
0000
,
0001
1000
0100
1000
0010
1000
0010
0000
,
1000
0010
1000
0010
0100
0001
0100
0001
,
1000
0001
1000
0001
0000
0001
0100
0010
,
1000
0010
0100
0001
0010
0100
1000
0010
,
0100
0001
0010
0100
1000
0010
0100
0001
,
1000
0000
0001
0010
0100
1000
0100
1000
,
0001
0100
0001
0100
0010
0100
0010
1000
,
0001
0000
0000
1000
0000
0000
0001
1001
;

//---------------dance-single - ----------------
#NOTEDATA:;
#CHARTNAME:;
#STEPSTYPE:dance-single;
#DESCRIPTION:;
#CHARTSTYLE:;
#DIFFICULTY:Hard;
#METER:15;
#RADARVALUES:0.790444,0.937189,0.175654,0.195171,0.492808,567.000000,549.000000,18.000000,20.000000,0.000000,0.000000,0.000000,0.000000,0.000000,0.790444,0.937189,0.175654,0.195171,0.492808,567.000000,549.000000,18.000000,20.000000,0.000000,0.000000,0.000000,0.000000,0.000000;
#CREDIT:;
#NOTES:
// measure 0
0000
0000
0000
0000
,  // measure 1
0000
0000
0000
0000
,  // measure 2
0000
0000
0000
0000
,  // measure 3
0000
0000
0000
0000
,  // measure 4
0000
0000
0000
0000
,  // measure 5
1000
1000
0000
0100
0000
0010
0000
2002
,  // measure 6
0000
0000
0000
0000
3003
0000
0010
0100
,  // measure 7
1000
0000
0100
0001
0000
0011
0000
1002
,  // measure 8
0000
0200
0000
0303
,  // measure 9
1000
0100
0001
0100
0010
0001
0100
0010
,  // measure 10
1000
0001
0100
1000
0100
0001
0010
0100
,  // measure 11
1000
0001
0010
1000
0010
0100
0010
0001
,  // measure 12
1000
0001
0100
0010
1000
0100
0010
0100
,  // measure 13
1000
1000
0010
0010
,  // measure 14
0100
0100
0001
0001
,  // measure 15
0010
0001
0010
0001
0100
0001
0100
0001
,  // measure 16
1000
0001
1000
0001
1000
0001
1000
0001
1000
0000
0001
0000
1001
0000
0000
0000
,  // measure 17
0001
0100
0010
1000
0100
1000
0010
0100
,  // measure 18
0000
0100
0010
1000
0001
0010
0100
0010
,  // measure 19
0000
0010
0001
1000
0100
1000
0001
0010
,  // measure 20
0000
0000
0010
0000
0100
0000
1000
0100
0000
1000
0100
0000
0010
0100
0010
0000
,  // measure 21
0000
0010
0001
0100
1000
0100
0001
1000
,  // measure 22
0000
1000
0100
0001
0100
1000
0010
2000
,  // measure 23
0000
3100
0002
0000
1003
0020
0000
0031
,  // measure 24
1000
0000
0010
0000
1000
0000
0010
0000
1000
0100
1000
0100
0010
0001
0010
0001
,  // measure 25
0010
0000
0001
0000
0100
0000
0001
1000
0000
0001
1000
0000
0001
0000
0100
0000
,  // measure 26
0010
0000
1000
0000
0100
0000
0010
0001
0000
0010
0001
0000
1000
0000
0001
0000
,  // measure 27
0100
0000
0010
0000
0100
0000
0010
1000
0000
0010
1000
0000
0010
0000
0100
0000
,  // measure 28
0001
0000
0010
0000
0100
0000
1000
0001
0000
1000
0001
0000
0010
0000
0100
0000
,  // measure 29
1000
0000
0100
0000
0010
0000
0001
0100
0000
0001
0100
0000
0010
0000
0100
0000
,  // measure 30
0001
0000
0010
0000
0100
0000
1000
0001
0000
1000
0001
0000
0100
0000
0010
0000
,  // measure 31
1000
0000
0010
0000
0100
0000
0010
1000
0000
0010
1000
0000
0001
0000
0100
0000
,  // measure 32
0001
0000
0011
0000
0000
0101
0000
0000
0100
0001
0100
0001
1000
0010
1000
0010
,  // measure 33
1000
0000
0010
0000
0100
0000
0001
1000
0000
0001
1000
0000
0010
0000
0100
0000
,  // measure 34
1000
0000
0100
0000
0001
0000
0100
0001
0000
0100
0001
0000
1000
0000
0010
0000
,  // measure 35
1000
0000
0001
0000
0010
0000
0100
1000
0000
0100
1000
0000
0010
0000
1000
0000
,  // measure 36
0100
0000
0001
0000
0100
0000
0010
0001
0000
0010
0001
0000
1000
0000
0010
0000
,  // measure 37
0100
0000
0001
0000
0100
0000
0010
1000
0000
0010
1000
0000
0100
0000
0010
0000
,  // measure 38
1000
0000
0010
0000
0001
0000
1000
0001
0000
1000
0001
0000
0010
0000
0100
0000
,  // measure 39
1000
0000
0001
0000
0100
0000
0010
0100
0000
0010
0100
0000
0010
0000
1000
0000
,  // measure 40
0100
0010
0010
0100
0000
0100
0010
0000
,  // measure 41
2000
0100
0000
0100
0000
3100
0010
0001
,  // measure 42
0200
0010
0000
0010
0000
0310
1000
0010
,  // measure 43
0200
0001
0000
0001
0000
0301
0010
1000
,  // measure 44
0020
0001
0000
0001
0000
0031
0100
0010
,  // measure 45
2000
0100
0000
0100
0000
3100
1000
0001
,  // measure 46
0200
0010
0000
0010
0000
0310
1000
0001
,  // measure 47
0200
1000
0000
1000
0000
1300
0100
0001
,  // measure 48
0020
0100
0000
0130
0010
0000
0110
0000
,  // measure 49
2002
0000
0000
0000
,  // measure 50
0000
0000
0000
3003
,  // measure 51
0001
0100
0001
0100
0001
0000
0100
0001
0100
0001
0100
0000
0010
0000
1000
0000
,  // measure 52
0100
1000
0100
1000
0100
0000
1000
0100
1000
0100
1000
0000
0010
0000
0100
0000
,  // measure 53
0001
1000
0001
1000
0001
0000
1000
0001
1000
0001
1000
0000
0100
0000
0010
0000
,  // measure 54
0001
0010
0001
0010
0001
0000
1002
0000
0000
0000
1003
0000
0001
0100
0001
0000
,  // measure 55
1000
0100
1000
0100
1000
0000
0100
1000
0100
1000
0100
0000
1000
0000
0010
0000
,  // measure 56
0100
0001
0100
0001
0100
0000
0001
0100
0001
0100
0001
0000
0100
0000
0010
0000
,  // measure 57
1000
0001
1000
0001
1000
0000
0001
1000
0001
1000
0001
0000
0010
0000
0110
0000
,  // measure 58
0000
0000
0100
1000
0100
0000
0020
0000
0000
0000
0001
0000
0031
0000
0000
0000
,  // measure 59
1000
0100
1000
0100
1000
0000
0010
1000
0010
1000
0010
0000
0100
0000
0100
0000
,  // measure 60
0001
0010
0001
0010
0001
0000
0100
0001
0100
0001
0100
0000
0010
0000
0010
0000
,  // measure 61
0100
0010
0100
0010
0100
0000
0010
0100
0010
0100
0010
0000
0100
0000
0010
0000
,  // measure 62
1000
0010
0100
0000
0001
0010
0100
0000
1000
0000
0001
0000
1001
0000
0000
0000
,  // measure 63
0010
1000
0100
0001
0000
0001
0100
1000
,  // measure 64
0001
0100
0001
0001
1000
0100
1000
0000
,  // measure 65
1010
0000
1000
1100
0000
0001
0101
0000
,  // measure 66
0001
0000
0010
0000
0001
0000
0100
0010
0000
0000
0010
0000
1000
0001
1000
0000
,  // measure 67
0001
0000
0100
0000
0010
1000
0010
0000
0100
0001
0100
0000
0001
1000
0001
0000
,  // measure 68
1000
0000
0010
0000
0001
0000
0010
1000
0000
0000
0010
0000
0100
0000
0000
0000
,  // measure 69
0001
0100
0001
0000
1000
0100
1000
0000
0001
0010
0001
0010
0100
0000
1000
0010
,  // measure 70
1000
0010
0100
0000
0001
0010
0001
0010
0100
0000
0001
0000
0100
0000
2000
0000
,  // measure 71
0000
0000
0000
0000
3001
0000
0100
0000
1000
0000
0100
0010
0100
0000
0001
0000
,  // measure 72
1000
0010
0001
0010
1000
0100
0010
0001
,  // measure 73
0101
0000
1000
1100
0000
0010
1001
1001
;

//---------------dance-double - ----------------
#NOTEDATA:;
#CHARTNAME:;
#STEPSTYPE:dance-double;
#DESCRIPTION:;
#CHARTSTYLE:;
#DIFFICULTY:Easy;
#METER:7;
#RADARVALUES:0.316457,0.360457,0.029276,0.078069,0.000000,227.000000,224.000000,3.000000,8.000000,0.000000,0.000000,0.000000,0.000000,0.000000,0.316457,0.360457,0.029276,0.078069,0.000000,227.000000,224.000000,3.000000,8.000000,0.000000,0.000000,0.000000,0.000000,0.000000;
#CREDIT:;
#NOTES:
00000000
00000000
00000000
00000000
,
00000000
00000000
00000000
00000000
,
00000000
00000000
00000000
00000000
,
00000000
00000000
00000000
00000000
,
00000000
00000000
00000000
00000000
,
10000000
00000000
00000000
01000000
00000000
00100000
00000000
00010000
,
00000000
00000000
00000000
00000000
,
00100000
00000000
00000000
00001000
00000000
00010000
00000000
00001000
,
00000000
00011000
00000000
00000000
,
00000100
00001000
00000100
00001000
,
00000001
00000100
00000001
00000100
,
00000010
00010000
00000010
00010000
,
00001000
00010000
00001000
00000000
,
00100000
00010000
00100000
00010000
,
10000000
00100000
10000000
00100000
,
01000000
00001000
01000000
00001000
,
00010000
00000000
00001000
00000000
00010000
00001000
00010000
00000000
,
00000100
00001000
00000010
00001000
,
00000100
00000010
00000001
00000100
,
00000010
00010000
00001000
00010000
,
00001000
01000000
00010000
00010000
,
00100000
00010000
01000000
00010000
,
00100000
01000000
10000000
00010000
,
01000000
00100000
01000000
00001000
,
00010000
00001000
00010000
00000000
,
00001000
00000100
00000010
00000000
,
00000010
00001000
00000001
00000000
,
00000010
00000100
00001000
00000000
,
00001000
00000100
00010000
00000000
,
00001000
00100000
00010000
00000000
,
00010000
01000000
00100000
00000000
,
10000000
01000000
00100000
00000000
,
00100000
00001000
00010000
00000000
,
00000100
00001000
00000100
00001000
,
00000010
00001000
00000010
00000010
,
00000100
00000001
00000100
00001000
,
00010000
00001000
00010000
00000000
,
01000000
10000000
01000000
10000000
,
00100000
01000000
00100000
00100000
,
01000000
00010000
01000000
00001000
,
00010000
00001000
00010000
00000000
,
00002000
00000000
00003000
00000000
,
00000200
00000000
00000300
00000000
,
00000020
00000000
00000030
00000000
,
00020000
00000000
00030000
00000000
,
00002000
00000000
00003000
00000000
,
00200000
00000000
00300000
00000000
,
02000000
00000000
03000000
00000000
,
00020000
00000000
00030000
00000000
,
00011000
00000000
00000000
00000000
,
00000000
00000000
00000000
00000000
,
00001000
00000010
00001000
00000010
,
00000001
00000100
00000001
00000000
,
00000100
00001000
00000100
00001000
,
00010000
00001000
00010000
00000000
00001000
00000000
00000000
00000000
,
00010000
00100000
00010000
00100000
,
10000000
01000000
10000000
00000000
,
01000000
00010000
01000000
00010000
,
00001000
00010000
00001000
00000000
00010000
00000000
00000000
00000000
,
00001000
00000100
00001000
00000100
,
00000001
00000010
00000001
00000000
,
00000010
00001000
00000010
00001000
,
00010000
00001000
00010000
00000000
00001000
00000000
00000000
00000000
,
00100000
00010000
00100000
00010000
,
10000000
01000000
10000000
01000000
,
10000000
00100000
00010000
00001000
,
00010000
00001000
00011000
00000000
,
00000100
00000000
00001000
00000000
00000010
00000010
00000010
00000000
,
00000100
00000001
00001000
00000010
,
00010000
00001000
00100000
00010000
,
01000000
00100000
10000000
00000000
,
01000000
00000000
10000000
00000000
00010000
00010000
00010000
00000000
,
00100000
00001000
00010000
00001000
,
00010000
00000000
00000000
00001000
00000000
00000000
00001000
00010000
;

//---------------dance-double - ----------------
#NOTEDATA:;
#CHARTNAME:;
#STEPSTYPE:dance-double;
#DESCRIPTION:;
#CHARTSTYLE:;
#DIFFICULTY:Medium;
#METER:12;
#RADARVALUES:0.547874,0.612777,0.195171,0.185413,0.019517,393.000000,373.000000,20.000000,19.000000,0.000000,0.000000,0.000000,0.000000,0.000000,0.547874,0.612777,0.195171,0.185413,0.019517,393.000000,373.000000,20.000000,19.000000,0.000000,0.000000,0.000000,0.000000,0.000000;
#CREDIT:;
#NOTES:
00000000
00000000
00000000
00000000
,
00000000
00000000
00000000
00000000
,
00000000
00000000
00000000
00000000
,
00000000
00000000
00000000
00000000
,
00000000
00000000
00000000
00000000
,
10000000
00010000
00000000
01000000
00000000
00100000
00000000
02200000
,
00000000
00000000
00000000
00000000
03300000
00000000
00100000
01000000
,
00010000
00000000
00100000
00001000
00000000
00101000
00000000
00011000
,
00000000
00022000
00000000
00033000
,
00001000
00010000
00000000
00010000
00000000
00010000
00000010
00000000
,
00000100
00000001
00000000
00000001
00000000
00000001
00001000
00000000
,
00000100
00000010
00000000
00000010
00000000
00000010
00001000
00000000
,
00010000
01000000
00000000
01000000
00000000
01000000
00100000
00000000
,
00010000
10000000
00010000
10000000
,
01000000
00100000
00001000
00010000
,
00001000
00010000
00001000
00000000
00010000
00001000
00010000
00000000
,
00001000
00010000
00001000
00010000
00001000
00000000
00011000
00000000
,
00000000
00000100
00001000
00000000
00000100
00001000
00000000
00001000
,
00000000
00000001
00000100
00000000
00000001
00000100
00000000
00000100
,
00000000
00000010
00010000
00000000
00000010
00010000
00000000
00010000
,
00000000
00001000
00010000
00001000
00000000
00010000
00001000
00100000
,
00000000
00010000
00100000
00000000
00010000
00100000
00000000
00100000
,
00000000
01000000
10000000
00000000
01000000
10000000
00000000
10000000
,
00000000
00100000
01000000
00000000
00010000
00100000
00000000
00001000
,
00010000
00000000
00000100
00001000
00000020
00000000
00000230
00000000
,
00000301
00000001
00000000
00001001
00000000
00000000
00000000
00000000
,
00000002
00000000
00000000
00000103
00000000
00000000
00001000
00000000
,
00022000
00000000
00000000
00000000
00033000
00000000
00100000
00010000
,
00100000
00000000
01000000
00000000
00000000
00000000
11000000
00000000
00000000
00000000
00000000
00000000
00000000
00000000
10000000
00100000
,
20000000
00000000
00000000
00000000
30000000
00100000
01000000
00010000
,
00000000
01000000
00100000
00010000
00001000
00010000
00000000
00000000
,
00020000
00000000
00000000
00002000
00000000
00000000
00000000
00000000
,
00033000
00000000
00001000
00000000
00000000
00000010
00000000
00000000
00000001
00000000
00000000
00000010
00000000
00000000
00001000
00000000
,
00010000
00010000
00000000
00011000
00000000
01000000
00010000
01000000
,
00000000
00100000
10000000
00100000
00000000
10000000
01000000
00100000
,
00010000
00000000
01000000
00000000
00100000
00010000
00001000
00000100
,
00000000
00000001
00000100
00000001
00001000
00000100
00001000
00000000
,
00000010
00000000
00001000
00000000
00000000
00001000
00000000
00000000
00001000
00000000
00000000
00000000
00000100
00000000
00010000
00000000
,
00001000
00010000
00001000
00200000
00000000
00320000
00000000
02030000
,
00000000
03200000
00000000
20300000
00000000
00000000
00000000
31000000
,
00000000
00100000
00010000
01000000
00001000
00010000
00001000
00010000
,
00001000
00010000
00000000
00010100
00000000
00000100
00001000
00000000
,
00000001
00000100
00000000
00000110
00000000
00000010
00001000
00000000
,
00000100
00010000
00000000
00011000
00000000
00001000
00100000
00000000
,
00010000
01000000
00000000
01100000
00000000
00100000
01000000
00000000
,
00100000
10000000
00000000
10010000
00000000
00010000
01000000
00000000
,
00100000
01000000
00000000
01001000
00000000
00001000
00010000
00000000
,
00001000
00010000
00000000
00010010
00000000
00000010
00001000
00000000
,
00000001
00000100
00000000
00000100
00001000
00000000
00010000
00000000
,
00022000
00000000
00000000
00000000
,
00000000
00000000
00000000
00033000
,
00000010
00001000
00000010
00001000
00000010
00000100
00000001
00000010
,
00000100
00001000
00000100
00001000
00000100
00010000
00001000
00100000
,
00010000
01000000
00010000
01000000
00100000
10000000
01000000
00100000
,
00010000
01000000
00010000
10000000
00000000
10000000
00010000
00000000
,
10000000
01000000
10000000
01000000
00100000
00010000
01000000
00010000
,
00100000
00001000
00100000
00001000
00010000
00000010
00001000
00000100
,
00001000
00000010
00001000
00000010
00000100
00000001
00001000
00000001
,
00000010
00000100
00010000
00001000
00000000
00001000
00010000
00000000
,
00001000
00100000
00010000
01000000
00100000
10000000
01000000
00100000
,
00010000
00100000
00001000
00010000
00000100
00001000
00000010
00000100
,
00000001
00000010
00000100
00001000
00000010
00000100
00001000
00010000
,
00001000
01000000
00010000
00100000
00000000
00100000
01000000
00000000
,
10000000
01000000
10000000
01000000
00000000
01010000
00000000
00011000
,
00000000
00000000
00000100
00000100
00000010
00000001
00000010
00000000
,
00000001
00000000
00000100
00001000
00000000
00001000
00010000
00000000
,
00100000
10000000
00100000
10000000
00010000
10000000
00010000
00000000
,
10000000
01000000
10000000
01000000
00010000
01000000
00010000
01000000
,
10000000
01000000
00100000
00001000
00000000
00001000
00010000
00000000
,
00000100
00001000
00000010
00000100
00000001
00000010
00000100
00010000
,
00001000
00010000
00000010
00000100
00000001
00001000
00000100
00010000
,
00001000
00000000
00100000
00010000
01000000
00100000
01000000
00100000
,
10000000
01000000
00010000
01000000
10000000
00100000
01000000
00001000
,
00010000
00000000
00000000
00001000
00000000
00000000
00010000
00011000
;

//---------------dance-double - ----------------
#NOTEDATA:;
#CHARTNAME:;
#STEPSTYPE:dance-double;
#DESCRIPTION:;
#CHARTSTYLE:;
#DIFFICULTY:Hard;
#METER:15;
#RADARVALUES:0.770927,0.901143,0.146379,0.195171,0.453774,553.000000,538.000000,15.000000,20.000000,0.000000,0.000000,0.000000,0.000000,0.000000,0.770927,0.901143,0.146379,0.195171,0.453774,553.000000,538.000000,15.000000,20.000000,0.000000,0.000000,0.000000,0.000000,0.000000;
#CREDIT:;
#NOTES:
00000000
00000000
00000000
00000000
,
00000000
00000000
00000000
00000000
,
00000000
00000000
00000000
00000000
,
00000000
00000000
00000000
00000000
,
00000000
00000000
00000000
00000000
,
00010000
00010000
00000000
00100000
00000000
00010000
00000000
00022000
,
00000000
00000000
00000000
00000000
00033000
00000000
00001000
00000010
,
00001000
00000000
00000010
00000100
00000000
00010100
00000000
00020000
,
00000000
00002000
00000000
00033000
,
00100000
00010000
01000000
00010000
00100000
01000000
10000000
00100000
,
00010000
00100000
10000000
00010000
00100000
00001000
00010000
00001000
,
00000100
00000010
00001000
00000010
00000100
00000001
00000010
00000100
,
00001000
00000100
00010000
00001000
00010000
00001000
00100000
00010000
,
10000000
10000000
01000000
01000000
,
00100000
00100000
00010000
00010000
,
00001000
00000100
00001000
00000000
00000001
00000010
00000001
00000000
,
00001000
00000001
00001000
00000001
00001000
00000001
00001000
00000001
00001000
00000000
00000001
00000000
00001001
00000000
00000000
00000000
,
00000001
00000010
00000001
00000010
00000100
00001000
00000001
00000100
,
00000000
00000100
00001000
00010000
00001000
00010000
00100000
10000000
,
00000000
10000000
00010000
01000000
00010000
00100000
01000000
10000000
,
00000000
00000000
10000000
00000000
01000000
00000000
00100000
00010000
00000000
00100000
00010000
00000000
00100000
00000000
00001000
00000000
,
00000000
00001000
00010000
00000100
00001000
00000010
00001000
00000010
,
00000000
00000010
00000100
00000001
00001000
00000100
00001000
00000020
,
00000000
00000130
00002000
00000000
00013000
00200000
00000000
01300000
,
00010000
00000000
10000000
00000000
01000000
00000000
00100000
00000000
00010000
00100000
00010000
00100000
00001000
00100000
00001000
00100000
,
00001000
00000000
00010000
00000000
00000100
00000000
00001000
00000010
00000000
00001000
00000010
00000000
00000100
00000000
00000001
00000000
,
00000010
00000000
00000100
00000000
00001000
00000000
00000100
00010000
00000000
00000100
00010000
00000000
00001000
00000000
00100000
00000000
,
00010000
00000000
01000000
00000000
00100000
00000000
10000000
00100000
00000000
10000000
00100000
00000000
10000000
00000000
01000000
00000000
,
00010000
00000000
00001000
00000000
00100000
00000000
00001000
00010000
00000000
00001000
00010000
00000000
00000100
00000000
00001000
00000000
,
00000010
00000000
00000100
00000000
00000001
00000000
00000010
00000001
00000000
00000010
00000001
00000000
00000100
00000000
00000010
00000000
,
00001000
00000000
00000100
00000000
00000010
00000000
00000100
00001000
00000000
00000100
00001000
00000000
00000010
00000000
00001000
00000000
,
00010000
00000000
01000000
00000000
00100000
00000000
01000000
00100000
00000000
01000000
00100000
00000000
10000000
00000000
00010000
00000000
,
01000000
00000000
01001000
00000000
00000000
00011000
00000000
00000000
00000100
00010000
00000100
00010000
00000100
00001000
00000100
00001000
,
00000100
00000000
00000010
00000000
00000001
00000000
00001000
00000010
00000000
00001000
00000010
00000000
00000100
00000000
00001000
00000000
,
00010000
00000000
00100000
00000000
01000000
00000000
00010000
00100000
00000000
00010000
00100000
00000000
00010000
00000000
01000000
00000000
,
10000000
00000000
01000000
00000000
00010000
00000000
10000000
01000000
00000000
10000000
01000000
00000000
00100000
00000000
00001000
00000000
,
00010000
00000000
00000010
00000000
00001000
00000000
00000001
00000100
00000000
00000001
00000100
00000000
00000001
00000000
00000010
00000000
,
00001000
00000000
00010000
00000000
00001000
00000000
01000000
00010000
00000000
01000000
00010000
00000000
00100000
00000000
01000000
00000000
,
10000000
00000000
01000000
00000000
00010000
00000000
00001000
00010000
00000000
00001000
00010000
00000000
00000100
00000000
00001000
00000000
,
00000010
00000000
00000001
00000000
00000010
00000000
00001000
00000010
00000000
00001000
00000010
00000000
00001000
00000000
00000100
00000000
,
00010000
00001000
00001000
00010000
00000000
00010000
00001000
00000000
,
02000000
00010000
00000000
00010000
00000000
03010000
01000000
00100000
,
20000000
01000000
00000000
01000000
00000000
31000000
00100000
00001000
,
00020000
00001000
00000000
00001000
00000000
00031000
00010000
00000100
,
00002000
00000010
00000000
00000010
00000000
00003010
00000100
00000000
,
00000020
00001000
00000000
00001000
00000000
00001030
00000010
00000100
,
00000002
00000010
00000000
00000010
00000000
00000013
00000100
00010000
,
00002000
00010000
00000000
00010000
00000000
00013000
00001000
00100000
,
00020000
01000000
00000000
01000000
00000000
01030000
00100000
00000000
,
00022000
00000000
00000000
00000000
,
00000000
00000000
00000000
00033000
,
00000010
00001000
00000010
00001000
00000010
00000000
00001000
00000010
00001000
00000000
00000001
00000000
00000100
00000000
00000010
00000000
,
00010000
00001000
00010000
00001000
00010000
00000000
00001000
00010000
00001000
00000000
00100000
00000000
00010000
00000000
01000000
00000000
,
00100000
10000000
00100000
10000000
00100000
00000000
10000000
00100000
10000000
00000000
01000000
00000000
00100000
00000000
00010000
00000000
,
01000000
00010000
01000000
00010000
01000000
00000000
00002000
00000000
00000000
00000000
00013000
00000000
00011000
00000000
00000000
00000000
,
00100000
00010000
00100000
00010000
00100000
00000000
00010000
00100000
00010000
00000000
10000000
00000000
01000000
00000000
00100000
00000000
,
00001000
00010000
00001000
00010000
00001000
00000000
00010000
00001000
00010000
00000000
00000010
00000000
00001000
00000000
00000100
00000000
,
00000010
00000001
00000010
00000001
00000010
00000000
00000001
00000010
00000001
00000000
00000100
00000000
00000010
00000000
00001000
00000000
,
00000100
00001000
00000100
00001000
00000100
00000000
00020000
00000000
00000000
00000000
00031000
00000000
00011000
00000000
00000000
00000000
,
00100000
00010000
00100000
00010000
00100000
00000000
01000000
10000000
01000000
10000000
01000000
00000000
10000000
00000000
00100000
00000000
,
01000000
00001000
01000000
00001000
01000000
00000000
00001000
00010000
00001000
00010000
00001000
00000000
00010000
00000000
00000100
00000000
,
00001000
00000010
00001000
00000010
00001000
00000000
00000001
00000100
00000001
00000100
00000001
00000000
00000010
00000000
00000001
00000000
,
00001000
00000100
00001000
00000000
00000100
00010000
00001000
00000000
00010000
00000000
00001000
00000000
00011000
00000000
00000000
00000000
,
00010000
01000000
10000000
10000000
00000000
10000000
01000000
00010000
,
00001000
00000010
00000001
00000001
00001000
00000010
00001001
00000000
,
00001010
00000000
00001000
00011000
00000000
00010000
01010000
00000000
,
00010000
00000000
01000000
00000000
00100000
00000000
10000000
00010000
00000000
00000000
00010000
00000000
01000000
00100000
01000000
00000000
,
00100000
00000000
10000000
00000000
01000000
00100000
00010000
00000000
01000000
00000000
00001000
00000000
00010000
00000100
00001000
00000000
,
00000010
00000000
00000001
00000000
00000010
00000000
00001000
00000001
00000000
00000000
00000001
00000000
00000100
00000000
00000000
00000000
,
00000001
00000100
00000001
00000000
00001000
00000100
00001000
00000000
00000010
00010000
00000010
00010000
00001000
00000000
00100000
00001000
,
00100000
00001000
00010000
00000000
00001000
01000000
00001000
01000000
00010000
00000000
00100000
00000000
01000000
00000000
20000000
00000000
,
00000000
00000000
00000000
00000000
31000000
00000000
00010000
00000000
00001000
00000000
00000010
00000001
00000010
00000000
00000001
00000000
,
00000100
00001000
00010000
00001000
00000010
00001000
00010000
01000000
,
10000000
00000000
00010000
00110000
00000000
00100000
00001000
00011000
;

//---------------dance-single - ----------------
#NOTEDATA:;
#CHARTNAME:;
#STEPSTYPE:dance-single;
#DESCRIPTION:;
#CHARTSTYLE:;
#DIFFICULTY:Challenge;
#METER:16;
#RADARVALUES:0.903365,1.052401,0.204930,0.312274,0.741652,648.000000,627.000000,21.000000,32.000000,0.000000,0.000000,0.000000,0.000000,0.000000,0.903365,1.052401,0.204930,0.312274,0.741652,648.000000,627.000000,21.000000,32.000000,0.000000,0.000000,0.000000,0.000000,0.000000;
#CREDIT:;
#NOTES:
// measure 0
0000
0000
0000
0000
,  // measure 1
0000
0000
0000
0000
,  // measure 2
0000
0000
0000
0000
,  // measure 3
0000
0000
0000
0000
,  // measure 4
0000
0000
0000
0000
,  // measure 5
0001
1001
0000
0110
0000
1001
0000
0220
,  // measure 6
0000
0000
0000
0000
0000
0330
0001
0010
,  // measure 7
0100
0000
0100
0001
0000
0101
0000
1200
,  // measure 8
0000
2000
0000
3300
,  // measure 9
0001
0000
0100
0000
1000
0000
0100
0000
0010
1000
0010
0000
0100
0000
0010
0000
,  // measure 10
1000
0000
0100
0000
0001
0000
0100
0000
0010
0001
0010
0000
0100
0000
1000
0000
,  // measure 11
0010
0000
0100
0000
0010
0000
1000
0000
0010
0100
0010
0000
0001
0000
0010
0000
,  // measure 12
1000
0000
0100
0000
0010
0000
0001
0000
1000
0001
1000
0000
0001
0000
0100
0000
,  // measure 13
0010
0010
0010
0000
1000
0000
1000
0000
,  // measure 14
0001
0001
0100
0100
,  // measure 15
0001
0010
0100
1000
0001
1000
0100
0010
,  // measure 16
0001
0010
0100
1000
0010
0100
0010
0100
0001
0000
1000
0000
2001
0000
0000
0000
,  // measure 17
3010
0100
0001
1000
0100
0100
1000
0020
,  // measure 18
0000
0000
0130
0000
0001
0000
1000
0000
0100
0010
0100
0000
1000
0000
0020
0000
,  // measure 19
0000
0000
0130
0000
0001
0000
1000
0000
0001
0010
0100
0000
0010
0000
0002
0000
,  // measure 20
0000
0000
0103
0000
0001
0000
1000
0100
0000
1000
0100
0000
0010
0100
0020
0000
,  // measure 21
0000
0031
1000
0100
1000
1000
0100
0200
,  // measure 22
0000
0000
1300
0000
0100
0000
0010
0000
0100
1000
0001
0000
0010
0001
2000
0000
,  // measure 23
0000
3001
0002
0000
1003
0200
1000
1300
,  // measure 24
0001
0000
0010
0000
0100
0000
0010
0000
0001
1000
0001
1000
0100
0010
0100
0010
,  // measure 25
0100
0000
1000
0000
0001
0000
1000
0010
1000
0010
1000
0000
0001
0000
0100
0000
,  // measure 26
0001
0000
1000
0000
0100
0000
1000
0001
1000
0001
1000
0000
0001
0000
0100
0000
,  // measure 27
0001
0000
0010
0000
0100
0000
0010
0001
0010
0001
0010
0000
0001
0000
1000
0000
,  // measure 28
0001
0000
0010
0000
0100
0000
1000
0001
1000
0001
1000
0000
0010
0000
0100
0001
,  // measure 29
0010
0000
0100
0000
0010
0000
0001
1000
0001
1000
0100
0000
0010
0000
0100
0000
,  // measure 30
1000
0000
0001
1000
0000
0000
1000
0001
1000
0000
0001
0100
0010
0000
1000
0000
,  // measure 31
0010
0000
0010
0000
0100
0000
0001
1000
0001
1000
0100
0000
0001
0000
0100
0000
,  // measure 32
1000
0000
1010
0000
0000
0101
0000
0000
1000
0001
1000
0001
0100
0010
0100
0010
,  // measure 33
1000
0000
0100
0000
0010
0000
0001
1000
0001
1000
0100
0000
0010
0000
0100
0000
,  // measure 34
1000
0000
0001
0000
1000
0000
0010
0100
0010
0100
0001
0000
1000
0000
0100
0000
,  // measure 35
1000
0000
0010
0000
0100
0000
0001
1000
0001
1000
0010
0000
1000
0000
0100
1000
,  // measure 36
0000
0000
0001
0010
0100
1000
0010
0000
1000
0100
0010
0000
0001
1000
0010
0000
,  // measure 37
1000
0001
0000
1000
0001
0000
0010
0000
0001
0100
0001
0100
0010
0000
1000
0000
,  // measure 38
0100
0000
1000
0001
1000
0001
0100
0000
0001
0000
0010
0000
0100
0000
1000
0000
,  // measure 39
0001
0000
0100
0000
0010
0000
1000
0001
0000
1000
0001
0000
0010
0000
0001
0000
,  // measure 40
0100
0000
0000
0010
0000
0000
0010
0000
0000
0100
0000
0000
0000
0000
0000
0100
0000
0000
0001
0000
0010
0000
0100
0000
,  // measure 41
2000
0100
0000
0100
0000
3100
0001
0100
,  // measure 42
2000
0010
0000
0010
0000
3010
0001
0010
,  // measure 43
2000
0001
0000
0001
0000
3001
0010
1000
,  // measure 44
0020
0001
0000
0001
0000
0031
0100
1000
,  // measure 45
0200
0001
0000
0001
0000
0301
0010
0100
,  // measure 46
2000
0001
0000
0010
0000
3100
0001
1000
,  // measure 47
0200
1000
0000
1000
0000
1300
0100
0001
,  // measure 48
0020
1000
0000
0130
0001
0010
0100
1000
,  // measure 49
2002
0000
0000
3003
,  // measure 50
0001
0000
0010
0000
0100
0000
1000
0000
0010
0100
0010
0100
0010
0100
0001
0000
,  // measure 51
1000
0100
1000
0100
1000
0000
0001
0100
0001
0100
0001
0000
1000
0001
1000
0000
,  // measure 52
0010
1000
0010
1000
0010
0000
1000
0001
1000
0001
1000
0000
0001
0100
0001
0000
,  // measure 53
0100
0010
0100
0010
0100
0000
0001
0100
0001
0100
0001
0000
1000
0001
1000
0000
,  // measure 54
0001
0010
0100
1000
0001
0000
1002
0000
0000
0000
1003
0000
0100
0010
0001
0000
,  // measure 55
0001
0010
0100
1000
0100
0000
0010
0001
0010
0100
1000
0000
0001
1000
0001
0000
,  // measure 56
1000
0100
0010
0100
1000
0000
0001
0010
0100
0010
0001
0000
0100
0010
0100
0000
,  // measure 57
0001
0010
0100
1000
0010
0000
1000
0100
0010
0001
0100
0000
0010
0100
0002
0000
,  // measure 58
0000
0000
0103
1000
0100
0000
0020
0000
0000
0000
0130
0001
1000
0010
1000
0010
,  // measure 59
1000
0100
1000
0100
1000
0000
0010
1000
0010
1000
0010
1000
0100
0000
0100
0000
,  // measure 60
0001
1000
0001
1000
0010
0000
0100
0001
0100
0001
0100
0001
0010
0000
0010
0000
,  // measure 61
1000
0100
1000
0100
0001
0000
1000
0010
1000
0010
1000
0010
0001
0000
0001
0000
,  // measure 62
0100
0010
1000
0100
0010
0001
0100
0010
1000
0100
0010
0001
0100
0000
0100
0000
,  // measure 63
0010
0000
1000
0000
0100
0000
0011
0000
0000
0000
0001
0000
0010
0100
0010
0000
,  // measure 64
0001
0000
0100
0000
0010
0000
1100
0000
1000
0000
0100
0000
1000
0100
0010
0001
,  // measure 65
0100
0000
0100
1001
0000
0001
0110
0000
,  // measure 66
1000
0000
1010
0000
0010
0000
0100
0010
0000
0000
0100
0000
0001
1000
0001
1000
,  // measure 67
0010
0000
0010
0000
0100
0001
1000
0001
0100
0001
1000
0001
0100
0001
1000
0001
,  // measure 68
0100
0000
0100
0000
0001
0000
0100
1000
0100
0000
0100
0000
0010
1000
0001
0000
,  // measure 69
1000
0100
0010
0001
0010
0100
1000
0000
0001
0010
0100
0010
0001
0000
1000
0100
,  // measure 70
0010
0100
1000
0000
0001
1000
0001
1000
0002
0000
0023
0000
0230
0000
0320
0000
,  // measure 71
0000
0000
0000
0000
0031
0000
1000
0000
0100
0000
0010
0100
1000
0000
0100
0010
,  // measure 72
0001
0000
0010
0100
0010
0001
0010
0000
0100
1000
0100
0000
0010
0001
0010
0001
,  // measure 73
0100
0000
0110
1001
0000
1010
0110
0202
,  // measure 74
0000
0000
0000
0303
0000
0000
0000
0000
;
