#TITLE:chaos eater;
#SUBTITLE:;
#ARTIST:猫叉Master+;
#TITLETRANSLIT:;
#SUBTITLETRANSLIT:;
#ARTISTTRANSLIT:Nekomata Master+;
#GENRE:;
#CREDIT:;
#BANNER:chaos eater.png;
#BACKGROUND:chaos eater-bg.png;
#LYRICSPATH:;
#CDTITLE:;
#MUSIC:chaos eater.ogg;
#OFFSET:0.000000;
#SAMPLESTART:77.710999;
#SAMPLELENGTH:15.000000;
#SELECTABLE:YES;
#BPMS:0.000000=105.000000
,52.000000=210.000000
;
#STOPS:
;
#BGCHANGES:;
#KEYSOUNDS:;
#ATTACKS:;

//---------------dance-single - ----------------
#NOTES:
     dance-single:
     :
     Beginner:
     6:
     0.253749,0.336655,0.070000,0.017500,0.000000,203.000000,195.000000,8.000000,2.000000,0.000000,0.000000,0.253749,0.336655,0.070000,0.017500,0.000000,203.000000,195.000000,8.000000,2.000000,0.000000,0.000000:
0000
0000
0000
0000
,
0000
0000
0000
0000
,
0000
0000
0000
0000
,
0000
0000
0000
0000
,
0000
0000
0000
0000
,
1000
1000
1000
0000
,
0001
0001
0001
0000
,
0100
0100
0100
0000
,
0010
0010
0010
0010
,
1001
0000
0000
0000
,
1001
0000
0000
0000
,
1001
0000
0000
0000
,
1001
0000
0000
0000
,
1000
0000
1000
0000
,
0001
0000
0001
0000
,
0100
0100
0100
0000
,
0001
0001
0001
0000
,
1000
1000
1000
0000
,
0010
0010
0010
0000
,
0100
0100
0100
0000
,
0001
0001
0001
0000
,
0000
0100
0000
0100
,
0000
0010
0000
0010
,
0000
0100
0000
0100
,
0000
0010
0000
0010
,
0110
0000
0000
0000
,
0000
0001
0001
0001
,
0000
1000
1000
1000
,
1000
1000
1000
0000
,
0000
0100
0100
0100
,
0000
0010
0010
0010
,
0000
0100
0100
0100
,
0000
0010
0010
0000
,
1000
0000
0100
0000
,
0001
0000
0100
0100
,
0000
1000
0000
0100
,
0000
0001
0000
0100
,
0000
1000
1000
0000
,
0010
0010
0010
0000
,
0000
0001
0000
1000
,
1000
1000
1000
0000
,
0000
0001
0001
0000
,
0010
0010
0010
0000
,
0000
0010
0010
0010
,
0000
0010
0100
0000
,
0110
0000
0000
0000
,
0100
0100
0100
0000
,
1001
0000
0000
0000
,
0100
0100
0100
0000
,
0001
0000
0010
0000
,
1000
0000
0100
0000
,
0001
0000
0010
0000
,
0001
0100
1000
0020
,
0000
0000
0000
0000
,
0000
0030
0000
0000
,
1000
0001
0100
0000
,
0100
0010
0100
0000
,
0100
1000
0010
0000
,
0100
0010
0010
0000
,
1000
0001
0100
0000
,
0100
0010
0100
0010
,
0100
0001
0010
0000
,
0100
0010
0010
0000
,
1000
0001
0100
0000
,
0100
0010
0100
0000
,
0010
0010
0010
0000
,
0100
0100
0100
0100
,
1001
0000
0000
0000
,
0001
0000
0100
0000
,
0001
0000
0010
0000
,
1000
1000
1000
0000
,
1000
0000
0001
0000
,
1000
1000
1000
0000
,
0010
0001
1000
0001
,
0001
0001
0001
0000
,
0010
0001
1000
0000
,
0010
1000
0001
0000
,
0100
1000
0100
1000
,
1000
1000
1000
1000
,
0001
0000
0000
0010
,
0000
0000
1000
0000
,
0000
0001
0000
0000
,
1000
1000
1000
0002
,
0000
0000
0000
0000
,
0000
0000
0000
0000
,
0000
0000
0003
0000
,
0000
0000
0000
0000
;

//---------------dance-single - ----------------
#NOTES:
     dance-single:
     :
     Easy:
     8:
     0.371249,0.635905,0.271249,0.026250,0.000000,297.000000,266.000000,31.000000,3.000000,0.000000,0.000000,0.371249,0.635905,0.271249,0.026250,0.000000,297.000000,266.000000,31.000000,3.000000,0.000000,0.000000:
0000
0000
0000
0000
,
0000
0000
0000
0000
,
0000
0000
0000
0000
,
0000
0000
0000
0000
,
0000
0000
0000
0000
,
1000
0100
0100
0001
,
1000
0010
0010
0110
,
1000
0100
0100
0100
,
0001
0010
0010
0110
,
1001
0100
0000
0100
,
1001
0010
0000
0010
,
1001
0100
0000
0100
,
1000
0010
0001
0010
,
0100
1000
0001
0100
,
0001
0010
0100
1000
,
0100
1000
0001
1000
,
0001
0010
0110
0000
,
0100
0001
1000
0100
,
1000
0010
0100
0001
,
0100
0001
1000
0001
,
1000
0010
0110
0000
,
0000
0010
0100
0100
,
0000
0100
0010
0010
,
0000
0001
0100
0100
,
0000
1000
1000
0010
,
0001
0100
0010
1000
,
0100
0100
1000
0000
,
0000
0001
0001
1000
,
0001
0001
0001
0100
,
0000
0010
0100
0100
,
0000
0100
0010
0010
,
0000
1000
0100
0100
,
0000
0001
0001
0010
,
1000
0100
0010
0001
,
0100
0100
0001
0000
,
0000
1000
1000
0001
,
1000
1000
1000
0100
,
0010
1000
0010
0001
,
0010
1000
0010
0000
,
0000
0010
0010
0010
,
1000
0100
0010
0001
,
0100
0001
0100
1000
,
0100
0001
0010
0000
,
0000
0010
0010
0010
,
0001
0010
0100
1000
,
1001
0000
0000
0110
,
1000
0100
0100
0100
,
1001
0000
0000
0110
,
0010
0100
0100
0010
,
1001
0110
1001
0110
,
1001
0110
1001
0110
,
0001
0100
1000
0010
,
0001
0100
1000
0020
,
0000
0000
0000
0000
,
0000
0030
0110
0000
,
1000
1001
0100
0001
,
0100
0001
0010
0001
,
0100
1000
0100
0010
,
0100
0010
0001
0010
,
0001
1001
0100
1000
,
0100
1000
0010
1000
,
0100
0001
0100
0010
,
0100
0010
1000
0010
,
1000
1001
0100
0001
,
0100
0001
0010
0001
,
0100
1000
0100
0010
,
0100
0010
0001
0010
,
0110
0000
0100
1000
,
0110
0001
0010
1000
,
0110
0000
0100
0010
,
0100
0010
1000
0010
,
0010
0000
0010
0000
,
1000
0001
1000
0100
,
0010
0001
0010
0001
,
0200
0000
0301
0000
,
0010
0001
0010
1000
,
0100
1000
0001
0100
,
0110
0000
1001
0000
,
0110
0000
1001
0000
,
0110
0000
0000
0100
0000
0000
0001
0000
,
0000
0100
0000
0000
1000
0000
0000
0100
,
0000
0000
0001
0000
0000
0100
0000
0000
,
1000
0100
1000
0002
,
0000
0000
0000
0000
,
0000
0000
0000
0000
,
0000
0000
0003
0000
,
0000
0000
0000
0000
;

//---------------dance-single - ----------------
#NOTES:
     dance-single:
     :
     Medium:
     12:
     0.559999,0.748123,0.306249,0.017500,0.017500,448.000000,413.000000,35.000000,2.000000,0.000000,0.000000,0.559999,0.748123,0.306249,0.017500,0.017500,448.000000,413.000000,35.000000,2.000000,0.000000,0.000000:
0000
0000
0000
0000
,
0000
0000
0000
0000
,
0000
0000
0000
0000
,
0000
0000
0000
0000
,
0000
0000
0000
0000
,
1000
0000
0000
0000
0100
0000
0000
0001
0000
0000
1000
0000
0001
0000
0100
0000
,
1000
0100
0010
1000
0010
1010
0110
0101
,
1000
0000
0000
0000
0100
0000
0000
0001
0000
0000
1000
0000
0100
0000
0010
0000
,
0001
0100
0010
0001
0010
0011
0110
1100
,
0001
0000
0000
0000
1100
0000
0000
0100
0000
0000
0001
0000
0100
0000
0100
0000
,
1000
0100
0010
1000
0010
1010
0110
0101
,
0001
0000
0000
0000
0100
0000
0000
1000
0000
0000
0001
0000
0100
0000
0100
0000
,
1000
0100
0010
1000
0001
1000
0010
0000
,
0100
0000
1000
0000
0001
0010
0001
0100
,
0000
0010
0000
1000
0100
0000
0010
0001
,
0100
0000
0001
0000
1000
0001
1000
0100
,
0000
0010
0000
0001
0100
0000
0110
0000
,
0000
0000
1000
0000
0001
0010
0001
0100
,
0000
0010
0000
1000
0100
0000
0010
0000
,
0100
0000
1000
0000
1000
0001
1000
0100
,
0000
0010
0000
0001
0100
0000
0100
0000
,
0000
0000
0010
0000
0100
0010
0100
0001
,
0000
0000
0010
0000
0100
0010
0100
1000
,
0000
0000
0010
0000
0100
0001
0010
0001
,
0000
0000
0100
0010
0001
0010
0100
0000
,
0001
1000
0100
1000
0100
0000
0001
0010
,
0000
1000
0100
0000
0001
0000
0001
0000
,
0000
0010
0001
0010
0001
0000
1000
0000
,
0001
1000
0001
0100
0000
0000
0010
0100
,
0000
0000
0010
0000
0100
0010
0100
0001
,
0000
0000
0010
0000
0100
0010
0100
1000
,
0000
0000
0100
0000
0010
1000
0010
1000
,
0000
0000
0100
0010
0100
0010
0100
0000
,
1000
0001
0100
0001
1000
0000
1000
0010
,
0000
0001
0100
0000
1000
0000
0001
0000
,
0000
0010
1000
0010
0100
0000
0001
0000
,
1100
0000
0000
0110
0000
0000
0101
0000
,
0010
0000
1000
0010
1000
0000
0100
0000
,
1000
0010
0100
0010
1000
0000
0000
0000
,
0000
0000
0001
0100
0010
0100
0010
0001
,
1000
0110
0011
0101
,
0010
0000
0001
0010
0001
0100
0001
0000
,
1000
0010
0100
0010
1000
0000
0000
0000
,
0000
0000
0010
1000
0010
0100
0010
1000
,
0001
0110
1001
0110
,
1001
0000
0000
1100
0000
0000
0101
0000
,
1000
0100
1000
0100
1000
0000
0100
0000
,
1001
0000
0000
0101
0000
0000
1100
0000
,
0010
0100
0010
0100
,
1000
1000
0010
0011
,
0001
0101
1000
1100
,
0001
0010
0001
0010
0001
0010
1000
0100
,
1000
0100
1000
0100
1000
0010
0100
0002
,
0000
0000
0000
0000
,
0000
0000
0003
0000
1000
0001
1000
0000
,
1000
0000
0101
0000
0100
0000
0001
0100
,
0000
0001
0010
0001
0100
0000
0010
1000
,
0100
0000
1000
0000
0001
0100
0000
1000
,
0100
0000
0010
0100
0001
0100
0010
0000
,
1000
0000
0101
0000
0100
0000
1000
0100
,
0000
1000
0010
1000
0100
0000
0010
0001
,
0100
0000
0001
0000
1000
0100
0000
0001
,
0100
0000
0010
0100
0001
0100
0010
0000
,
0001
0000
1100
0000
0100
0000
1000
0100
,
0000
1000
0010
1000
0100
0000
0010
0001
,
0100
0000
0001
0000
0010
0001
0000
1000
,
0010
0000
0100
0010
0001
0010
0100
0000
,
0001
0000
0101
0000
0100
0000
0001
0100
,
0000
0001
0010
0001
0100
0000
0010
1000
,
0100
0000
1000
0000
0001
0100
0010
1000
,
0100
0000
0010
0100
1000
0100
0010
0000
,
0100
0000
1010
0000
0001
0000
1000
0010
,
0000
1000
0000
0010
0100
0010
1000
0000
,
0100
0000
1000
0000
0001
0000
1000
0010
,
0000
0010
0000
0010
1000
0001
1000
0001
,
0010
0000
1100
0000
0001
0000
1000
0100
,
0000
0100
0000
0100
1000
0001
1000
0001
,
1000
0100
0000
0001
0100
0000
1000
0010
,
0000
1000
0000
0001
0000
0100
0000
0000
,
1000
0100
0000
0010
0100
0000
0001
0010
,
0000
0010
1000
0000
1000
0100
0000
0100
,
0001
0000
0001
0010
0000
0010
0100
0000
,
0001
0100
0001
0100
0010
0100
0002
0000
,
0000
0000
0000
0000
,
0000
0000
0000
0000
,
0000
0000
0003
0000
,
0000
0000
0000
0000
;

//---------------dance-single - ----------------
#NOTES:
     dance-single:
     :
     Hard:
     16:
     0.803748,1.009966,0.481249,0.043750,0.494374,643.000000,588.000000,55.000000,5.000000,0.000000,0.000000,0.803748,1.009966,0.481249,0.043750,0.494374,643.000000,588.000000,55.000000,5.000000,0.000000,0.000000:
0000
0000
0000
0000
,
0000
0000
0000
0000
,
0000
0000
0000
0000
,
0000
0000
0000
0000
,
0000
0000
0000
0000
,
0101
0000
0000
0000
0110
0000
0000
1100
0000
0000
0001
0000
0100
0010
0100
0010
,
1000
0000
0100
0000
0010
0100
1000
0100
0010
0000
1010
0000
0110
0000
0101
0000
,
1100
0000
0000
0000
0110
0000
0000
1100
0000
0000
1000
0000
0100
0010
0100
0010
,
0001
0000
0100
0000
0010
0100
0001
0100
0010
0000
0011
0000
0110
0000
1100
0000
,
0101
0000
0000
0000
0110
0000
0000
0100
0001
0100
0001
0000
0100
0010
0100
0010
,
1000
0000
0100
0000
0010
0100
1000
0100
0010
0000
1010
0000
0110
0000
0101
0000
,
1001
0000
0000
0000
0110
0000
0000
1001
0000
0000
0001
0000
0100
0010
0100
0010
,
1000
0000
0000
0000
0100
0000
0000
0000
0010
0000
0100
0000
1000
0000
0100
0000
0010
0001
0010
0000
0001
0000
1000
0000
0010
0000
0000
0000
0000
0000
0000
0000
,
0100
0010
0001
0000
1000
0000
0000
0000
0001
0000
0010
0000
0001
0000
0100
0010
,
0000
0000
0100
0010
0000
0000
1000
0000
0100
0010
0100
0000
0010
0000
0001
0000
,
0100
0010
0100
0000
0001
0000
0000
0000
1000
0000
0001
0000
1000
0000
0100
0000
,
0000
0000
0010
0100
0000
0000
1000
0010
0100
0000
0000
0000
0010
0100
0000
0000
,
0010
1000
0010
0000
1000
0000
0000
0000
0001
0000
0010
0000
0001
0000
0100
0000
,
0000
0000
0010
0000
0000
0000
1000
0000
0100
0000
1000
0000
0010
0100
0010
0000
,
0100
0000
1000
0001
1000
0001
1000
0100
,
0000
0000
0010
0100
0010
0000
1000
0000
0100
0000
0000
0000
0010
0000
0001
0000
,
1000
0100
1000
0000
0010
0000
0000
0000
0100
0000
0010
0000
0100
0000
0001
0000
,
1000
0100
1000
0000
0010
0000
0000
0000
0100
0000
0010
0000
0100
0000
0001
0000
,
1000
0100
1000
0000
0010
0000
0000
0000
0100
0000
0001
0010
0100
0000
0010
0000
,
0110
0000
1000
0010
1000
0010
0100
0000
,
0001
0000
1000
0100
1000
0100
1000
0100
1000
0000
0000
0000
0001
0100
0001
0000
,
0000
0000
1000
0100
1000
0000
0000
0000
0001
0010
0001
0000
1000
0010
1000
0000
,
0000
0000
0001
0100
0001
0100
0001
0100
0001
0000
0000
0000
1000
0000
0000
0000
,
0001
0010
0001
0000
1000
0000
0100
0000
0000
0000
0000
0000
0100
0000
0010
0100
,
0001
0000
0000
0000
0011
0000
0000
0000
0110
0000
0010
0000
0100
0000
1000
0100
,
1000
0000
1100
0000
0110
0010
0100
1000
,
0010
0100
0010
0000
0100
0000
0000
0000
0100
0000
1000
0000
0100
0000
1000
0000
,
0010
0001
0010
0000
0100
0000
0010
0000
0100
0000
0010
0000
0100
0000
0000
0000
,
1000
0000
0001
0100
0001
0100
0001
0100
0001
0000
0000
0000
1000
0100
1000
0000
,
0000
0000
0001
0100
0000
0000
0000
0000
1100
0000
0000
0000
1100
0000
0000
0000
,
0001
0000
1000
0100
1000
0100
1000
0100
1000
0000
0000
0000
0001
0000
0000
0000
,
1000
0010
0100
0000
0001
1000
0100
0000
0010
0000
0001
0000
0000
0000
0100
0000
,
0010
0000
0000
0000
1000
0100
0010
0000
0001
0000
0010
0000
1000
0000
0010
0000
,
0001
0000
0010
0000
1000
0000
0010
0001
1000
0001
0100
0000
0000
0000
0100
0000
,
0000
0000
0100
0000
0010
0100
0001
0000
0010
0000
0100
0000
0010
0000
0001
0000
,
1100
0110
0011
0101
,
1001
0000
0000
0000
1000
0001
0100
0000
0001
0000
0100
0000
1000
0000
0100
0000
,
0001
0000
0100
0001
1000
0001
0100
0000
0001
0000
1000
0000
0000
0000
0100
0000
,
0000
1000
0100
0001
0100
0010
0100
0001
,
0010
0001
0000
0000
0001
0100
0000
0000
0100
1000
0000
0000
1000
0010
0000
0000
,
1001
0000
0000
1100
0000
0000
0101
0001
,
0100
0000
0010
0000
0100
0010
1000
0000
0100
0000
0000
0000
0100
0000
0000
0000
,
1001
0000
0000
0101
0000
0000
1100
1000
,
0100
0000
0000
0000
0100
1000
0001
0000
0100
0000
0000
0000
0010
0000
0000
0000
,
1000
0100
1000
0010
1000
0010
0001
0010
,
0001
0100
0001
0100
1000
0100
1000
0010
,
1000
0010
0001
0010
0001
0100
0001
0100
,
1000
0010
0100
0010
1000
0000
0001
0010
0100
0010
0001
0000
0202
0000
0000
0000
,
0000
0000
0000
0000
,
0000
0000
0000
0000
0000
0000
0303
0000
0001
1000
0001
1000
0001
0000
0000
0000
,
1000
0100
1000
0000
0001
0000
0000
0000
0100
0000
0000
0000
1000
0001
0100
0000
,
0001
0010
0001
0000
0010
0000
0001
0000
0100
0000
0000
0000
0010
0000
1000
0000
,
0100
0010
0100
0000
0010
0100
0000
0010
,
0100
0000
1000
0001
0010
0000
0100
0010
0001
0000
0010
0000
0100
0000
1000
0000
,
0001
0010
0001
0000
1000
0000
0000
0000
0100
0000
0000
0000
0001
1000
0100
0000
,
0000
1000
0010
1000
0100
0000
0010
0001
,
0100
0010
0100
0000
0010
0100
0000
0010
,
0100
0000
0011
0011
0110
0000
0110
0000
,
1000
0100
1000
0000
0001
0000
0000
0000
0100
0000
0000
0000
1000
0001
0100
0000
,
0001
0010
0001
0000
0010
0000
0001
0000
0100
0000
0000
0000
0010
0000
1000
0000
,
0100
0010
0100
0000
0010
0100
0000
0010
,
0100
0000
1000
0001
0010
0000
0100
0010
0001
0000
0010
0000
0100
0000
1000
0000
,
1001
0000
0000
0000
1100
0000
0000
0000
0100
0000
0000
0000
1000
0010
0100
0010
,
1000
0000
0001
0000
0010
0000
0001
0000
0100
0000
0001
0000
0010
0001
1000
0000
,
0100
0010
0100
0000
0010
0100
0000
0010
,
0100
0000
0010
0001
0010
0000
0110
0000
,
1000
0000
0001
0000
0100
0000
0001
1000
,
0001
0100
0001
0000
0010
0100
0010
0000
0001
1000
0001
0000
0100
0001
0100
0000
,
0010
0100
0010
0000
0100
0010
0100
0000
1000
0000
0000
0000
0011
0000
0000
0000
,
1100
0000
0000
0000
1000
0000
0001
0010
0002
0000
0000
0000
0100
0000
0003
0000
,
1000
0000
0000
0000
0100
1000
0100
1000
0100
0000
0010
0000
0100
0000
0000
0000
,
1000
0001
1000
0000
0100
0000
0000
0000
0001
1000
0001
0000
0100
0000
0000
0000
,
1000
0010
1000
0000
1000
0000
0000
0000
0100
1000
0100
0000
0100
0000
0000
0000
,
0001
0100
0001
0000
0001
0000
0000
0000
0010
0001
0010
0000
0100
0000
0000
0000
,
1000
0100
0000
0100
0001
0000
0001
0010
,
0000
0010
1000
0000
1000
0100
0000
0100
,
0001
0000
0101
0011
0000
1010
1100
0000
,
1000
0100
0101
0000
1100
0000
0202
0000
,
0000
0000
0000
0000
,
0000
0000
0000
0000
,
0000
0000
0303
0000
;

//---------------dance-double - ----------------
#NOTES:
     dance-double:
     :
     Easy:
     8:
     0.343749,0.411468,0.157500,0.017500,0.000000,275.000000,257.000000,18.000000,2.000000,0.000000,0.000000,0.343749,0.411468,0.157500,0.017500,0.000000,275.000000,257.000000,18.000000,2.000000,0.000000,0.000000:
00000000
00000000
00000000
00000000
,
00000000
00000000
00000000
00000000
,
00000000
00000000
00000000
00000000
,
00000000
00000000
00000000
00000000
,
00000000
00000000
00000000
00000000
,
10000000
01000000
00010000
00001000
,
00000100
00000001
00000010
00001001
,
00000001
00000010
00001000
00010000
,
00100000
01000000
00100000
01100000
,
10000000
01000000
00010000
00001000
,
00000100
00000001
00000010
00001001
,
00000001
00000010
00001000
00010000
,
00001000
00010000
00001000
00011000
,
00010000
00000000
00010000
00100000
,
10000000
00100000
01000000
00000000
,
10000000
01000000
00010000
00001000
,
00000100
00000001
00000110
00000000
,
00001000
00000000
00001000
00000010
,
00000001
00000010
00000100
00000000
,
00000001
00000100
00001000
00010000
,
01000000
10000000
01100000
00000000
,
00000000
10000000
10000000
10000000
,
00000000
01000000
01000000
01000000
,
00000000
00010000
00010000
00010000
,
00000000
00001000
00001000
00001000
,
00000100
00000001
00000001
00000001
,
00000000
00000010
00000010
00000010
,
00000000
00001000
00001000
00001000
,
00010000
00001000
00000100
00000001
,
00000000
00000001
00000001
00000001
,
00000000
00000100
00000100
00000100
,
00000000
00001000
00001000
00001000
,
00000000
00010000
00010000
00010000
,
01000000
10000000
10000000
10000000
,
00000000
00100000
00100000
00100000
,
00000000
00010000
00010000
00010000
,
00001000
00001000
00010000
01000000
,
00100000
00010000
00100000
10000000
,
00100000
00010000
00001000
00000000
,
00000000
00000010
00000010
00000010
,
00000001
00000100
00001000
00010000
,
01000000
00010000
01000000
10000000
,
01000000
00010000
00001000
00000000
,
00000000
00000010
00000010
00000010
,
00000001
00000100
00001000
00010000
,
01100000
00000000
10010000
00000000
,
00010000
00001000
00010000
00001000
,
00000110
00000000
00001001
00000000
,
00000001
00000010
00001000
00100000
,
10000000
10000000
01000000
01000000
,
00010000
00010000
00001000
00001000
,
00000100
00000100
00000001
00000001
,
00000010
00000010
00001000
00020000
,
00000000
00000000
00000000
00000000
,
00000000
00030000
00011000
00000000
,
00010000
01100000
10000000
01000000
,
00000000
10000000
01000000
00000000
,
00010000
00001000
00010000
00000100
,
00000010
00000100
00001000
00000100
,
00001000
00000110
00000001
00000100
,
00000000
00000001
00000100
00000000
,
00001000
00010000
00001000
01000000
,
00100000
01000000
00010000
01000000
,
00010000
01100000
10000000
01000000
,
00000000
10000000
01000000
00000000
,
00010000
00001000
00010000
00000100
,
00000010
00000100
00001000
00000000
,
00000001
00000000
00000100
00000000
,
00001000
00000000
00010000
00000000
,
01000000
00000000
10000000
00010000
,
01000000
00100000
10000000
01000000
,
10000000
01000000
00010000
00001000
,
00000100
00000010
00000010
00000000
,
00000001
00000010
00001000
00010000
,
00010000
01000000
01000000
00000000
,
00100000
00010000
10000000
01000000
,
00010000
00001000
00000100
00000001
,
00000011
00000000
00001100
00000000
,
00011000
00000000
00110000
00000000
,
10000000
00000000
00000000
01000000
00000000
00000000
00010000
00000000
,
00000000
00001000
00000000
00000000
00000100
00000000
00000000
00000001
,
00000000
00000000
00000010
00000000
00000000
00001000
00000000
00000000
,
00010000
00001000
00001000
00020000
,
00000000
00000000
00000000
00000000
,
00000000
00000000
00000000
00000000
,
00000000
00000000
00030000
00000000
,
00000000
00000000
00000000
00000000
;

//---------------dance-double - ----------------
#NOTES:
     dance-double:
     :
     Medium:
     12:
     0.522499,0.561092,0.183750,0.017500,0.000000,418.000000,397.000000,21.000000,2.000000,0.000000,0.000000,0.522499,0.561092,0.183750,0.017500,0.000000,418.000000,397.000000,21.000000,2.000000,0.000000,0.000000:
00000000
00000000
00000000
00000000
,
00000000
00000000
00000000
00000000
,
00000000
00000000
00000000
00000000
,
00000000
00000000
00000000
00000000
,
00000000
00000000
00000000
00000000
,
10000000
00000000
01000000
00000000
00010000
00001000
00000100
00000001
,
00000010
00000001
00000010
00001000
00010000
00100000
10000000
00000000
,
10000000
00000000
00100000
00000000
00010000
00001000
00000010
00000001
,
00000100
00000001
00000100
00001000
00010000
01000000
10000000
00000000
,
10000000
00000000
01000000
00000000
00010000
00001000
00000100
00000010
,
00000100
00000010
00000100
00000001
00000100
00000010
00010000
00001000
,
00010000
00000000
01000000
00000000
10000000
00010000
01000000
00010000
,
10000000
01000000
00100000
00001000
00000000
00010000
00001000
00010000
,
00000100
00000000
00001000
00000000
00000001
00000010
00000001
00000100
,
00000000
00001000
00000000
00010000
01000000
00000000
10000000
01000000
,
10000000
00000000
00010000
00000000
10000000
00010000
10000000
01000000
,
00000000
00100000
00000000
00001000
00000000
00000000
00011000
00000000
,
00000100
00000000
00001000
00000000
00000001
00000010
00000001
00000100
,
00000000
00001000
00000000
00010000
01000000
00000000
10000000
01000000
,
10000000
00000000
00010000
00000000
10000000
00010000
10000000
01000000
,
00000000
00100000
00000000
00001000
00010000
00000000
00011000
00000000
,
00000000
00000000
00100000
00000000
00001000
00010000
00001000
00010000
,
00000000
00000000
00000010
00000000
00010000
00001000
00010000
00001000
,
00000000
00000000
01000000
00000000
00001000
00010000
00001000
00010000
,
00000000
00000000
00000100
00000000
00010000
00001000
00010000
00000000
,
00000000
00001000
00000100
00000001
00000100
00000000
00000001
00000010
,
00000000
00001000
00000100
00000000
00010000
00000000
00001000
00000000
,
00000000
00100000
00010000
00100000
00010000
00000000
10000000
00000000
,
00010000
10000000
00010000
01000000
00000000
00000000
00001000
00000000
,
00000000
00000000
00000010
00000000
00010000
00001000
00010000
00001000
,
00000000
00000000
00100000
00000000
00001000
00010000
00001000
00010000
,
00000000
00000000
00000100
00000000
00010000
00001000
00010000
00001000
,
00000000
00000000
01000000
00000000
00001000
00010000
00001000
00000000
,
00000000
00010000
01000000
10000000
01000000
00000000
10000000
00100000
,
00000000
00010000
01000000
00000000
00001000
00000000
00010000
00000000
,
00000000
00000010
00001000
00000010
00001000
00000000
00000001
00000000
,
00001000
00000000
00000001
00000100
00000000
00000000
00001000
00000000
,
00010000
01000000
10000000
01000000
,
10000000
00000000
01000000
00010000
00001000
00000000
00000000
00000000
,
00000000
00000000
00000010
00010000
00001000
00010000
00001000
00010000
,
00001000
00000110
00000011
00000101
,
00001000
00000100
00000001
00000100
,
00000001
00000000
00000100
00001000
00010000
00000000
00000000
00000000
,
00000000
00000000
00100000
00001000
00010000
00001000
00010000
00001000
,
00010000
01000000
10000000
01000000
,
00110000
00000000
00000000
00011000
00000000
00000000
00101000
00000000
,
00010000
00001000
00000100
00000001
00000100
00000000
00000001
00000000
,
00001010
00000000
00000000
00011000
00000000
00000000
00010010
00000000
,
00001000
00010000
01000000
10000000
01000000
00000000
00010000
00000000
,
11000000
00000000
00000000
00110000
00000000
00000000
00011000
00000000
,
00000000
00000101
00000000
00000000
00000011
00000000
00000000
00001100
,
00000000
00000000
00011000
00000000
00000000
00110000
00000000
00000000
,
10000000
01000000
10000000
00100000
01000000
00100000
20000000
00000000
,
00000000
00000000
00000000
30000000
,
00000000
00000000
00000000
00000000
10000000
01000000
10000000
00000000
,
10000000
00000000
01010000
00000000
01000000
00000000
00010000
00001000
,
00000000
00010000
00001000
00010000
00001000
00000000
00000010
00000001
,
00000000
00000000
00000100
00000000
00000001
00001000
00000000
00000100
,
00010000
00000000
00001000
00010000
00100000
01000000
00100000
00000000
,
10000000
00000000
11000000
00000000
01000000
00000000
00010000
00001000
,
00000000
00000100
00000001
00000010
00000001
00000000
00000100
00000001
,
00001000
00000000
00000001
00000000
00000100
00001000
00000000
00010000
,
00001000
00000000
00100000
01000000
00100000
01000000
00100000
00000000
,
10000000
00000000
00010000
00000000
00100000
00001000
00010000
00001000
,
00000000
00010000
00001000
00010000
00001000
00000000
00000100
00000001
,
00000000
00000000
00000010
00000000
00000001
00001000
00000000
00000010
,
00010000
00000000
00001000
00010000
00100000
00000000
10000000
01000000
,
10000000
00000000
00100000
01000000
00100000
00000000
00010000
00001000
,
00000000
00000010
00000001
00000100
00000001
00000000
00000010
00000001
,
00001000
00000000
00000001
00000000
00000010
00001000
00000000
00010000
,
00001000
00000000
01000000
00100000
01000000
00100000
01000000
00000000
,
00010000
00000000
00001000
00000000
00000010
00000000
00000001
00000100
,
00000000
00000100
00000000
00000100
00000001
00000100
00000001
00000000
,
00000001
00000000
00000100
00000000
00001000
00000000
00010000
01000000
,
00000000
01000000
00000000
01000000
10000000
00010000
10000000
01000000
,
00010000
00000000
00001000
00000000
00000010
00000000
00000001
00000100
,
00000000
00000100
00000000
00000100
00000001
00000100
00000001
00000000
,
00000010
00000001
00000010
00000000
00001000
00010000
00100000
00000000
,
01000000
10000000
01000000
00000000
00100000
01000000
00100000
00000000
,
00010000
00001000
00000000
00001000
00000100
00000000
00000010
00000001
,
00000000
00000001
00000100
00000000
00000100
00001000
00000000
00001000
,
00010000
00000000
00010000
00100000
00000000
00100000
01000000
00000000
,
00010000
01000000
10000000
01000000
00100000
01000000
00020000
00000000
,
00000000
00000000
00000000
00000000
,
00000000
00000000
00000000
00000000
,
00000000
00000000
00030000
00000000
,
00000000
00000000
00000000
00000000
;

//---------------dance-double - ----------------
#NOTES:
     dance-double:
     :
     Hard:
     16:
     0.781248,1.009966,0.419999,0.043750,0.441874,625.000000,577.000000,48.000000,5.000000,0.000000,0.000000,0.781248,1.009966,0.419999,0.043750,0.441874,625.000000,577.000000,48.000000,5.000000,0.000000,0.000000:
00000000
00000000
00000000
00000000
,
00000000
00000000
00000000
00000000
,
00000000
00000000
00000000
00000000
,
00000000
00000000
00000000
00000000
,
00000000
00000000
00000000
00000000
,
00000101
00000000
00000000
00000000
00001100
00000000
00000000
00000110
00000000
00000000
00001000
00000000
00010000
00100000
01000000
00100000
,
10000000
00000000
01000000
00000000
00100000
01000000
10000000
01000000
00010000
00000000
00011000
00000000
00001100
00000000
00000110
00000000
,
00000101
00000000
00000000
00000000
00000110
00000000
00000000
00001100
00000000
00000000
00010000
00000000
01000000
00100000
01000000
00100000
,
01000000
00000000
10000000
00000000
01000000
00010000
00001000
00010000
00001000
00000000
00011000
00000000
00000110
00000000
00000101
00000000
,
00001100
00000000
00000000
00000000
00000011
00000000
00000000
00000100
00000001
00000100
00000001
00000000
00000100
00001000
00010000
00100000
,
10000000
00000000
01000000
00000000
00100000
01000000
10000000
01000000
00100000
00000000
00110000
00000000
00011000
00000000
00010100
00000000
,
00000110
00000000
00000000
00000000
00000011
00000000
00000000
00001100
00000000
00000000
00010000
00000000
00001000
00010000
00001000
00010000
,
00001000
00000000
00000000
00000000
00010000
00000000
00000000
00000000
00100000
00000000
01000000
00000000
10000000
00000000
01000000
00000000
00010000
00100000
00010000
00000000
00100000
00000000
00010000
00000000
01000000
00000000
00000000
00000000
10010000
00000000
00000000
00000000
,
01000000
00100000
00010000
00000000
10000000
00000000
00000000
00000000
01000000
00000000
00010000
00000000
00001000
00000000
00000010
00000001
,
00000000
00000000
00000100
00000001
00000000
00000000
00001000
00000000
00000100
00000010
00000100
00000000
00010000
00000000
00001000
00000000
,
01000000
00100000
01000000
00000000
00010000
00000000
00000000
00000000
10000000
00000000
01000000
00000000
00010000
00000000
00001000
00000000
,
00000000
00000000
00010000
00001000
00000000
00000000
00010000
00001000
00010000
00000000
00000000
00000000
00000010
00001000
00000000
00000000
,
00000010
00000100
00000001
00000000
00000001
00000000
00000000
00000000
00000100
00000000
00001000
00000000
00010000
00000000
00100000
10000000
,
00000000
00000000
01000000
10000000
00000000
00000000
00010000
00000000
01000000
00100000
01000000
00000000
00001000
00000000
00010000
00000000
,
00000100
00000010
00000100
00000000
00001000
00000000
00000000
00000000
00000001
00000000
00000100
00000000
00001000
00000000
00010000
00000000
,
00000000
00000000
00001000
00010000
00000000
00000000
00001000
00010000
00001000
00000000
00000000
00000000
00100000
00010000
00000000
00000000
,
10000000
01000000
10000000
00000000
00100000
00000000
00000000
00000000
01000000
00000000
00001000
00000000
00010000
00000000
00001000
00000000
,
00010000
00000100
00010000
00000000
00000010
00000000
00000000
00000000
00000100
00000000
00000010
00000000
00000100
00000000
00000001
00000000
,
00000100
00000010
00000100
00000000
00001000
00000000
00000000
00000000
00010000
00000000
01000000
00100000
01000000
00000000
10000000
00000000
,
01000000
00000000
10000000
01000000
00010000
00001000
00000010
00000000
,
00000001
00000000
00001000
00000100
00001000
00000100
00001000
00000100
00001000
00000000
00000000
00000000
00010000
00001000
00010000
00000000
,
00000000
00000000
00001000
00010000
00001000
00000000
00000000
00000000
00110000
00000000
00000000
00000000
11000000
00000000
00000000
00000000
,
10000000
00000000
00010000
01000000
00010000
01000000
00010000
01000000
00010000
00000000
00000000
00000000
00001000
00010000
00000000
00000000
,
00000010
00001000
00000010
00000000
00001000
00000000
00000100
00000000
00000000
00000000
00000000
00000000
00000001
00000010
00000001
00000000
,
00000001
00000100
00000001
00000000
00000010
00000000
00000000
00000000
00000100
00000000
00010000
00000000
00001000
00000000
00010000
00000000
,
00001000
01000000
00001000
00000000
00100000
00000000
00000000
00000000
01000000
00000000
00100000
00000000
01000000
00000000
10000000
00000000
,
01000000
00100000
01000000
00000000
00010000
00000000
00000000
00000000
00001000
00000000
00000100
00000010
00000100
00000000
00000001
00000000
,
00000100
00000000
00000001
00000100
00001000
00010000
00100000
00000000
,
10000000
00000000
00010000
01000000
00010000
01000000
00010000
01000000
00010000
00000000
00000000
00000000
00001000
00010000
00001000
00000000
,
00000000
00000000
00010000
00001000
00010000
00000000
00000000
00000000
00001010
00000000
00000000
00000000
00000101
00000000
00000000
00000000
,
00000001
00000000
00001000
00000100
00001000
00000100
00001000
00000100
00001000
00000000
00000000
00000000
00000100
00010000
00000000
00000000
,
00001000
00010000
00001000
00000000
00010000
00000000
00001000
00000000
00000000
00000000
00000000
00000000
00010000
00000000
00000000
00000000
,
00011000
00000000
00001000
00100000
00001000
00010000
00000100
00000010
,
00000001
00000010
00000001
00000100
00001000
00010000
00000000
00001000
,
00000000
00010000
00001000
00010000
00001000
00010000
00100000
01000000
,
11000000
01100000
00110000
00011000
,
00001000
00000000
00010000
00000010
00010000
00001000
01000000
00100000
,
10000000
00100000
10000000
01000000
00010000
00001000
00000000
00010000
,
00000000
00001000
00010000
00001000
00010000
00001000
00000100
00000000
,
00000101
00000110
00001010
00011000
,
00011000
00000000
00000000
01000000
00000000
00000000
00010000
00000000
,
01000000
00000000
00001000
00000000
01000000
00001000
01000000
00000000
00001000
00000000
00000000
00000000
00010000
00000000
00000000
00000000
,
00011000
00000000
00000000
00001010
00000000
00000000
00001000
00000100
,
00010000
00000000
00000000
00000000
00000100
00001000
00000010
00000000
00000100
00000000
00000000
00000000
00000010
00000000
00000100
00000000
,
00000001
00000010
00001000
00010000
00001000
00010000
00100000
10000000
,
10000000
01000000
00010000
00001000
00010000
00001000
00010000
00001000
,
00000100
00000001
00000001
00000010
00001000
00010000
00100000
10000000
,
10000000
01000000
00010000
00001000
00000100
00000010
00000220
00000000
,
00000000
00000000
00000000
00000000
,
00000000
00000000
00000000
00000000
00000000
00000000
00000330
00000000
00000001
00000010
00000001
00000010
00000001
00000000
00000000
00000000
,
00000001
00000010
00000001
00000000
00000100
00000000
00000000
00000000
00001000
00000000
00000000
00000000
00010000
00001000
00010000
00000000
,
00100000
00000000
01000000
00000000
00010000
00000000
10000000
00000000
01000000
10000000
00000000
00000000
01000000
00000000
10000000
00000000
,
01000000
00010000
00001000
00000000
00000100
00000001
00000000
00000010
,
00000100
00000000
00001000
00000000
00000010
00000100
00000001
00000010
00000001
00000000
00000100
00000000
00001000
00000000
00010000
00000000
,
00100000
01000000
00100000
00000000
10000000
00000000
00000000
00000000
01000000
00000000
00000000
00000000
00100000
01000000
00100000
00000000
,
00001000
00000000
00010000
00000000
00001000
00000000
00000010
00000000
00000100
00000010
00000000
00000000
00000001
00000000
00000010
00000000
,
00000001
00000100
00001000
00000000
00010000
01000000
00000000
00100000
,
01000000
00000000
10000000
00010000
00100000
00000000
00010000
00100000
00010000
00000000
01000000
00000000
01010000
00000000
00000000
00000000
,
10000000
01000000
10000000
00000000
00100000
00000000
00000000
00000000
00010000
00000000
00000000
00000000
00001000
00010000
00001000
00000000
,
00000100
00000000
00000010
00000000
00001000
00000000
00000001
00000000
00000010
00000001
00000000
00000000
00000010
00000000
00000001
00000000
,
00000010
00001000
00010000
00000000
00100000
10000000
00000000
01000000
,
00100000
00001000
01000000
00100000
01000000
00100000
00010000
00001000
,
00011000
00000000
00000000
00000000
00010000
00000000
00000000
00000000
00001000
00000000
00000000
00000000
00010000
00000010
00010000
00000010
,
00000100
00000000
00000001
00000000
00000010
00000000
00000001
00000000
00000100
00000000
00001000
00000000
00100000
00010000
10000000
00000000
,
01000000
10000000
01000000
00000000
00010000
01000000
00000000
00001000
,
00010000
00000000
00001000
00010000
00001000
00000000
00011000
00000000
,
00001000
00000000
00000100
00000000
00000001
00000000
00001000
00000010
,
00001000
00000100
00001000
00000000
00000100
00010000
00000100
00000000
00010000
00001000
00010000
00000000
00001000
00010000
00001000
00000000
,
00100000
01000000
00100000
00000000
01000000
10000000
01000000
00000000
10000000
00000000
00000000
00000000
01000000
00000000
00000000
00000000
,
00010000
00000000
00001000
00000010
00000002
00000000
00000003
00000000
,
00000001
00000000
00000000
00000000
00000001
00000100
00000001
00000100
00000001
00000000
00000100
00000000
00001000
00000000
00000000
00000000
,
00010000
00001000
00010000
00000000
01000000
00000000
00000000
00000000
10000000
00010000
10000000
00000000
01000000
00000000
00000000
00000000
,
10000000
01000000
00010000
00010000
00001000
00000100
00000001
00000001
,
00000100
00000010
00000100
00000000
00000010
00000000
00000000
00000000
00010000
00001000
00010000
00000000
01000000
00000000
00000000
00000000
,
10000000
01000000
00000000
01000000
00010000
00000000
00010000
00001000
,
00000000
00001000
00000100
00000000
00000100
00000001
00000000
00000001
,
00000010
00000000
00000011
00001010
00000000
00011000
00011000
00000000
,
00010000
01000000
11000000
00000000
10010000
00000000
02002000
00000000
,
00000000
00000000
00000000
00000000
,
00000000
00000000
00000000
00000000
,
00000000
00000000
03003000
00000000
,
00000000
00000000
00000000
00000000
;

//---------------dance-single - ----------------
#NOTES:
     dance-single:
     :
     Challenge:
     18:
     1.043747,1.309215,0.428749,0.594998,1.041247,835.000000,786.000000,49.000000,68.000000,1.000000,0.000000,1.043747,1.309215,0.428749,0.594998,1.041247,835.000000,786.000000,49.000000,68.000000,1.000000,0.000000:
0000
0000
0000
0000
,
0000
0000
0000
0000
,
0000
0000
0000
0000
,
0000
0000
0000
0000
,
0000
0000
0000
0000
,
0001
0000
1000
0010
0110
0000
0001
1000
0100
0010
0002
0000
1003
0001
0010
0100
,
2000
0000
0000
0000
3200
0000
0000
0000
0310
0000
0001
0000
0010
0000
0100
0000
0010
0000
0001
0010
0001
0000
1000
0001
1000
0000
0010
1000
0020
0000
0000
0000
,
0130
0010
1000
0010
0210
0000
0301
1002
0000
0003
1100
0000
0100
0001
0100
1000
,
0002
0000
0000
0000
0103
0000
0100
0000
0010
0000
1000
0000
0001
0000
0001
0000
0100
0010
0100
0010
0100
0010
0100
0010
0100
0000
0001
0000
1000
0000
0000
0000
,
1100
0000
0100
0000
0110
0000
0010
0000
0011
0001
0101
0000
0001
0100
1000
0100
,
0002
0000
0000
0000
2003
0000
0000
0000
3200
0000
0000
0000
0320
0000
0000
0000
0031
0000
1000
0001
1000
0000
0010
0000
0110
0000
0100
0000
0101
0000
0001
0000
,
1001
0000
1000
0000
0110
0000
0100
0000
1001
0000
0001
0000
0001
0010
0100
1000
,
0001
0000
0000
0000
0011
0000
0000
0000
0010
0000
0100
0000
1000
0000
0100
0000
0010
0001
0010
0001
1000
0100
1000
0100
0010
0000
0100
0000
1001
0000
0000
0000
,
0001
0100
0010
0000
0210
0000
0000
0000
0301
0000
0010
0000
0001
0000
0100
0010
,
0100
0000
0010
0100
0010
0000
1000
0000
0001
0100
0001
0000
1000
0010
1000
0000
,
0001
0100
0001
0100
0020
0000
0030
0000
1000
0000
0001
0000
1000
0100
0010
0000
,
0011
0000
0010
0100
1000
0000
1000
0010
0100
0000
0001
0000
0010
0100
0001
0000
,
0100
1000
0100
1000
0020
0000
0000
0000
0130
0001
1000
0000
0100
0010
0100
0000
,
1000
0000
0010
0000
0100
0000
0001
0000
0010
0000
0100
0000
1000
0100
0010
0001
,
0100
0000
0010
0000
1000
0100
1000
0000
0001
0000
0100
0000
0001
0000
0010
0000
,
0100
0000
1000
0001
0100
0000
0001
0000
0100
0010
0100
0010
0100
0010
0100
0010
,
1000
0000
0001
0000
0010
0000
0001
0000
0100
0001
1000
0000
0001
0000
1000
0000
,
0020
0000
0000
0000
0130
0000
0001
1000
0001
1000
0010
0000
0100
0000
0001
0000
,
0200
0000
0000
0000
0310
0000
0010
0000
0100
0001
1000
0000
0001
1000
0020
0000
,
0000
0000
0030
0000
1000
0010
1000
0000
0001
0010
0001
0000
0100
0010
0100
0000
,
0001
0000
1000
0100
1000
0100
1000
0100
1000
0000
0000
0000
0001
0010
0200
0000
,
0300
0000
1000
0100
0020
0000
0030
0000
0001
0100
1000
0000
1000
0100
0001
0000
,
0000
0000
0001
0010
0001
0010
0001
0010
0002
0000
0003
0000
1000
0100
0020
0000
,
0031
0010
0200
0000
1300
0100
0001
0000
0001
0100
0010
0000
0001
0100
0010
1000
,
0100
0000
0000
0000
1001
0000
0010
0100
0010
0000
0100
0000
0001
0000
1000
0001
,
2000
0000
3000
0000
1000
0000
0001
0000
0010
0100
0001
0000
0100
0000
0010
0001
,
2000
0000
3000
0000
0010
0000
0010
0000
1000
0001
1000
0000
0001
0100
0001
0000
,
0100
0000
0001
0000
1000
0100
0010
0000
0100
0010
0001
0000
0010
0100
1000
0000
,
0001
0000
1000
0010
0100
0010
0100
0010
2000
0000
3000
0000
0001
0010
2000
0000
,
3000
0000
1000
0100
0002
0000
0003
0000
1010
0000
0000
0000
1001
0000
0000
0000
,
1000
0000
0001
0100
0010
0100
0010
0100
0002
0000
0003
0000
0001
0010
0200
0000
,
1300
0010
0200
0000
0301
1000
0M10
0000
0010
0000
0001
1000
0001
0000
0100
0000
,
0010
0000
0000
0000
1000
0100
0010
0000
0001
0000
0100
0000
1000
0000
0100
0000
,
0001
0000
0100
0000
0010
0000
1000
0100
0010
0001
0100
0000
0010
0000
1000
0000
,
0000
0000
1000
0000
0010
0100
0001
0000
0010
0000
0100
0000
0010
0000
0001
0000
,
1100
0100
0110
0010
0011
0000
0101
0000
,
1001
0000
0000
0000
1000
0001
0100
0000
0001
0000
0100
0000
1000
0000
0100
0000
,
0001
0010
0100
1000
0010
1000
0100
0000
1000
0000
0010
0000
0000
0000
1010
0000
,
0000
0010
0100
0001
0010
0100
1000
0001
,
0010
0001
0010
0000
0100
0010
0100
0000
1000
0100
1000
0000
0001
1000
0001
0000
,
1001
0000
1000
0110
0000
0001
0110
1000
,
0100
0010
0001
0000
0010
0100
0010
0000
1000
0000
0010
0000
0001
0000
0000
0000
,
1100
0000
0001
0110
0000
1000
0110
0001
,
1000
0100
0001
0000
0001
0100
1000
0000
0001
0100
1000
0000
1000
0100
0001
0000
,
1000
0000
0010
0000
0100
0000
0010
0000
0001
0010
0100
0000
0010
0000
1000
0000
,
0100
0000
0010
0000
1000
0000
0010
0000
0001
0100
0010
0000
1000
0000
0010
0000
,
0100
0000
0001
0000
0010
0001
1000
0000
0010
0000
0100
0000
0001
0000
0010
0000
,
0001
0100
0010
1000
0001
0000
1000
0010
0100
0001
1000
0000
2002
0000
0000
0000
,
0000
0000
0000
0000
,
0000
0000
0000
0000
0000
0000
3003
0000
1000
0100
0010
0001
0200
0000
0300
0000
,
0010
0100
0010
0100
0002
0000
0003
0000
1000
0001
1000
0001
1000
0001
0200
0000
,
0310
0000
1000
0001
1000
0001
0020
0000
0031
0000
1000
0000
1001
0000
0000
0000
,
0010
0100
0010
1000
0002
0000
0003
0000
0010
0100
0010
0000
0001
0000
1000
0001
,
1000
0000
0001
0100
0010
0100
0001
0100
0020
0000
1030
0000
0001
0000
0100
0000
,
0010
1000
0010
1000
0002
0000
0003
0000
0100
0001
0010
0001
1000
0001
0020
0000
,
0030
0000
0100
1000
0100
0010
0100
1000
0200
0000
0000
0000
0310
0001
2000
0000
,
3010
0000
1000
0001
0200
0000
0300
0000
0010
0100
0002
0000
1003
0000
2001
0000
,
0000
3001
0010
0011
1010
0000
1001
0000
,
0001
1000
0001
1000
0200
0000
1000
0000
0301
0010
0001
0010
0100
1000
0100
1000
,
0020
0000
0130
0001
0100
0001
1000
0000
0002
0000
0000
0000
0013
0000
0001
0000
,
1000
0100
0010
0100
2000
0000
0000
0000
3001
0010
0200
0000
0010
0000
0301
1000
,
0020
0000
1000
0000
0031
0010
0100
0010
0001
0000
0100
0000
0010
0100
0010
0000
,
1001
0000
0000
0000
1100
0000
0000
0000
1000
0100
0010
0001
1000
0001
0010
0100
,
1000
0000
0001
0010
0100
1000
0001
1000
0100
0010
0001
0000
0100
0010
0001
0000
,
0010
1000
1001
0000
1000
0100
0010
0001
,
0011
0010
1000
0010
0001
0010
1000
0010
,
0021
0000
0000
0000
0032
0000
0000
0000
0103
0001
0010
0001
2000
0000
0000
0000
,
3010
0100
0001
0100
0020
0000
1000
0000
0031
0100
0001
0000
0001
0100
0001
0000
,
0010
0001
0010
0001
1000
0001
1000
0001
0200
0000
0000
0000
0302
0000
0000
0000
,
1003
0010
1000
0001
1000
0010
0100
0001
0020
0000
0001
0000
0130
0000
0010
0000
,
2001
0000
0000
0000
3100
1000
0100
1000
0100
0010
0100
0010
0001
0010
0001
0010
,
0001
1000
0001
1000
0100
1000
0100
1000
0001
1000
0001
0010
0001
0010
0002
0000
,
1003
0010
0100
0010
2000
0000
3000
0000
0001
0100
0010
0100
0002
0000
0003
0000
,
1000
0100
0010
0001
1000
0001
0010
0100
1000
0100
0010
0001
1000
0001
0010
0100
,
2000
0100
3000
0200
0001
0300
0002
0010
,
0003
0000
0020
0000
1000
0000
0030
0000
0001
0100
0010
0100
0001
0000
1000
0010
,
0100
0010
1000
0000
0001
0010
0100
1000
0001
0000
1000
0100
0010
0001
0100
0000
,
0101
0001
0100
0110
1001
1001
0220
0000
,
0000
0000
0000
0000
,
0000
0000
0000
0000
,
0000
0000
0330
0000
;
