#TITLE:CaptivAte~誓い~;
#SUBTITLE:;
#ARTIST:DJ YOSHITAKA feat.A/I;
#TITLETRANSLIT:CaptivAte~CHIKAI~;
#SUBTITLETRANSLIT:;
#ARTISTTRANSLIT:;
#GENRE:;
#CREDIT:;
#BANNER:CaptivAte~CHIKAI~.png;
#BACKGROUND:CaptivAte~CHIKAI~-bg.png;
#LYRICSPATH:;
#CDTITLE:;
#MUSIC:CaptivAte~CHIKAI~.ogg;
#OFFSET:0.000000;
#SAMPLESTART:85.510002;
#SAMPLELENGTH:15.000000;
#SELECTABLE:YES;
#DISPLAYBPM:160.000000;
#BPMS:0.000000=160.000000
;
#STOPS:
;
#BGCHANGES:;
#KEYSOUNDS:;
#ATTACKS:;

//---------------dance-single - ----------------
#NOTES:
     dance-single:
     :
     Beginner:
     4:
     0.145658,0.194853,0.039216,0.000000,0.000000,104.000000,100.000000,4.000000,0.000000,0.000000,0.000000,0.145658,0.194853,0.039216,0.000000,0.000000,104.000000,100.000000,4.000000,0.000000,0.000000,0.000000:
0000
0000
0000
0000
,
0000
0000
0000
0000
,
0100
0000
0000
0000
,
0010
0000
0001
0000
,
1000
0000
0000
0000
,
0010
0000
0000
0000
,
1000
0000
0001
0000
,
0010
0000
0000
0000
,
0100
0000
0000
0000
,
1000
0000
0001
0000
,
1001
0000
0000
0000
,
0100
0000
0000
0000
,
0010
0000
0000
0000
,
0001
0000
0000
0000
,
1000
0000
0000
0000
,
0010
0000
0000
0000
,
0100
0000
0010
0000
,
0110
0000
0000
0000
,
0001
0001
0000
0000
,
0001
0000
0001
0000
,
1000
0000
1000
0000
,
0001
0000
0001
0000
,
0010
0000
0010
0000
,
0010
0000
0010
0000
,
0100
0000
0100
0000
,
0010
0000
0010
0000
,
0100
0000
1000
0000
,
0100
0000
1000
0000
,
0001
0000
0100
0000
,
0001
0000
0100
0000
,
0010
0000
1000
0000
,
0010
0000
1000
0000
,
0001
0000
0010
0000
,
0001
0000
0010
0000
,
0100
0000
0000
0000
,
1000
0000
0000
0000
,
0001
0000
0100
0000
,
0001
0000
0100
0000
,
0010
0000
0000
0000
,
1000
0000
0000
0000
,
0100
0000
1000
0000
,
0100
0000
1000
0000
,
0001
0000
0000
0000
,
0100
0000
0000
0000
,
0010
0000
0000
0000
,
1000
0000
0100
0000
,
0001
0000
0000
0000
,
0100
0000
0000
0000
,
1000
0000
0010
0000
,
0001
0000
0010
0000
,
0100
0100
0000
0000
,
0000
0000
0000
0000
,
1000
0000
0000
0000
,
0000
0000
0000
0000
,
0010
0010
0000
0000
,
0000
0000
0000
0000
,
0100
0000
0000
0000
,
1001
0000
0000
0000
,
1000
0000
0100
0000
,
1000
0000
0010
0000
,
0100
0000
0001
0000
,
0100
0000
0010
0000
,
1000
0000
0001
0000
,
0010
0000
1000
0000
,
0100
0000
0001
0000
,
1001
0000
0010
0000
,
0100
0100
0000
0000
,
0000
0000
0000
0000
;

//---------------dance-single - ----------------
#NOTES:
     dance-single:
     :
     Easy:
     5:
     0.235294,0.259804,0.127451,0.147059,0.000000,168.000000,155.000000,13.000000,15.000000,0.000000,0.000000,0.235294,0.259804,0.127451,0.147059,0.000000,168.000000,155.000000,13.000000,15.000000,0.000000,0.000000:
0000
0000
0000
0000
,
0000
0000
0000
0000
,
0000
0100
0000
1000
,
0000
0001
0000
0010
,
0000
0001
0000
1000
,
0000
0100
0000
1000
,
0001
1000
0000
0010
,
0000
0100
0000
0001
,
0000
0100
0000
0010
,
0000
1000
1001
0110
,
0001
0000
0100
0000
,
1000
0000
0010
0000
,
0001
0000
0010
0000
,
1000
0000
0100
0000
,
0010
0000
1000
0000
,
0001
0000
0100
0000
,
0010
0000
0001
0000
,
2000
0000
3000
0000
,
1000
1001
0100
0000
,
0001
0010
1000
0000
,
0002
1000
0000
1003
,
0100
1000
0010
1000
,
0200
0000
0301
0000
,
0200
0000
1300
0000
,
0010
0100
0001
0000
,
0010
0100
1000
0000
,
0010
1001
0001
0000
,
1000
0100
0001
0000
,
2000
0001
0000
3001
,
0010
0001
0100
0001
,
0020
0000
1030
0000
,
0020
0000
0031
0000
,
0100
0010
1000
0000
,
0100
0010
0002
0000
,
1003
0000
0001
0000
,
1000
1000
0100
0000
,
0001
0000
1000
0000
,
0001
0001
0100
0010
,
1000
1000
0001
0000
,
0010
0010
0100
0000
,
1000
0000
0001
0000
,
0100
0001
0010
0100
,
1000
0000
0110
0000
,
0001
0000
0110
0000
,
1000
0000
1001
0000
,
0001
0010
0100
0000
,
1000
0000
0010
0000
,
0100
0001
1000
0000
,
0100
0000
0010
0000
,
0220
0000
0330
0000
,
0001
1001
0000
0000
,
0000
0000
0000
0000
,
1000
0000
0100
0000
,
0001
0000
0100
0000
,
1001
0000
0010
0000
,
1000
0000
0100
0000
,
0001
0000
0010
0000
,
0110
0000
0000
0000
,
0100
1000
0010
0000
,
0100
0001
0010
0000
,
0200
0300
2000
3000
,
0002
0003
0020
0030
,
0100
1000
0001
0000
,
0100
0010
1000
0000
,
0001
1000
0001
0000
,
0110
0000
0020
0000
,
0130
0110
0000
0000
,
0000
0000
0000
0000
;

//---------------dance-single - ----------------
#NOTES:
     dance-single:
     :
     Medium:
     8:
     0.389356,0.422181,0.254902,0.147059,0.004902,278.000000,252.000000,26.000000,15.000000,0.000000,0.000000,0.389356,0.422181,0.254902,0.147059,0.004902,278.000000,252.000000,26.000000,15.000000,0.000000,0.000000:
0000
0000
0000
0000
,
0000
0000
0000
0000
,
1000
0001
0010
0100
,
1000
0000
0000
0100
0010
0000
0000
0100
,
0001
1000
0010
0100
,
0001
0000
0000
0100
0010
0000
0000
0100
,
1000
0001
0010
0100
,
2000
0000
3000
0100
0002
0000
0003
0100
,
0010
0000
1000
0000
0001
0000
0010
0100
,
1000
0000
0010
0100
0001
0000
0101
0000
,
1000
0000
0101
0000
,
0011
0000
1100
1000
,
0010
0000
0110
0000
,
0101
0000
0011
0001
,
0100
0000
1100
0000
,
1010
0000
0011
0100
,
1000
0010
0001
0100
,
2000
3000
0110
0000
,
1001
1001
0100
0001
,
0010
0000
0001
0000
0100
0000
0010
1000
,
1000
0001
0100
0010
,
0001
0000
0010
0000
1000
0000
0100
0010
,
0002
0000
0000
1000
1003
0000
0000
0010
,
2000
0000
0000
0001
3001
0000
1000
0000
,
0100
0100
0010
0010
,
0001
0000
0001
0000
1000
0100
1000
0100
,
0010
0001
0010
1000
,
0100
0000
1000
0000
0010
0000
0100
0001
,
0001
1000
0010
0100
,
1000
0000
0100
0000
0001
0000
0010
0100
,
2000
0000
0000
0001
3001
0000
0000
0100
,
0002
0000
0000
1000
1003
0000
0001
0000
,
0110
0010
0110
0100
,
1000
0001
1000
0001
0200
0000
0300
0000
,
1000
0010
0100
0001
,
1000
0001
0100
0010
,
1000
0100
0010
0001
,
1000
0000
0001
0000
0010
0000
0100
1000
,
1000
0001
1000
0010
,
0001
0010
1000
0100
,
0010
1000
0010
0001
,
0100
0010
1000
0001
,
2001
0000
3000
1000
1000
0000
0100
0000
,
0002
0000
0003
0001
0001
0000
0010
0000
,
0200
0000
0300
1000
1000
0000
0000
0001
,
0001
0100
1000
0100
,
0002
0000
0003
1000
0100
0000
0010
0000
,
0001
1000
0001
0100
,
0020
0030
1000
0001
,
1001
0000
0110
0000
,
1100
0202
0000
0000
,
0000
0000
0303
0000
,
1000
0001
0000
0001
0000
1000
0000
1000
,
0000
0100
0000
0100
0000
0010
0000
0010
,
0110
1001
0001
0001
,
0100
0100
0010
0010
,
1000
1000
0001
0001
,
1001
0000
0000
0000
,
0100
1000
0100
0001
,
0100
1000
0100
0001
,
0010
0100
0010
0000
1000
0100
1000
0000
,
0100
0010
0100
0000
0010
0001
0010
0000
,
0001
0100
1000
0100
,
0001
0010
1000
0010
,
0001
0100
0001
0000
1000
0100
1000
0000
,
1001
0000
0000
0000
0000
0000
0000
0000
0100
0000
0000
0100
0000
0000
0100
0000
,
0110
1001
0000
0000
,
0000
0000
0000
0000
;

//---------------dance-single - ----------------
#NOTES:
     dance-single:
     :
     Hard:
     13:
     0.631653,0.722549,0.303922,0.196078,0.367647,451.000000,420.000000,31.000000,20.000000,0.000000,0.000000,0.631653,0.722549,0.303922,0.196078,0.367647,451.000000,420.000000,31.000000,20.000000,0.000000,0.000000:
// measure 0
0000
0000
0000
0000
,  // measure 1
0000
0000
0000
0000
,  // measure 2
2000
0010
3100
1100
,  // measure 3
0010
0000
0000
0001
0000
0000
0010
0000
0100
0000
0000
1000
0000
0000
0010
0000
,  // measure 4
0200
0000
0010
0000
0301
0000
0101
0100
,  // measure 5
0010
0000
0000
1000
0000
0000
0010
0000
0100
0000
0000
0001
0000
0000
1000
0000
,  // measure 6
0200
1000
0310
0011
,  // measure 7
0001
0000
0000
1000
0000
0000
0100
0000
0010
0000
0000
0100
0000
0000
1000
0000
,  // measure 8
0020
0000
0001
0000
0130
0000
0101
0001
,  // measure 9
1000
0010
0000
0000
0100
0000
0001
0000
1000
0100
0000
0000
0010
0000
0001
0000
,  // measure 10
1000
0100
0000
0100
0001
0100
0000
0100
,  // measure 11
0010
0100
0000
0100
1000
0100
0010
0001
,  // measure 12
0100
0001
0000
0001
1000
0001
0000
0001
,  // measure 13
0010
0000
0001
0000
0000
0000
0001
0000
1000
0000
0000
0100
0000
0000
0010
0000
,  // measure 14
0001
0010
0000
0010
1000
0010
0000
0010
,  // measure 15
0100
0010
0000
0010
0001
0010
0000
0010
,  // measure 16
0100
1000
0001
0100
0010
1000
0001
0010
,  // measure 17
0220
0000
0000
0000
0000
0000
0330
0000
0110
0000
0000
0110
0000
0000
0110
0000
,  // measure 18
1001
0000
1001
0000
0100
0010
0001
1000
,  // measure 19
0100
0010
0001
1000
0010
0001
0010
1000
,  // measure 20
0001
0000
0100
0000
0010
0000
0000
0000
1000
0000
0100
0000
0010
0000
0000
0001
,  // measure 21
1000
0100
0001
0100
1000
0010
1000
0001
,  // measure 22
0100
0010
0000
0000
0010
0000
1000
0000
0001
0000
0000
0100
0000
0000
0010
0000
,  // measure 23
1000
0000
0000
0001
0000
0000
0100
0000
0010
0000
0000
1000
0000
0000
0001
0000
,  // measure 24
0000
0010
0000
0000
0001
0000
1000
0000
0100
0000
0000
0010
0000
0000
0001
0000
,  // measure 25
1000
0100
0000
0100
1000
0000
0010
0000
0100
0001
0000
0001
0100
0000
0010
0000
,  // measure 26
1001
0000
0010
0000
1000
0010
0100
0001
,  // measure 27
0010
0100
1000
0001
0100
1000
0100
0001
,  // measure 28
1000
0000
0010
0000
0100
0000
0000
0000
0001
0000
0010
0000
0100
0000
0000
1000
,  // measure 29
0001
0010
1000
0010
0001
0100
0010
1000
,  // measure 30
0001
0100
0000
0000
0100
0000
0010
0000
1000
0000
0000
0100
0000
0000
1000
0000
,  // measure 31
0001
0000
0000
0010
0000
0000
0100
0000
1000
0000
0000
0010
0000
0000
0100
0000
,  // measure 32
0001
1000
0000
0000
0100
0000
0010
0000
0001
1000
0000
0000
0010
0000
0100
0000
,  // measure 33
0001
1000
0000
1000
0001
0000
0100
0000
2000
0000
0000
0000
0000
0000
3000
0000
,  // measure 34
0110
1000
0001
0100
0000
0010
0000
1000
,  // measure 35
0100
0010
0001
1000
0000
1000
0001
0000
,  // measure 36
0100
0000
0001
0000
0010
0000
0100
0000
0100
0000
1000
0000
0010
0000
0100
0001
,  // measure 37
0100
0010
1000
0100
0000
0010
1000
0010
,  // measure 38
0001
0100
0010
1000
0000
0001
0000
0010
,  // measure 39
0001
0000
1000
0000
0100
0000
0010
0000
0000
0000
0001
0000
0000
0000
1000
0100
,  // measure 40
1000
0001
0010
0100
0100
0000
1000
0000
,  // measure 41
0010
0000
0100
0000
0010
0000
1000
0000
0001
0000
0010
0100
0010
0000
0100
0000
,  // measure 42
2100
0000
0000
0000
0000
0000
3001
0100
0001
0000
0000
0100
0000
0000
0010
0000
,  // measure 43
1000
0000
0010
0000
0100
0000
0001
0010
0001
0000
0000
1000
0000
0000
0100
0000
,  // measure 44
0020
0000
0000
0000
0000
0000
0031
0010
0002
0000
0000
0000
0000
0000
1003
0100
,  // measure 45
1000
0000
0001
0000
0010
0000
0100
0000
1000
0000
0000
0001
0000
0000
0100
0000
,  // measure 46
0010
0000
1000
0000
0001
0000
0100
0010
0100
0000
0000
0001
0000
0000
1000
0000
,  // measure 47
0100
0001
0100
2000
0000
0000
3010
0000
,  // measure 48
1000
0000
0100
0000
0010
0000
0001
0000
1000
0000
0000
0010
0000
0000
0100
0000
,  // measure 49
2002
0000
0000
0000
0000
0000
3003
0000
0101
0000
0000
1100
0000
0000
1001
0000
,  // measure 50
0110
0220
0000
0000
,  // measure 51
0000
0000
0000
0030
,  // measure 52
1000
1000
0001
0301
,  // measure 53
1000
0000
0100
0000
0001
0000
0100
1000
,  // measure 54
1001
0000
0000
0000
0110
0000
0000
0000
0100
0000
0000
0100
0000
0000
0100
0000
,  // measure 55
0010
0000
0000
0010
0000
0000
0010
0000
0100
0000
0000
0100
0000
0000
0100
0000
,  // measure 56
0010
1000
0001
0100
0010
1000
0001
1000
,  // measure 57
1001
0000
0000
0000
0000
0000
0000
0000
0011
0000
0000
0110
0000
0000
1100
0000
,  // measure 58
1000
0000
0010
1000
0000
0010
1000
0000
0001
0000
0010
0001
0000
0001
0100
0000
,  // measure 59
0010
0000
1000
0010
0000
1000
0010
0000
0100
0000
0001
0010
0000
0010
0100
0000
,  // measure 60
1000
0000
0001
1000
0000
0001
1000
0000
0100
0000
1000
0001
0000
1000
0001
0000
,  // measure 61
0010
0000
0001
1000
0000
0001
1000
0000
0010
0000
1000
0001
0000
1000
0001
0000
,  // measure 62
0010
0000
0001
1000
0000
1000
0100
0000
1000
0000
0001
0100
0000
0100
0001
0000
,  // measure 63
0100
0000
0010
1000
0000
0010
1000
0000
0001
0000
0100
0010
0000
0010
1000
0000
,  // measure 64
0100
0000
1000
0001
0000
1000
0001
0000
0020
0000
0000
0000
0000
0000
0030
0000
,  // measure 65
2002
0000
0000
0000
0000
0000
3003
0000
1100
0000
0000
0101
0000
0000
1001
0000
,  // measure 66
0110
0220
0000
0000
,  // measure 67
0330
0000
0000
0000
;

//---------------dance-double - ----------------
#NOTES:
     dance-double:
     :
     Easy:
     5:
     0.228291,0.259804,0.117647,0.225490,0.000000,163.000000,151.000000,12.000000,23.000000,0.000000,0.000000,0.228291,0.259804,0.117647,0.225490,0.000000,163.000000,151.000000,12.000000,23.000000,0.000000,0.000000:
00000000
00000000
00000000
00000000
,
00000000
00000000
00000000
00000000
,
00011000
00000000
00010000
00000000
,
01000000
00000000
10000000
00000000
,
01000000
00000000
00010000
00000000
,
00100000
00000000
00001000
00010000
,
00001000
00000000
00000010
00000000
,
00000001
00000000
00000100
00000000
,
00001000
00000000
00010000
00000000
,
01000000
00000000
10000000
00010000
,
10020000
00030000
02000000
03000000
,
00200000
00300000
00010000
00000000
,
00002000
00003000
00000020
00000030
,
00000002
00000003
00001000
00000000
,
00000020
00000030
00000200
00000300
,
00002000
00003000
00010000
00000000
,
00200000
00300000
20000000
30000000
,
00020000
00030000
10000000
00000000
,
01000000
10010000
01000000
00000000
,
00010000
00000000
00001000
00000000
,
00000100
00000010
00000100
00000000
,
00000001
00001000
00000001
00000100
,
00002000
00000000
00013000
00000000
,
00020000
00000000
00031000
00000000
,
00001000
00100000
00010000
00000000
,
10000000
01000000
00100000
00000000
,
00100000
10010000
00100000
00000000
,
00010000
00000000
00001000
00000000
,
00000010
00000100
00001000
00000000
,
00000100
00010000
00001000
00000000
,
02000000
00000000
03100000
00000000
,
20000000
00000000
30010000
00000000
,
00100000
01000000
10000000
00000000
,
01000000
00010000
00002000
00000000
,
00013000
00000000
00000100
00000000
,
00001000
00000001
00000001
00000000
,
00000100
00000000
00001000
00000000
,
00010000
00100000
01000000
00100000
,
10000000
00000000
01000000
00000000
,
00010000
00000000
00001000
00000000
,
00000100
00000000
00000001
00000000
,
00000010
00000000
00001000
00000000
,
00011000
00000000
00100000
00000000
,
00011000
00000000
00000100
00000000
,
00011000
00000000
01000000
00000000
,
00100000
10000000
00010000
10000000
,
00010000
00000000
00100000
00000000
,
00001000
00010000
00001000
00000000
,
00000100
00000000
00000001
00000000
,
00002000
00000000
00003000
00000000
,
00000100
00000110
00000000
00000000
,
00000000
00000000
00000000
00000000
,
00001000
00000000
00010000
00000000
,
00100000
00000000
00010000
00000000
,
00001000
00011000
00010000
00000000
,
01000000
00000000
10000000
00000000
,
01000000
00000000
00010000
00000000
,
00011000
00000000
00000000
00000000
,
00001000
00000100
00000001
00000000
,
00000001
00000100
00001000
00000000
,
00020000
00030000
02000000
03000000
,
20000000
30000000
00200000
00300000
,
01000000
00010000
00100000
00000000
,
00001000
00010000
00000010
00000000
,
00001000
00000001
00000100
00000000
,
00000110
00000000
00002000
00000000
,
00013000
00011000
00000000
00000000
,
00000000
00000000
00000000
00000000
;

//---------------dance-double - ----------------
#NOTES:
     dance-double:
     :
     Medium:
     8:
     0.385154,0.454657,0.274510,0.176471,0.004902,275.000000,247.000000,28.000000,18.000000,0.000000,0.000000,0.385154,0.454657,0.274510,0.176471,0.004902,275.000000,247.000000,28.000000,18.000000,0.000000,0.000000:
00000000
00000000
00000000
00000000
,
00000000
00000000
00000000
00000000
,
00000010
00000100
00000001
00000100
,
00002000
00000000
00023000
00000000
,
01030000
00100000
00010000
10000000
,
00200000
00000000
02300000
00000000
,
03001000
00010000
00000100
00000010
,
00000002
00000000
00002003
00000000
,
00003100
00000010
00000100
00010000
,
00001000
00100000
00010000
01000000
00100000
00000000
01100000
00000000
,
10000000
00000000
00110000
00000000
,
01010000
00000000
00011000
00010000
,
00000100
00000000
00000110
00000000
,
00000011
00000000
00000101
00000100
,
00001000
00000000
00011000
00000000
,
01010000
00000000
11000000
01000000
,
10000000
00100000
00010000
00001000
,
00011000
00000000
00001100
00000000
,
00000110
00000110
00000001
00000010
,
00000001
00000000
00000100
00000000
00001000
00000000
00010000
00001000
,
00010000
01000000
10000000
00100000
,
01000000
00000000
00010000
00000000
00100000
00000000
00010000
01000000
,
00002000
00000000
00000000
00100000
00103000
00000000
00000000
00001000
,
00020000
00000000
00000000
00000010
00030010
00000000
00001000
00000000
,
00000100
00010000
00001000
01000000
,
00010000
00000000
00100000
00000000
00001000
00010000
00001000
00010000
,
00000010
00001000
00000001
00000100
,
00000001
00000000
00000010
00000000
00001000
00000000
00010000
00001000
,
00010000
00100000
10000000
01000000
,
00100000
00000000
00010000
00000000
01000000
00000000
00010000
00100000
,
00002000
00000000
00000000
01000000
01003000
00000000
00000000
00001000
,
00020000
00000000
00000000
00000100
00030100
00000000
00001000
00000000
,
00001001
00000001
00001001
00000100
,
00001000
00010000
00001000
00010000
02000000
00000000
03000000
00000000
,
10000000
00010000
00100000
01000000
,
10000000
00100000
00010000
00001000
,
00000100
00001000
00010000
01000000
,
00010000
00000000
00001000
00000000
00000010
00000000
00000001
00001000
,
00000001
00000010
00000100
00000001
,
00000100
00001000
00010000
00100000
,
01000000
00010000
10000000
00100000
,
00010000
00001000
00000010
00000001
,
00002001
00000000
00003000
00000100
00000100
00000000
00010000
00000000
,
00002000
00000000
00003000
01000000
01000000
00000000
00010000
00000000
,
20000000
00000000
30000000
00100000
00100000
00000000
00000000
01000000
,
01000000
10000000
01000000
00100000
,
00020000
00000000
00030000
00001000
00001000
00000000
00000010
00000000
,
00000100
00001000
00000010
00001000
,
00000200
00000300
00010000
00000100
,
00010100
00000000
00101000
00000000
,
00011000
00022000
00000000
00000000
,
00000000
00033000
00000000
00000000
,
00000000
00100000
00000000
00100000
00000000
01000000
00000000
01000000
,
00000000
00100000
00000000
00100000
00000000
01000000
00000000
01000000
,
01100000
10010000
00100000
00100000
,
00010000
00010000
00001000
00001000
,
00000100
00000100
00000010
00000010
,
00001001
00000000
00000110
00000000
,
00000001
00000100
00000010
00001000
,
00000100
00010000
00001000
01000000
,
00100000
10000000
00100000
00000000
01000000
00010000
01000000
00000000
,
00001000
00010000
00001000
00000000
00000100
00001000
00000100
00000010
,
00000001
00000010
00001000
00000010
,
00000001
00000100
00001000
00010000
,
01000000
10000000
01000000
00000000
00100000
00010000
00100000
00000000
,
10010000
00000000
00000000
00000000
00000000
00000000
00000000
00000000
01000000
00000000
00000000
01000000
00000000
00000000
01000000
00000000
,
01100000
10010000
00000000
00000000
,
00000000
00000000
00000000
00000000
;

//---------------dance-double - ----------------
#NOTES:
     dance-double:
     :
     Hard:
     13:
     0.628852,0.722549,0.294118,0.186275,0.338235,449.000000,419.000000,30.000000,19.000000,0.000000,0.000000,0.628852,0.722549,0.294118,0.186275,0.338235,449.000000,419.000000,30.000000,19.000000,0.000000,0.000000:
00000000
00000000
00000000
00000000
,
00000000
00000000
00000000
00000000
,
10000000
00000000
00000000
01000000
00000000
00000000
00010000
00000000
01000000
00000000
00000000
10000000
00000000
00000000
00100000
00000000
,
00010000
00000000
00000000
00001000
00000000
00000000
00100000
00000000
00001000
00000000
00000000
00010000
00000000
00000000
00000010
00000000
,
00010000
00000000
00000000
00001000
00000000
00000000
00000100
00000000
00000001
00000000
00000000
00000100
00000000
00000000
00001000
00000000
,
00010000
00000000
00000000
00100000
00000000
00000000
00010000
00000000
00001000
00000000
00000000
00000010
00000000
00000000
00001000
00000000
,
00010000
00000000
00000000
01000000
00000000
00000000
10000000
00000000
00100000
00000000
00000000
10000000
00000000
00000000
01000000
00000000
,
00010000
00000000
00000000
00001000
00000000
00000000
00000100
00000000
00000001
00000000
00000000
00000010
00000000
00000000
00000001
00000000
,
00000100
00000000
00000000
00001000
00000000
00000000
00010000
00000000
01000000
00000000
00000000
10000000
00000000
00000000
01000000
00000000
,
00010000
00001000
00000100
00000001
00000010
00001000
00010000
00100000
,
20000000
01000000
00000000
31000000
00200000
00010000
00000000
00310000
,
20000000
00100000
00000000
30100000
02000000
00001000
00000000
03001000
,
00020000
00000100
00000000
00030100
00002000
00000010
00000000
00003010
,
00000100
00000001
00000100
00000010
00010000
00001000
00100000
00010000
,
02000000
00100000
00000000
03100000
20000000
01000000
00000000
31000000
,
00200000
00001000
00000000
00301000
00020000
00000010
00000000
00030010
,
00000100
00000001
00000010
00000100
00010000
00001000
01000000
00100000
,
20000000
00000000
00000000
00000000
00000000
00000000
30000000
00000000
10100000
00000000
00000000
01010000
00000000
00000000
10010000
00000000
,
01000000
00000000
01100000
00100000
01000000
00010000
10000000
00100000
,
01000000
00000000
00000000
00001000
00000000
00000000
00010000
00000000
00000100
00000000
00000000
00000010
00000000
00000000
00001000
00000000
,
00000010
00000000
00000001
00000000
00000100
00000000
00000000
00000000
00000010
00000000
00001000
00000000
00000100
00000000
00000000
00010000
,
00001000
00000100
00001000
00010000
00000000
01000000
00000000
10000000
,
00100000
01000000
00100000
10000000
00010000
00000000
00100000
00001000
,
00010000
00000010
00000100
00000010
00001000
00000000
00000001
00000000
,
00000100
00001000
00010000
00000000
01000000
00010000
00001000
00000000
,
00100000
00010000
10000000
00010000
01000000
00100000
01000000
00100000
,
01100000
00000000
00000000
00000000
10100000
00000000
00000000
00000000
11000000
00000000
00000000
00000000
01010000
00000000
00000000
00100000
,
00010000
00000000
00000000
01000000
00000000
00000000
00100000
00000000
00010000
00000000
00000000
00001000
00000000
00000000
00000100
00000000
,
00000110
00000000
00000000
00000000
00000101
00000000
00000000
00000000
00000011
00000000
00000000
00000000
00001010
00000000
00000000
00000100
,
00001000
00000010
00010000
00001000
01000000
00010000
10000000
01000000
,
00100000
00010000
00010000
00000000
01000000
00100000
00100000
00000000
,
00010000
00001000
00000100
00001000
00010000
01000000
00010000
00001000
,
00000010
00000001
00000001
00000000
00001000
00000010
00000010
00000000
,
00000001
00000010
00001000
00010000
02000000
00000000
00000000
00000000
,
13000000
01000000
00010000
00100000
00000000
01000000
00000000
10000000
,
01000000
00010000
00001000
00000100
00000000
00000100
00000010
00000000
,
00000001
00000000
00001000
00000000
00000010
00000000
00000100
00000000
00000100
00000000
00000000
00000000
00001000
00000000
00010000
00001000
,
00010000
01000000
10000000
00010000
00000000
01000000
00100000
01000000
,
00010000
00100000
01000000
00010000
00000000
00001000
00000000
00010000
,
00001000
00000000
00000010
00000000
00000100
00000000
00001000
00000000
00000000
00000000
00000010
00000000
00000000
00000000
00000100
00000001
,
00000100
00001000
00010000
00100000
00100000
00000000
10000000
00000000
,
00010000
00000000
01000000
00000000
00010000
00000000
00100000
00000000
00001000
00000000
00010000
00001000
00010000
00000000
00001000
00000000
,
00011000
00000000
00000000
00000000
00000000
00000000
00000100
00001000
00000100
00000000
00000000
00000010
00000000
00000000
00000001
00000000
,
00001000
00000000
00000010
00000000
00010000
00000000
00001000
00010000
00001000
00000000
00000000
00100000
00000000
00000000
01000000
00000000
,
10000000
00000000
00000000
00000000
00000000
00000000
00100000
01000000
00100000
00000000
00000000
00000000
00000000
00000000
00010000
00001000
,
00010000
00000000
00000100
00000000
00000010
00000000
00000001
00000000
00001000
00000000
00000000
00000100
00000000
00000000
00000010
00000000
,
00000100
00000000
00010000
00000000
00001000
00000000
01000000
00100000
01000000
00000000
00000000
00010000
00000000
00000000
10000000
00000000
,
01000000
00100000
00010000
02000000
00000000
00000000
03001000
00000000
,
00100000
00000000
00001000
00000000
00010000
00000000
00000010
00000000
00000100
00000000
00000000
00001000
00000000
00000000
00010000
00000000
,
00011000
00000000
00000000
00000000
00000000
00000000
00000000
00000000
10100000
00000000
00000000
01010000
00000000
00000000
00101000
00000000
,
00010000
00022000
00000000
00000000
,
00000000
00000000
00000000
00000000
00033000
00000000
00000000
00010000
,
00010000
00001000
00000100
00000001
,
00000010
00000000
00000001
00000000
00000100
00000000
00000010
00010000
,
00010010
00000000
00000000
00000000
01001000
00000000
00000000
00000000
00010000
00000000
00000000
00100000
00000000
00000000
00010000
00000000
,
01000000
00000000
00000000
00100000
00000000
00000000
10000000
00000000
01000000
00000000
00000000
00100000
00000000
00000000
01000000
00000000
,
10000000
00100000
00010000
00001000
00000010
00000001
00000100
00000010
,
00001000
00000000
00000001
00001000
00000000
00000001
00001000
00000000
00001001
00000000
00000000
00010010
00000000
00000000
00101000
00000000
,
00001000
00000000
00100000
00001000
00000000
00100000
00001000
00000000
00010000
00000000
00001000
00010000
00000000
00001000
01000000
00000000
,
00010000
00000000
10000000
00010000
00000000
10000000
00010000
00000000
00100000
00000000
00010000
00100000
00000000
00100000
00001000
00000000
,
00010000
00000000
00000100
00001000
00000000
00001000
00000100
00000000
00010000
00000000
00001000
01000000
00000000
01000000
00001000
00000000
,
00010000
00000000
00001000
00100000
00000000
00100000
00001000
00000000
00010000
00000000
00000010
00001000
00000000
00001000
00000001
00000000
,
00000001
00000000
00000010
00000001
00000000
00000001
00000010
00000000
00000010
00000000
00000100
00010000
00000000
00010000
00001000
00000000
,
01000000
00000000
00010000
10000000
00000000
00010000
10000000
00000000
00100000
00000000
10000000
00010000
00000000
10000000
01000000
00000000
,
00100000
00000000
00001000
00010000
00000000
00010000
00001000
00000000
00022000
00000000
00000000
00000000
00000000
00000000
00033000
00000000
,
00011000
00000000
00000000
00000000
00000000
00000000
00000000
00000000
00010100
00000000
00000000
01001000
00000000
00000000
00010100
00000000
,
00011000
00022000
00000000
00000000
,
00033000
00000000
00000000
00000000
,
00000000
00000000
00000000
00000000
;

//---------------dance-single - ----------------
#NOTES:
     dance-single:
     :
     Challenge:
     15:
     0.879552,0.952451,0.303922,0.186275,0.901961,628.000000,597.000000,31.000000,19.000000,0.000000,0.000000,0.879552,0.952451,0.303922,0.186275,0.901961,628.000000,597.000000,31.000000,19.000000,0.000000,0.000000:
// measure 0
0000
0000
0000
0000
,  // measure 1
0000
0000
0000
0000
,  // measure 2
2001
0000
0000
0000
3010
0000
0100
0000
0001
0010
0000
0001
0100
0000
0000
0000
,  // measure 3
0010
1000
0000
0001
1000
0000
0100
0000
0010
0001
0000
0010
0001
0000
1000
0000
,  // measure 4
0010
0100
0000
0001
0100
0000
0010
0000
1000
0001
0000
0100
0001
0000
0010
0100
,  // measure 5
0010
0000
0100
1000
0000
0001
1000
0000
0010
0100
0000
0001
0100
0000
0010
0000
,  // measure 6
1000
0001
0000
0000
1000
0000
0010
0000
0100
0000
0000
0001
0000
0000
1000
0001
,  // measure 7
1000
0000
0000
0010
0000
0000
0100
0000
0001
1000
0000
0010
1000
0000
0100
0000
,  // measure 8
0010
0001
0010
0000
0001
0000
1000
0000
0100
0000
0000
1100
0000
0000
1001
0000
,  // measure 9
0000
0011
0000
0000
0100
0000
0010
0000
1000
0010
0000
1000
0100
0000
0010
0000
,  // measure 10
0001
0000
1000
0000
0000
0000
1000
0000
0001
0000
0010
0000
0001
0000
1000
0001
,  // measure 11
1000
0010
0000
0100
0001
0010
0100
1000
,  // measure 12
0010
0100
0000
0001
0100
0000
0010
0000
1000
0100
0000
0001
0100
0000
1000
0000
,  // measure 13
0010
0100
0000
0001
0100
0000
0010
0000
1000
0000
0000
0100
0000
0000
0010
0000
,  // measure 14
0001
1000
0000
0010
1000
0000
0001
0000
0100
0010
0000
1000
0010
0000
0100
0001
,  // measure 15
1000
0000
0000
0001
0000
0000
0010
0000
0001
0100
0000
0001
1000
0000
0010
0000
,  // measure 16
1000
0100
0000
0100
0010
0000
0001
0000
0100
0010
0000
0010
1000
0000
0001
0000
,  // measure 17
1000
0001
1000
0001
1000
0001
1000
0000
0110
0000
0000
0110
0000
0000
1001
0000
,  // measure 18
1001
0000
0000
0000
0110
0000
0100
0000
0001
0000
0010
0000
0100
0000
1000
0001
,  // measure 19
1000
0010
0001
0010
1000
0001
0010
0001
,  // measure 20
0100
0010
0000
1000
0010
0000
0100
0000
0001
0010
0000
0100
0010
0000
0001
1000
,  // measure 21
0001
0000
1000
0000
0100
0000
0010
0000
0001
0000
1000
0000
0001
0010
0001
0000
,  // measure 22
0100
0010
0100
0000
0010
0000
1000
0000
0100
0001
0000
0100
1000
0000
0100
0010
,  // measure 23
0100
0010
0001
0000
1000
0000
0001
0000
0100
0010
0000
1000
0010
0000
0100
0001
,  // measure 24
2000
0000
0000
0000
3010
0000
0100
0000
0001
1000
0000
0010
1000
0000
0100
0000
,  // measure 25
0010
0001
0000
0100
0001
0000
1000
0000
0010
0100
0000
0001
0100
0000
0010
0000
,  // measure 26
1000
0000
0100
0000
0010
0000
0001
0000
1000
0010
0000
0001
0010
0000
1000
0100
,  // measure 27
1000
0001
0010
0001
0100
0010
1000
0100
,  // measure 28
0010
0001
0000
1000
0001
0000
0100
0000
0010
1000
0000
0001
1000
0000
0010
0000
,  // measure 29
0100
0001
0010
0000
0100
0000
1000
0000
0001
0000
0010
0000
0001
0000
0100
0000
,  // measure 30
0010
1000
0100
0000
1000
0000
0001
0000
0010
0001
0000
0001
1000
0000
0010
1000
,  // measure 31
0100
0010
0000
0010
0001
0000
1000
0000
0001
0100
0000
0100
0010
0000
1000
0000
,  // measure 32
0001
0100
0001
0100
0001
0000
1000
0000
0010
0100
0010
0100
0010
0000
1000
0000
,  // measure 33
0001
0000
0000
1000
0000
0000
0001
0000
0000
1000
0000
0000
0001
0000
0000
1000
0000
0000
0001
0000
0000
0000
0000
0000
0100
0000
0000
0000
0010
0000
0000
0000
1000
0000
0000
0000
0100
0000
0000
0000
0010
0000
0000
0000
0001
0000
0000
0000
,  // measure 34
0100
0010
1000
0002
0000
1003
0100
0001
,  // measure 35
0100
0010
0001
2000
0000
3100
0020
0000
,  // measure 36
0130
0000
1000
0000
0001
0000
1000
0000
0020
0000
0000
0000
0130
0000
0001
1000
,  // measure 37
0001
0000
0010
0000
1000
0000
0010
0000
0001
0100
0001
0000
1000
0000
0010
1000
,  // measure 38
0010
0100
0001
2001
0000
3020
0000
0130
,  // measure 39
0001
0010
0001
0000
1000
0000
0020
0000
0000
0000
2030
0000
0000
0000
3001
0100
,  // measure 40
0001
1000
0010
0010
0102
0000
2003
0000
,  // measure 41
3100
0000
0001
0000
0100
0000
1000
0000
0001
0010
0001
0000
0010
0000
1000
0000
,  // measure 42
0020
0000
0000
0000
0000
0000
0031
1000
0001
0000
0000
0101
0000
0000
0110
0000
,  // measure 43
0010
0000
1000
0000
0100
0000
0010
0001
1000
0000
0000
1100
0000
0000
0100
0000
,  // measure 44
0001
0000
0200
0000
0000
0000
1300
0010
0002
0000
0000
0000
0013
0000
1000
0100
,  // measure 45
0010
0000
0001
0000
0100
0000
0001
0000
1000
0000
0000
1010
0000
0000
0010
0000
,  // measure 46
0100
0000
0001
0000
0010
0000
0001
1000
0100
0000
0000
1100
0000
0000
1000
0000
,  // measure 47
0010
0100
0010
0000
0001
0010
0001
0000
0010
1000
0010
0000
1000
0100
1000
0000
,  // measure 48
0100
0010
0100
0000
0010
0001
0010
0000
0001
1000
0001
1000
0010
0100
0010
0100
,  // measure 49
0001
0000
0000
0000
0000
0000
0000
0000
1001
0000
0000
1010
0000
0000
0110
0000
,  // measure 50
0101
2002
0000
3003
,  // measure 51
1000
0010
0000
0001
0010
0000
1000
0000
0100
0000
0001
0000
0100
0000
1000
0000
,  // measure 52
0100
0010
0000
0001
0010
0000
0100
1000
0000
0010
1000
0000
0001
0100
0001
1000
,  // measure 53
0100
0000
1000
0000
0010
0000
0100
0000
0001
0010
0001
0100
0001
1000
0001
0000
,  // measure 54
0110
0000
0000
0000
1001
0000
0000
0000
0001
1000
0000
1000
0100
0000
0010
0000
,  // measure 55
0001
0100
0000
0100
1000
0000
0100
0000
0001
0010
0001
0000
1000
0100
1000
0000
,  // measure 56
0010
0100
0010
0100
0010
0100
0010
0100
0001
1000
0001
1000
0001
1000
0001
1000
,  // measure 57
0010
0000
0000
0000
0000
0000
0000
0000
0110
0000
0000
1001
0000
0000
0101
0000
,  // measure 58
0100
0010
0100
0000
0001
1000
0001
0000
1000
0010
0000
0010
0001
0000
0010
0000
,  // measure 59
1000
0100
1000
0100
0010
0000
0001
0000
0010
0100
0010
0100
1000
0000
0001
0000
,  // measure 60
0100
0001
0100
0001
0100
0000
0010
0000
1000
0100
1000
0100
1000
0000
0010
0000
,  // measure 61
0100
0010
0100
0010
0100
0000
0001
0000
1000
0001
1000
0001
1000
0000
0100
0000
,  // measure 62
0001
0100
0001
0100
0001
0000
0100
0000
1000
0010
1000
0010
1000
0000
0001
0000
,  // measure 63
0010
0001
0010
0001
0100
0000
0010
0000
1000
0100
1000
0100
0010
0000
0001
0000
,  // measure 64
0100
0010
0100
0010
1000
0000
0001
0000
0100
0010
1000
0100
0010
0001
0100
0010
,  // measure 65
1000
0001
1000
0001
1000
0001
1000
0000
0110
0000
0000
0110
0000
0000
1001
0000
,  // measure 66
1001
0220
0000
0000
,  // measure 67
0330
0000
0000
0000
;
