#TITLE:CUTIE CHASER;
#SUBTITLE:;
#ARTIST:CLUB SPICE;
#TITLETRANSLIT:;
#SUBTITLETRANSLIT:;
#ARTISTTRANSLIT:;
#GENRE:;
#CREDIT:;
#BANNER:CUTIE CHASER.png;
#BACKGROUND:CUTIE CHASER-bg.png;
#LYRICSPATH:;
#CDTITLE:;
#MUSIC:CUTIE CHASER.ogg;
#OFFSET:0.000000;
#SAMPLESTART:36.153000;
#SAMPLELENGTH:15.000000;
#SELECTABLE:YES;
#DISPLAYBPM:126.000000;
#BPMS:0.000000=126.227005
,10.000000=126.128998
;
#STOPS:
;
#BGCHANGES:;
#KEYSOUNDS:;
#ATTACKS:;

//---------------dance-single - ----------------
#NOTES:
     dance-single:
     :
     Beginner:
     3:
     0.150146,0.178058,0.134173,0.000000,0.000000,94.000000,82.000000,12.000000,0.000000,0.000000,0.000000,0.150146,0.178058,0.134173,0.000000,0.000000,94.000000,82.000000,12.000000,0.000000,0.000000,0.000000:
0000
0000
0000
0000
,
0000
0000
0000
0000
,
0000
0000
0000
0000
,
0000
0000
0000
0000
,
0001
0000
0001
0001
,
0001
0000
1000
0000
,
1000
1000
1000
0000
,
0001
0000
0001
0001
,
0000
0010
0010
0000
,
0100
0100
0000
1000
,
1000
0000
0100
0100
,
0000
0010
0010
0000
,
0001
0001
0000
0010
,
0010
0000
0000
1001
,
0000
0000
0100
0000
,
0000
1001
0000
0000
,
0010
0000
0000
1001
,
0000
0000
0100
0000
,
0000
1001
0000
0000
,
1000
0000
0000
0100
,
0100
0000
0000
0001
,
0000
0100
0100
0000
,
1000
0000
0000
0100
,
0100
0000
0000
0001
,
0000
0100
0100
0000
,
1001
0000
0000
0000
,
1001
0000
0000
0010
,
0000
0000
0110
0000
,
0000
1000
0000
0000
,
0001
0000
0010
0010
,
0000
1000
1000
0000
,
0100
0100
0000
0001
,
0001
0000
1001
0000
,
0000
1000
0000
0000
,
0001
0000
0000
1001
,
0000
0000
1001
0000
,
0000
1000
0000
0000
,
0001
0000
0000
1001
,
0000
0000
1000
1000
,
0000
1000
0000
0000
,
0100
0100
0000
0100
,
0000
0000
0001
0001
,
0000
0001
0000
0100
,
0100
0000
0100
0000
,
0100
0000
0001
0000
,
1000
0000
1001
0000
;

//---------------dance-single - ----------------
#NOTES:
     dance-single:
     :
     Easy:
     5:
     0.257164,0.282112,0.145354,0.000000,0.000000,161.000000,148.000000,13.000000,0.000000,0.000000,0.000000,0.257164,0.282112,0.145354,0.000000,0.000000,161.000000,148.000000,13.000000,0.000000,0.000000,0.000000:
0000
0000
0000
0000
,
0000
0000
0000
0000
,
0000
0000
0000
0000
,
0000
0000
0000
0000
,
0010
0010
0010
0001
,
0100
0000
0010
0010
,
0010
1000
0100
0000
,
1001
0010
1000
0100
,
0001
0010
0100
0001
,
0001
0010
1000
1000
,
0010
0010
0000
0100
,
0100
0000
0001
0001
,
0000
1000
1000
0000
,
1001
0010
0100
0010
,
1000
0001
0110
0001
,
0100
0001
0100
1000
,
0010
0100
0000
0100
,
1000
0000
1000
0010
,
0000
0010
0001
0000
,
0010
1000
0100
0001
,
0010
1001
0010
0001
,
0100
0010
0010
1001
,
0010
1000
0100
0001
,
1000
0110
0001
1000
,
0100
0001
0010
1000
,
1001
0010
0010
0010
,
1000
0001
0000
1000
0000
0000
0001
0000
,
0000
0000
0100
0000
,
0000
0001
0000
0000
,
0100
0000
0010
0100
,
1000
0010
1000
0001
,
0100
0010
0001
1000
,
0100
0001
0110
0001
,
1000
0010
0001
0010
,
1001
0100
0010
0001
,
1000
0100
1000
0001
,
0000
0100
0010
0000
,
0001
1000
0000
1001
,
0110
0000
0010
1000
,
0100
0001
0010
1000
,
0010
0001
0100
0010
,
0010
1001
0010
1000
,
0100
0001
0010
0001
,
0100
1000
0010
1000
,
0001
0100
1001
0010
,
0010
0000
0010
0000
0001
1000
0000
0100
;

//---------------dance-single - ----------------
#NOTES:
     dance-single:
     :
     Medium:
     7:
     0.321056,0.359052,0.178897,0.000000,0.000000,201.000000,185.000000,16.000000,0.000000,0.000000,0.000000,0.321056,0.359052,0.178897,0.000000,0.000000,201.000000,185.000000,16.000000,0.000000,0.000000,0.000000:
0000
0000
0000
0000
,
0000
0000
0000
0000
,
0000
0000
0000
0000
,
0000
0000
0000
0000
,
0110
0000
0000
1000
0000
0100
0000
0000
,
0001
0001
0000
1000
0100
0000
0000
0001
,
0000
0011
0000
0000
1000
0100
0000
0010
,
0001
0010
1000
0100
,
0001
0000
0010
0000
0100
0000
0001
1000
,
0001
0000
0010
0000
1000
0001
1000
0000
,
0100
0100
0000
0010
,
0001
0000
0100
1000
,
0000
0010
0100
0000
,
1001
0000
0010
0001
0100
0000
0010
0000
,
0001
1000
0001
0000
0110
0000
0001
0010
,
0100
0000
0010
0000
1000
0001
1000
0000
,
0011
0010
0000
0101
,
0001
0000
1100
0100
,
0000
1010
1000
0000
,
0010
1000
0100
0001
,
0010
1001
0010
0001
,
0100
0000
0010
0100
0010
0000
1001
0000
,
0010
1000
0100
0001
,
0010
0100
0010
0000
0001
0000
1000
0000
,
0100
0000
0001
0000
0010
1000
0001
0000
,
1001
0000
0000
0010
0000
1001
0000
0000
,
0010
0001
0000
1000
0010
0000
0010
0000
,
0001
1000
0010
0000
1000
0000
1000
0001
,
0010
0000
0010
0000
0100
1000
0001
0000
,
0001
1000
0100
0000
0010
0000
1000
0001
,
1000
0010
0100
0010
,
0100
0000
0010
0001
1000
0000
0010
0000
,
1000
0000
0001
0000
0010
0001
0100
0000
,
0001
0000
0010
0100
0010
0000
1000
0000
,
0010
0001
0100
0000
0010
0000
1000
0100
,
1000
0110
0001
1000
,
0010
1000
0100
0000
0010
1000
0001
0000
,
0100
0000
0001
0000
0100
1000
0010
0000
,
0001
0010
0100
0000
0010
0000
1000
0000
,
0100
0001
0010
1000
,
0010
0000
0001
0000
0100
0000
0010
0100
,
0010
1001
0010
1000
,
0100
0001
0010
0001
,
0100
0000
1000
0000
0010
0000
1000
0010
,
0001
0000
0100
0000
0010
0000
0000
1001
,
0000
0010
0000
0000
0100
0010
0000
1001
;

//---------------dance-single - ----------------
#NOTES:
     dance-single:
     :
     Hard:
     10:
     0.456826,0.487284,0.335432,0.000000,0.173306,286.000000,256.000000,30.000000,0.000000,0.000000,0.000000,0.456826,0.487284,0.335432,0.000000,0.173306,286.000000,256.000000,30.000000,0.000000,0.000000,0.000000:
0000
0000
0000
0000
,
0000
0000
0000
0000
,
0000
0000
0000
0000
,
0000
0000
0000
0000
,
0110
0000
0000
1010
0000
0101
0000
0000
,
0011
1100
0000
1001
1001
0000
0000
0011
,
0000
1100
0000
0000
1001
0101
0000
0110
,
0001
0000
0000
0000
0000
0000
0000
0000
1000
0000
0001
0000
0100
0000
0000
1000
,
0001
0000
0000
0000
0010
0000
1000
0000
0100
0000
0000
0001
1000
0000
0000
0000
,
0001
0000
0100
0000
0010
0000
0000
0001
1000
0000
0000
0000
0001
0000
1000
0000
,
0100
0000
0000
0001
0100
0000
0001
0000
0100
0000
1000
0000
0010
0000
0000
1000
,
0001
0000
0000
0000
0100
0000
0001
0000
0100
0000
0000
0001
1000
0000
0001
0000
,
0100
0000
1000
0000
0010
0000
0000
1000
0100
0000
0001
0000
0100
0000
0000
0000
,
1001
0000
0010
0001
0100
0000
1010
0000
,
0001
1000
0001
0000
0010
0000
0001
0010
,
0100
0000
0011
0000
1000
0001
0100
0000
,
1000
0000
0010
0100
0000
0010
0100
0000
0001
0000
0000
0000
0001
0000
0010
0100
,
0000
0010
0100
0000
1000
0000
0001
0000
1000
0000
0010
0100
0000
0010
0100
0000
,
0001
0000
0000
0000
0001
0000
0010
0100
0000
0010
0100
0000
1000
0000
0001
0000
,
0010
0000
1000
0001
0100
0000
0001
0000
,
0010
0000
1001
0000
0010
0100
0001
1000
,
0010
0100
0001
0100
0010
0000
0100
0000
,
0000
0010
0000
0001
0000
0100
0000
1000
,
0010
0100
0010
0000
1000
0001
0100
0001
,
1000
0001
0010
0000
1000
0100
0001
0000
,
1001
0000
0000
0110
0000
1001
0000
0000
,
0101
0000
1100
0000
0000
0000
1001
0000
0010
0000
0000
1000
0100
0000
0000
0010
,
0001
0000
0100
0000
0010
0000
0000
1000
0100
0000
0000
0010
0001
0000
0100
0000
,
0010
0000
0000
1000
0100
0000
0000
0010
0001
0000
0100
0000
0010
0000
0000
1000
,
0100
0000
0000
0010
0100
0000
0000
0000
0001
0000
0000
0000
1000
0000
0100
0000
,
1000
0001
0100
0000
0001
0000
0010
1000
,
0100
0000
1000
0000
0001
0100
0010
0000
,
1000
0010
0001
1000
0010
0001
0100
0000
,
0001
0000
0010
1000
0010
0000
1001
0000
,
0010
0001
0100
0000
0010
0000
1000
0100
,
1000
0000
0000
0000
0001
0000
0000
0000
1000
0000
0010
0100
0000
0010
0100
0000
,
0001
0000
0000
0000
0001
0000
0010
0100
0000
0010
0100
0000
1000
0000
0001
0000
,
1000
0000
0010
0100
0000
0010
0100
0000
0001
0000
0000
0000
0001
0000
0010
0100
,
0000
0010
0100
0000
1000
0000
0000
0000
0010
0000
0000
0000
1000
0000
0001
0000
,
0100
0001
0010
1001
,
0010
0100
0001
1000
0010
0100
0001
0100
,
0010
0000
0100
0000
0000
0010
0000
0001
,
0000
0100
0000
1000
0010
0100
0010
0000
,
1000
0001
0100
0001
1000
0001
0010
0100
,
1000
0000
0001
0000
1001
0000
0000
1010
,
0000
0101
0000
0000
0101
1100
0000
1001
;

//---------------dance-double - ----------------
#NOTES:
     dance-double:
     :
     Easy:
     5:
     0.257164,0.282112,0.145354,0.000000,0.000000,161.000000,148.000000,13.000000,0.000000,0.000000,0.000000,0.257164,0.282112,0.145354,0.000000,0.000000,161.000000,148.000000,13.000000,0.000000,0.000000,0.000000:
00000000
00000000
00000000
00000000
,
00000000
00000000
00000000
00000000
,
00000000
00000000
00000000
00000000
,
00000000
00000000
00000000
00000000
,
00100000
00100000
00100000
01000000
,
00001000
00000000
00000010
00000010
,
00000010
00000001
00000100
00000000
,
00001010
00000100
00010000
00100000
,
10000000
00010000
00001000
00000001
,
00000001
00000010
00001000
00001000
,
00010000
00010000
00000000
01000000
,
01000000
00000000
00100000
00100000
,
00000000
10000000
10000000
00000000
,
01010000
00000100
00001000
00000010
,
00000001
00000100
00000110
00001000
,
00010000
00100000
01000000
10000000
,
00100000
01000000
00000000
01000000
,
10000000
00000000
10000000
00010000
,
00000000
01000000
00001000
00000000
,
00000010
00000001
00001000
00000010
,
00000001
00000110
00001000
00010000
,
00100000
01000000
00100000
10010000
,
00100000
10000000
01000000
00010000
,
00001000
00001010
00000001
00001000
,
00000100
00010000
00100000
10000000
,
10010000
00100000
00100000
00100000
,
10000000
00010000
00000000
10000000
00000000
00000000
00010000
00000000
,
00000000
00000000
00001000
00000000
,
00000000
00000001
00000000
00000000
,
00000100
00000000
00000010
00000100
,
00001000
00010000
00100000
10000000
,
01000000
00100000
00010000
00001000
,
00000010
00000001
00000110
00000001
,
00001000
00010000
00100000
01000000
,
10010000
01000000
00010000
00001000
,
00000001
00000100
00001000
00010000
,
00000000
01000000
00100000
00000000
,
00010000
10000000
00000000
10010000
,
01100000
00000000
01000000
00000100
,
00001000
00000001
00000010
00001000
,
00010000
00100000
10000000
01000000
,
00100000
10010000
01000000
10000000
,
00010000
00001000
00000001
00000100
,
00000010
00001000
00010000
10000000
,
01000000
01000000
10010000
00100000
,
00100000
00000000
00100000
00000000
00010000
10000000
00000000
01000000
,
00000000
00000000
00000000
00000000
;

//---------------dance-double - ----------------
#NOTES:
     dance-double:
     :
     Medium:
     7:
     0.321056,0.359052,0.167716,0.000000,0.000000,201.000000,186.000000,15.000000,0.000000,0.000000,0.000000,0.321056,0.359052,0.167716,0.000000,0.000000,201.000000,186.000000,15.000000,0.000000,0.000000,0.000000:
00000000
00000000
00000000
00000000
,
00000000
00000000
00000000
00000000
,
00000000
00000000
00000000
00000000
,
00000000
00000000
00000000
00000000
,
01100000
00000000
00000000
00010000
00000000
00001000
00000000
00000000
,
00000010
00000010
00000000
00001000
00000001
00000000
00000000
00000001
,
00000000
00000011
00000000
00000000
00001000
00000100
00000000
00001000
,
00010000
00100000
10000000
01000000
,
00010000
00000000
00001000
00000000
00000010
00000000
00001000
00000001
,
00001000
00000000
00000010
00000000
00001000
00000100
00001000
00000000
,
00000100
00010000
00000000
00100000
,
10000000
00000000
01000000
00010000
,
00000000
00001000
00000001
00000000
,
00000110
00000000
00000010
00000001
00000100
00000000
00000010
00000000
,
00001000
00000001
00001000
00000000
00001010
00000000
00000001
00001000
,
00000100
00000000
00010000
00000000
00100000
01000000
00100000
00000000
,
10010000
01000000
00000000
00011000
,
00000100
00000000
00000101
00000010
,
00000000
00001010
00000100
00000000
,
00000001
00001000
00010000
10000000
,
00100000
10010000
00100000
00010000
,
00001000
00000000
00000010
00000100
00000010
00000000
00001100
00000000
,
00000001
00001000
00010000
10000000
,
00100000
01000000
00100000
00000000
00010000
00000000
00001000
00000000
,
00000001
00000000
00000100
00000000
00000010
00001000
00000001
00000000
,
00000110
00000000
00000000
00001000
00000000
00000010
00000100
00000000
,
00000010
00000100
00000000
00000001
00000100
00000000
00000100
00000000
,
00001000
00010000
01000000
00000000
01000000
00000000
01000000
10000000
,
00100000
00000000
00100000
00000000
01000000
10000000
00010000
00000000
,
00010000
10000000
01000000
00000000
00100000
00000000
10000000
00010000
,
10000000
01000000
00000100
00001000
,
00000010
00000000
00001000
00000001
00000100
00000000
00000001
00000000
,
00001000
00000000
00010000
00000000
10000000
00010000
01000000
00000000
,
00010000
00000000
00100000
01000000
00100000
00000000
10000000
00000000
,
00100000
10000000
00010000
00000000
00001000
00000000
00000001
00001000
,
00000001
00000110
00000001
00000100
,
00001000
00000100
01000000
00000000
00100000
01000000
00010000
00000000
,
10000000
00000000
00010000
00000000
01000000
00100000
10000000
00000000
,
10000000
00010000
01000000
00000000
00010000
00000000
00000100
00000000
,
00001000
00000010
00000001
00000010
,
00001000
00000000
00000100
00000000
00010000
00000000
00100000
01000000
,
00100000
10010000
00100000
00010000
,
00001000
00000010
00000001
00000100
,
00001000
00000000
00010000
00000000
00100000
00000000
10000000
00100000
,
00010000
00000000
01000000
00000000
00100000
00000000
00000000
00011000
,
00000000
00000010
00000000
00000000
00000100
00000010
00000000
00001001
,
00000000
00000000
00000000
00000000
;

//---------------dance-double - ----------------
#NOTES:
     dance-double:
     :
     Hard:
     10:
     0.452034,0.487284,0.324251,0.000000,0.173306,283.000000,254.000000,29.000000,0.000000,0.000000,0.000000,0.452034,0.487284,0.324251,0.000000,0.173306,283.000000,254.000000,29.000000,0.000000,0.000000,0.000000:
00000000
00000000
00000000
00000000
,
00000000
00000000
00000000
00000000
,
00000000
00000000
00000000
00000000
,
00000000
00000000
00000000
00000000
,
01100000
00000000
00000000
00110000
00000000
00011000
00000000
00000000
,
00001010
00000011
00000000
00001001
00001001
00000000
00000000
00001010
,
00000000
00001100
00000000
00000000
00001001
00001010
00000000
00011000
,
00010000
00000000
00000000
00000000
00000000
00000000
00000000
00000000
00100000
00000000
00010000
00000000
00100000
00000000
00000000
10000000
,
00010000
00000000
00000000
00000000
00100000
00000000
10000000
00000000
01000000
00000000
00000000
00010000
10000000
00000000
00000000
00000000
,
00010000
00000000
01000000
00000000
00100000
00000000
00000000
00010000
10000000
00000000
00000000
00000000
00100000
00000000
10000000
00000000
,
00010000
00000000
00000000
01000000
00010000
00000000
10000000
00000000
00100000
00000000
01000000
00000000
00010000
00000000
00000000
00001000
,
00010000
00000000
00000000
00000000
00000010
00000000
00000100
00000000
00001000
00000000
00000000
00000001
00001000
00000000
00000001
00000000
,
00000100
00000000
00000010
00000000
00001000
00000000
00000000
00000010
00001000
00000000
00000001
00000000
00000100
00000000
00000000
00000000
,
00000110
00000000
00001000
00000010
00000100
00000000
00001100
00000000
,
00010000
00100000
10000000
00000000
00100000
00000000
10000000
00100000
,
01000000
00000000
00100000
00000000
00010000
10000000
00010000
00000000
,
10000000
00000000
00100000
01000000
00000000
00100000
01000000
00000000
00010000
00000000
00000000
00000000
00010000
00000000
00100000
01000000
,
00000000
00100000
01000000
00000000
10000000
00000000
00000000
00000000
10000000
00000000
00100000
01000000
00000000
00100000
01000000
00000000
,
00010000
00000000
00000000
00000000
00010000
00000000
00100000
01000000
00000000
00100000
01000000
00000000
10000000
00000000
00000000
00000000
,
10000000
00000000
00010000
00001000
00000010
00000000
00000001
00000000
,
00000010
00000000
00001010
00000000
00000010
00000100
00000001
00001000
,
00000010
00000100
00000001
00000100
00000010
00000000
00000100
00000000
,
00000000
00000010
00000000
00001000
00000000
00100000
00000000
01000000
,
00100000
01000000
00100000
00000000
10000000
00010000
01000000
00100000
,
10000000
01000000
00010000
00000000
00100000
10000000
00010000
00000000
,
00011000
00000000
00000000
00001010
00000000
00001001
00000000
00000000
,
00000101
00000000
00001100
00000000
00000000
00000000
00001001
00000000
00000010
00000000
00000000
00001000
00000100
00000000
00000000
00000010
,
00000001
00000000
00000100
00000000
00000010
00000000
00000000
00001000
00000100
00000000
00000000
00000010
00000001
00000000
00000100
00000000
,
00000010
00000000
00000000
00001000
00000100
00000000
00000000
00000010
00000001
00000000
00000100
00000000
00000010
00000000
00000000
00000001
,
00001000
00000000
00000000
00000010
00000100
00000000
00000000
00000000
00001000
00000000
00000000
00000000
00010000
00000000
00100000
00000000
,
10000000
00010000
01000000
00000000
00010000
00000000
00100000
10000000
,
01000000
00000000
10000000
00000000
00010000
01000000
00100000
00000000
,
10000000
00100000
00010000
10000000
00100000
00010000
10000000
00000000
,
00100000
00000000
00100000
01000000
00010000
00000000
00011000
00000000
,
00000010
00001000
00000001
00000000
00000010
00000000
00001000
00000001
,
00000100
00000000
00000000
00000000
00000001
00000000
00000000
00000000
00001000
00000000
00000010
00000100
00000000
00000010
00000100
00000000
,
00000001
00000000
00000000
00000000
00001000
00000000
00000010
00000100
00000000
00000010
00000100
00000000
00001000
00000000
00000001
00000000
,
00001000
00000000
00000010
00000100
00000000
00000010
00000100
00000000
00000001
00000000
00000000
00000000
00001000
00000000
00000010
00000100
,
00000000
00000010
00000100
00000000
00001000
00000000
00000000
00000000
00010000
00000000
00000000
00000000
00100000
00000000
10000000
00000000
,
01000000
00010000
10000000
01100000
,
00010000
01000000
00001000
00010000
00000010
00010000
00000010
00001000
,
00000001
00000000
00001000
00000000
00000000
00000010
00000000
00001000
,
00000000
00010000
00000000
01000000
00100000
01000000
00100000
00000000
,
01000000
00010000
10000000
00010000
10000000
00100000
10000000
00010000
,
01000000
00000000
00010000
00000000
10010000
00000000
00000000
00110000
,
00000000
00011000
00000000
00000000
00001010
00000011
00000000
00001001
,
00000000
00000000
00000000
00000000
;

//---------------dance-couple - ----------------
#NOTES:
     dance-couple:
     :
     Medium:
     7:
     0.228413,0.384698,0.178897,0.000000,0.044724,143.000000,127.000000,16.000000,0.000000,0.000000,0.000000,0.228413,0.384698,0.178897,0.000000,0.044724,143.000000,127.000000,16.000000,0.000000,0.000000,0.000000:
00000000
00000000
00000000
00000000
,
00000000
00000000
00000000
00000000
,
00000000
00000000
00000000
00000000
,
00000000
00000000
00000000
00000000
,
01100110
00000000
00000000
10001000
00000000
01000100
00000000
00000000
,
00010001
00010001
00000000
10001000
01000100
00000000
00000000
00010001
,
00000000
00110011
00000000
00000000
10001000
01000100
00000000
00100010
,
00000001
00000100
00000001
00100000
,
10000000
01000000
00000010
00001000
,
00001000
01000000
00010000
00010000
,
00000100
00000100
00000000
00100000
,
00100000
00000000
00001000
00001000
,
00000000
00010000
00010000
00000000
,
00001001
00000000
00000010
00000100
00000010
00000000
01100000
00000000
,
00010000
10000000
00010000
00000000
00001001
00000000
00000010
00000001
,
00000100
00000000
01100000
00000000
10000000
00010000
01000000
00000000
,
10000000
00000000
00100000
01000000
00000000
00100000
01000000
00000000
00010000
00000000
00000000
00000000
00000001
00000000
00000010
00000100
,
00000000
00000010
00000100
00000000
00001000
00000000
00000000
00000000
00010000
00000000
00100000
01000000
00000000
00100000
01000000
00000000
,
10000000
00000000
00000000
00000000
00001000
00000000
00000010
00000100
00000000
00000010
00000100
00000000
00000001
00000000
00000000
00000000
,
00100000
10000000
01000000
00010000
,
00100000
10010000
00000010
00001000
,
00000100
00000001
00000010
00001001
,
00100000
10000000
01000000
00010000
,
00100000
01000000
00100000
00000000
00000010
00000000
00001000
00000000
,
00000100
00000000
00000001
00000000
00000010
00000100
00000010
00000000
,
10011001
00000000
00000000
01100110
00000000
10011001
00000000
00000000
,
01010101
11001100
00000000
10011001
00000000
00000000
00010000
00000000
,
00000000
00000000
00000100
00000000
,
00000000
10000000
00000000
00000000
,
00000010
00000000
00100000
01000000
,
00010000
00001000
00000001
00000100
,
10000000
01000000
00100000
00000010
,
00001000
00000000
00000001
00000000
00100000
00010000
01000000
00000000
,
00010000
00000000
00000010
00000100
00000010
00000000
00001000
00000000
,
00100000
01000000
00100000
00000000
10000000
00000000
00000001
00000100
,
00000010
00000000
00000000
00000000
00001000
00000000
00000000
00000000
10000000
00000000
00100000
01000000
00000000
00100000
01000000
00000000
,
00010000
00000000
00000000
00000000
00001000
00000000
00000010
00000100
00000000
00000010
00000100
00000000
00000001
00000000
00000000
00000000
,
00010000
00000000
00100000
01000000
00000000
00100000
01000000
00000000
10000000
00000000
00000000
00000000
00000001
00000000
00000010
00000100
,
00000000
00000010
00000100
00000000
00001000
00000000
00000000
00000000
00100010
00000000
00000000
00000000
10001000
00000000
00010001
00000000
,
01000100
00010001
00100010
10011001
,
00100010
01000100
00010001
10001000
00100010
01000100
00010001
01000100
,
00100010
00000000
01000100
00000000
00000000
00100010
00000000
00010001
,
00000000
01000100
00000000
10001000
00100010
01000100
00100010
00000000
,
10001000
00010001
01000100
00010001
10001000
00010001
00100010
01000100
,
10001000
00000000
00010001
00000000
10011001
00000000
00000000
10100000
,
00000000
00000101
00000000
00000000
01010000
00001100
00000000
10011001
;

//---------------dance-solo - ----------------
#NOTES:
     dance-solo:
     :
     Easy:
     4:
     0.284318,0.307759,0.134173,0.000000,0.000000,178.000000,166.000000,12.000000,0.000000,0.000000,0.000000,0.284318,0.307759,0.134173,0.000000,0.000000,178.000000,166.000000,12.000000,0.000000,0.000000,0.000000:
000000
000000
000000
000000
,
000000
000000
000000
000000
,
000000
000000
000001
000000
,
000000
000000
000000
000000
,
000100
000000
001000
100000
,
000100
000100
000100
100000
,
001000
000001
000100
000100
,
000010
000001
010000
100000
,
000010
000001
100001
010000
,
100000
000010
000001
010000
,
100001
000010
000001
010000
,
100000
000010
100001
000100
,
000010
000100
010000
000100
,
000001
000001
001000
100000
,
100000
001000
000001
000001
,
001000
100000
100000
001000
,
000010
000010
001000
010000
,
010000
100001
000010
000010
,
001000
010000
010000
100001
,
000010
010000
000001
100000
,
001000
001000
000001
100000
,
000010
010000
000100
000100
,
000010
010000
000001
100000
,
001000
001000
000001
100000
,
000010
010000
000100
000100
,
001000
000000
000000
000100
000000
001000
000000
000000
,
000010
010000
000000
000100
000000
000000
100001
000000
,
000010
000010
100001
010000
,
010000
100001
000100
000100
,
100001
001000
001000
100001
,
000010
000010
100001
010000
,
010000
100001
000100
000100
,
001000
000000
000100
000010
,
000001
000100
010000
001000
,
000100
000010
000001
000100
,
010000
001000
000100
000010
,
000001
000100
010000
001000
,
000100
000010
000001
000100
,
010000
001000
000100
010000
,
000100
001000
100000
100000
,
000100
000010
000100
001000
,
000001
000001
000100
010000
,
000100
001000
100000
100000
,
000100
000010
000100
001000
,
000001
000000
000001
000000
000100
000000
000000
001000
,
000000
000100
000000
000000
010000
000010
000000
010000
;

//---------------dance-solo - ----------------
#NOTES:
     dance-solo:
     :
     Medium:
     6:
     0.375364,0.461638,0.313070,0.000000,0.000000,235.000000,207.000000,28.000000,0.000000,0.000000,0.000000,0.375364,0.461638,0.313070,0.000000,0.000000,235.000000,207.000000,28.000000,0.000000,0.000000,0.000000:
000000
000000
000000
000000
,
000000
000000
000000
000000
,
000000
000000
000000
000000
,
000000
000000
000000
000000
,
000100
000000
100001
000000
000010
010000
000010
000000
,
100000
100000
000000
000010
000100
000000
000000
001000
,
000000
100001
000000
000000
010000
000010
000000
000000
,
000101
000010
001000
000001
,
000100
001000
100100
010000
,
001000
100000
000100
001000
,
101000
000100
010000
100000
,
001000
000100
001001
000100
,
000010
000001
001000
000100
,
010000
000000
001000
000000
010000
000001
100000
000000
,
100000
001000
000010
001000
,
000010
100000
000001
000000
000001
000000
001000
000000
,
000100
000000
001000
000000
000100
100000
000001
000000
,
000001
001000
000100
001000
,
000010
010000
000001
000000
000001
000000
001000
000000
,
000100
010000
000100
010000
000100
010000
000100
000100
,
100100
000000
000101
000000
000100
000010
000100
000010
,
000100
000010
000100
000100
000101
000000
100100
000000
,
100000
001000
100000
001000
100000
001000
100000
100000
,
010100
000000
101000
000000
000001
001000
000001
001000
,
000001
001000
000001
000001
000110
000000
001001
000000
,
010010
000000
000000
001100
000000
100001
000000
000000
,
000010
000010
000000
001000
000000
000000
100001
000000
,
000000
001000
000100
000000
100001
000000
000000
001000
,
000100
000000
100001
000000
000000
000100
001000
000000
,
100001
000000
000000
000100
001000
000000
001010
000000
,
000000
100000
001000
000000
011000
000000
000000
000001
,
001000
000000
001010
000000
000000
100000
001000
000000
,
010010
000000
000100
000001
,
010000
001000
000010
000000
000010
000000
001000
000000
,
000100
000000
100000
000000
000010
001000
010000
000000
,
010000
001000
000100
000001
,
010000
001000
000010
000000
000001
000000
001000
000000
,
000100
000000
100000
000000
000010
001000
010000
000000
,
100000
000000
001000
000000
000100
000001
000100
000010
,
000100
000001
000100
000010
100000
000000
100000
000000
,
000100
100000
000100
010000
000100
100000
000100
010000
,
000001
000000
000001
000000
010000
000010
010000
000100
,
010000
000010
010000
000100
100000
000000
100000
000000
,
000010
010000
000010
000100
000010
010000
000010
000100
,
000001
000000
000001
000000
010010
000000
000000
001100
,
000000
100001
000000
000000
000010
000010
000000
010000
;

//---------------dance-solo - ----------------
#NOTES:
     dance-solo:
     :
     Hard:
     8:
     0.495161,0.512931,0.827398,0.000000,0.178897,310.000000,236.000000,74.000000,0.000000,0.000000,0.000000,0.495161,0.512931,0.827398,0.000000,0.178897,310.000000,236.000000,74.000000,0.000000,0.000000,0.000000:
000000
000000
000000
000000
,
000000
000000
000000
000000
,
000000
000000
000000
000000
010010
000000
000000
000101
,
000000
100100
000000
000000
000010
000010
000000
010000
,
010000
000000
000000
000000
000100
010000
000001
000000
,
001000
001000
000000
000001
100000
000000
000000
000101
,
000000
100100
000000
000000
100010
010001
000000
001001
,
101000
000100
010000
100000
,
000001
001000
110000
000100
,
000010
000001
100000
001000
,
000011
000100
010000
100000
,
000001
001000
110000
000100
,
000010
000001
100000
001000
,
000100
000000
000001
001000
000000
000001
001000
000000
000010
000000
010000
000000
001000
000000
100000
001000
,
000000
100000
001000
000000
100000
000000
000000
000000
000100
000000
100000
001000
000000
100000
001000
000000
,
010000
000000
000010
000000
001000
000000
000001
001000
000000
000001
001000
000000
000001
000000
000000
000000
,
100000
000000
000001
000100
000000
000001
000100
000000
000010
000000
010000
000000
000100
000000
100000
001000
,
000000
100000
001000
000000
100000
000000
000000
000000
000001
000000
100000
000100
000000
100000
000100
000000
,
010000
000000
000010
000000
000100
000000
000001
001000
000000
000001
001000
000000
000001
000000
000000
000000
,
000101
000000
100100
000000
101000
000000
001001
000001
,
010000
000010
100100
000101
,
001001
000000
101000
100000
000010
000000
010000
000000
,
000110
000000
101000
000000
001001
000000
010100
000100
,
000011
110000
010100
001001
,
101000
000000
000110
000100
110000
000000
000011
000000
,
001000
000000
000000
101000
000000
001001
000000
000000
,
000100
000100
000000
010010
000000
000000
000100
000000
,
000000
100010
010001
000000
000100
000000
000000
101000
,
001001
000000
000100
000000
000000
000101
100100
000000
,
000100
000000
000000
001010
011000
000000
001100
000000
,
000000
000010
000010
000000
001100
000000
000000
010000
,
010000
000000
001100
000000
000000
010000
000010
000000
,
000000
000000
000000
000000
000000
000000
000000
000000
000100
000000
000001
001000
000000
000001
001000
000000
,
000010
000000
010000
000000
000010
000000
100000
001000
000000
100000
001000
000000
100000
000000
000000
000000
,
000100
000000
100000
001000
000000
100000
001000
000000
010000
000000
000010
000000
010000
000000
000001
001000
,
000000
000001
001000
000000
000001
000000
000000
000000
100000
000000
000001
000100
000000
000001
000100
000000
,
000010
000000
010000
000000
000100
000000
100000
001000
000000
100000
001000
000000
100000
000000
000000
000000
,
000001
000000
100000
000100
000000
100000
000100
000000
010000
000000
000010
000000
000100
000000
000001
001000
,
000000
000001
001000
000000
000001
000000
000000
000000
000011
000000
000000
000000
010010
000000
000000
000000
,
110000
000000
100001
100000
000101
000000
101000
000000
,
110000
000000
010010
000000
000011
000000
100001
000001
,
100100
001001
000110
101000
,
001001
000000
010100
010000
000101
000000
100100
000000
,
010100
000000
001001
000000
101000
000000
000110
000010
,
100100
000000
000101
000000
001100
000000
000000
101000
,
000000
001001
000000
000000
000100
000100
000000
010010
;

//---------------dance-single - ----------------
#NOTES:
     dance-single:
     :
     Challenge:
     13:
     0.646904,0.720060,0.592596,0.178897,0.419290,405.000000,352.000000,53.000000,16.000000,0.000000,0.000000,0.646904,0.720060,0.592596,0.178897,0.419290,405.000000,352.000000,53.000000,16.000000,0.000000,0.000000:
// measure 0
0000
0000
0000
0000
,  // measure 1
0000
0000
0000
0000
,  // measure 2
0000
0000
0000
0000
,  // measure 3
0000
0000
0000
0000
,  // measure 4
1001
0000
1000
1010
0000
0101
0000
0001
,  // measure 5
0011
1010
0000
0011
0101
0100
0010
1010
,  // measure 6
0100
0011
0001
1000
1010
0110
0000
0101
,  // measure 7
0002
0000
0000
0000
0023
0000
0000
0000
0230
0000
1000
0000
1300
0000
0000
1000
,  // measure 8
0001
0000
0000
0001
0010
0000
1000
0000
0010
0000
0000
0010
0001
0000
0000
0001
,  // measure 9
0100
0000
0010
1000
0010
0000
0000
0010
0100
0000
0001
0010
0001
0000
1000
0000
,  // measure 10
1100
0000
0000
0100
0001
0000
0000
0001
0100
0000
1000
0000
0010
0000
0000
0010
,  // measure 11
0100
0000
0000
0100
0001
0000
0010
0001
0010
0000
0000
0001
1000
0000
0100
1000
,  // measure 12
0100
0000
0010
0001
0010
0000
0000
0010
0100
0000
0000
0100
1000
0000
0100
0000
,  // measure 13
0010
0000
0001
0010
0001
0000
0100
0000
0010
0000
1010
0000
1000
0000
1001
0000
,  // measure 14
0000
0001
0102
0000
0103
0010
1000
0100
,  // measure 15
0021
0001
0031
0000
1000
0010
0110
0100
,  // measure 16
0001
0000
0010
0001
0010
0000
0100
0000
1100
0000
1100
0000
1000
0000
0001
0010
,  // measure 17
0000
0001
0010
0000
0100
0000
1000
0000
0100
0000
0010
0001
0000
1000
0001
0000
,  // measure 18
0101
0000
0101
0000
0010
0000
1000
0100
0000
1000
0100
0000
0110
0000
0010
0000
,  // measure 19
0001
1001
1000
0010
0100
0010
0120
0000
,  // measure 20
1030
0001
2001
0000
3001
0100
1000
0100
,  // measure 21
0001
0100
1200
0000
0302
0000
0013
0100
,  // measure 22
1100
0000
1000
0000
0000
0000
0010
0000
0100
0001
0100
0000
0010
0000
1000
0000
,  // measure 23
0100
0010
0011
0000
1001
1000
1100
0100
,  // measure 24
0110
0011
1001
0000
1020
0000
0130
0001
,  // measure 25
1000
0001
1000
0000
0010
1000
0100
1000
0010
1000
0100
1000
0010
0100
0001
0100
,  // measure 26
0010
0100
0001
0100
0001
1000
0001
1000
0010
0000
0000
0010
0100
0000
0000
0100
,  // measure 27
0001
0000
1000
0001
1000
0000
0000
1000
0010
0000
0000
0010
0100
0000
0101
0000
,  // measure 28
1001
0000
0000
0001
0100
0000
0000
0100
1000
0000
0100
0001
0100
0000
0000
0010
,  // measure 29
0100
0000
0010
1000
0001
0000
0100
0001
0020
0000
0000
0000
0130
0000
0000
0100
,  // measure 30
1000
0000
0001
1000
0100
0000
0000
0000
0110
0000
0000
0010
0001
0000
1000
0001
,  // measure 31
0010
0000
0000
0010
1000
0000
0000
1000
0010
0000
0001
0100
0010
0000
0000
0010
,  // measure 32
1000
0000
0100
0000
1000
0000
0001
0100
0001
0000
0010
0001
0000
1000
0001
0000
,  // measure 33
1000
0000
0010
0000
0110
0000
0100
0001
0100
0000
0010
0000
1100
0000
0000
0000
,  // measure 34
1001
0000
0010
0001
0010
0000
0001
0000
0100
0000
1000
0000
0100
0000
0000
0000
,  // measure 35
0011
0000
0001
0000
0101
0000
0000
0000
0110
0000
0010
1000
0010
0000
1000
0000
,  // measure 36
0100
0000
0010
0000
0001
0000
0100
0001
0100
0000
0010
0000
1010
0000
0000
0000
,  // measure 37
1001
0000
0001
0100
0010
0000
1000
0000
0010
1000
0001
0000
1000
0000
0010
0000
,  // measure 38
0110
0000
1001
0000
0110
0100
0001
0010
,  // measure 39
1000
0001
0200
0000
1300
0010
0210
0000
,  // measure 40
0301
0010
0001
1000
0100
1000
0010
0100
,  // measure 41
0001
0010
0001
0001
1000
1010
0010
0100
,  // measure 42
0001
0011
0020
0000
0130
1000
0001
1000
,  // measure 43
0100
0100
0100
0100
0010
0010
0120
0000
,  // measure 44
0032
0000
0000
0000
1003
0000
0000
0000
0001
1000
0001
0000
1000
0010
0100
0001
,  // measure 45
0100
0001
0010
0100
0010
0100
1000
0001
1000
0001
0100
0000
0010
1000
0010
1000
,  // measure 46
0001
0000
0000
0000
;
