#TITLE:CAN'T STOP FALLIN' IN LOVE ~SPEED MIX~;
#SUBTITLE:;
#ARTIST:NAOKI;
#TITLETRANSLIT:;
#SUBTITLETRANSLIT:;
#ARTISTTRANSLIT:;
#GENRE:;
#CREDIT:;
#BANNER:CAN'T STOP FALLIN' IN LOVE ~SPEED MIX~.png;
#BACKGROUND:CAN'T STOP FALLIN' IN LOVE ~SPEED MIX~-bg.png;
#LYRICSPATH:;
#CDTITLE:;
#MUSIC:CAN'T STOP FALLIN' IN LOVE ~SPEED MIX~.ogg;
#OFFSET:0.000000;
#SAMPLESTART:35.292999;
#SAMPLELENGTH:15.000000;
#SELECTABLE:YES;
#DISPLAYBPM:170.000000;
#BPMS:0.000000=170.615997
,4.000000=170.005997
;
#STOPS:
;
#BGCHANGES:;
#KEYSOUNDS:;
#ATTACKS:;

//---------------dance-single - ----------------
#NOTES:
     dance-single:
     :
     Beginner:
     4:
     0.217695,0.279018,0.096583,0.000000,0.000000,142.000000,133.000000,9.000000,0.000000,0.000000,0.000000,0.217695,0.279018,0.096583,0.000000,0.000000,142.000000,133.000000,9.000000,0.000000,0.000000,0.000000:
0000
0000
0000
0000
,
0000
0000
0000
0000
,
0000
0000
0000
0000
,
1000
0000
0001
0000
,
1000
0000
0001
0000
,
0010
0010
0010
0000
,
0100
0100
0100
0000
,
1000
0000
0001
0000
,
1000
0000
0001
0000
,
1001
0000
0000
0000
,
0100
0000
0001
0000
,
0010
0000
1000
0000
,
0001
0000
0100
0000
,
0110
0000
0001
0000
,
0100
0000
1000
0000
,
0001
0000
1000
0000
,
0010
0010
0010
0000
,
1001
0000
1000
0000
,
0010
0000
0001
0000
,
0100
0000
1000
0000
,
0001
0000
0010
0000
,
0001
0000
0100
0000
,
0010
0000
0001
0000
,
0010
0000
0100
0000
,
0010
0010
0010
0000
,
1001
0000
0000
0000
,
1000
0000
1000
0000
,
0010
0000
0000
0000
,
0001
0000
0001
0000
,
0010
0000
0001
0000
,
1000
0000
0100
0000
,
0100
0000
0001
0000
,
1000
0000
0001
0000
,
0100
0100
0000
0000
,
0001
0001
0000
0000
,
1000
1000
0000
0000
,
0010
0010
0000
0000
,
1000
0000
0001
0000
,
0100
0000
1000
0000
,
0001
0000
0010
0000
,
1000
1000
1000
0000
,
0110
0000
0100
0000
,
0001
0000
0001
0000
,
0010
0000
0100
0000
,
1000
0000
1000
0000
,
0001
0001
0000
0000
,
1000
1000
0000
0000
,
0010
0010
0000
0000
,
0100
0100
0000
0000
,
1001
0000
1001
0000
,
0010
0000
0010
0000
,
0110
0000
0110
0000
,
1000
0000
1000
0000
,
0001
0000
0100
0000
,
0010
0000
0001
0000
,
0100
0100
0100
0000
,
0010
0010
0010
0000
,
0001
0000
1000
0000
,
0010
0000
0100
0100
,
0100
0000
0001
0000
,
1000
0000
0100
0100
,
0100
0000
0010
0000
,
1000
0000
0001
0001
,
0001
0000
1000
0000
,
0100
0000
0010
0010
,
0010
0000
0000
0000
,
0000
0000
0000
0000
;

//---------------dance-single - ----------------
#NOTES:
     dance-single:
     :
     Easy:
     6:
     0.387865,0.418527,0.160972,0.000000,0.000000,253.000000,238.000000,15.000000,0.000000,0.000000,0.000000,0.387865,0.418527,0.160972,0.000000,0.000000,253.000000,238.000000,15.000000,0.000000,0.000000,0.000000:
0000
0000
0000
0000
,
0000
0000
0000
0000
,
0000
0000
0000
0000
,
1000
0100
0001
0100
,
1000
0010
0001
0100
,
1000
0100
0001
0100
,
1000
0010
0001
0100
,
1000
0100
0001
0100
,
1000
0100
0010
0001
,
1001
0000
0000
0000
,
0100
0010
0001
0100
,
0010
0010
1000
1000
,
0001
0001
0100
0100
,
0010
1000
0001
0010
,
0100
0100
1000
1000
,
0001
0100
1000
0100
,
0010
0100
0010
0000
,
1001
0110
1001
0100
,
0010
1000
0001
0010
,
0100
0100
1000
1000
,
0001
0100
0010
1000
,
0001
0010
0001
1000
,
0001
0010
0001
1000
,
0010
0010
0100
0100
,
0001
1000
0010
0100
,
1001
0000
0000
0000
,
1000
0100
0100
1000
,
0001
0100
1000
0100
,
0010
0001
0100
0100
,
0010
1000
0001
1000
,
0010
0100
0001
1000
,
0100
0010
0001
1000
,
1000
0010
0001
0010
,
0100
0100
1000
1000
,
0001
0001
0100
0100
,
1010
0000
1100
0000
,
0011
0000
0101
0000
,
1000
0010
0001
0010
,
0100
0100
1000
1000
,
0001
0100
0010
0010
,
1000
1000
1000
1000
,
1001
0010
0100
1000
,
0001
0100
1000
0100
,
0010
0001
1000
0010
,
0100
0100
0100
0100
,
0001
0001
1000
1000
,
0100
0010
0100
0001
,
1000
0010
0010
0010
,
0001
0010
0010
0010
,
0100
1001
0100
0010
,
1000
0001
0010
0100
,
0010
1001
0100
0010
,
1000
1000
1000
1000
,
0001
0001
0100
0100
,
0010
1000
0001
0010
,
0100
0100
0100
0100
,
0010
0010
0010
0010
,
0001
0001
1000
0100
,
0010
1001
0100
1001
,
0010
0010
0100
1000
,
0001
0001
0100
0010
,
1000
0001
0100
0100
,
0010
1000
0100
0010
,
0001
0001
1000
1000
,
0100
0100
0010
0100
,
1001
0000
0000
0000
,
0000
0000
0000
0000
;

//---------------dance-single - ----------------
#NOTES:
     dance-single:
     :
     Medium:
     10:
     0.512044,0.523158,0.139509,0.000000,0.000000,334.000000,321.000000,13.000000,0.000000,0.000000,0.000000,0.512044,0.523158,0.139509,0.000000,0.000000,334.000000,321.000000,13.000000,0.000000,0.000000,0.000000:
0000
0000
0000
0000
,
0000
0000
0000
0000
,
0000
0000
0000
0000
,
1000
1000
0001
0001
,
1000
0010
0100
0001
,
1000
0100
0010
0000
0001
0100
0001
0100
,
0000
0100
0010
0000
1000
0100
1000
0000
,
0010
0000
1001
0000
0001
0100
0010
1000
,
0000
1000
0100
0000
0010
0001
0010
0001
,
1000
0010
0100
0000
0001
0010
0100
0000
,
1000
0010
1000
0001
0000
0001
0010
0000
,
0100
1000
0001
0010
,
1100
1010
0101
0011
,
1001
0000
0100
0000
0010
0001
0100
0000
,
0010
1000
0100
1000
0000
0001
0100
0000
,
0010
1000
0001
0010
,
1100
0000
1010
0000
0101
0000
0010
1000
,
0100
0000
0100
0000
0010
0001
0100
0000
,
0010
1000
0001
0010
0000
0010
0000
0010
,
0100
0000
0010
0000
0001
1000
0010
0000
,
0100
0001
0010
0100
,
1000
0000
0001
0100
0001
0000
1000
0000
,
0100
0010
0100
0000
1000
0001
0100
0000
,
0010
0010
1000
0001
,
0010
0100
0010
0100
0000
1001
0000
0100
,
0010
0000
0001
0000
1000
0010
1000
0000
,
0001
0100
0001
0000
1000
0100
1000
0000
,
0001
0010
0001
0100
0000
0010
1000
0000
,
0001
0010
0100
0010
0000
0001
1000
0000
,
0100
0000
0100
0000
0010
0001
0100
0000
,
0010
0000
0010
0000
1000
0001
0100
0000
,
0010
1000
0100
0000
0010
0000
0001
0000
,
1000
0100
0010
0000
0001
0000
1000
0000
,
0010
0010
0010
0010
,
0100
0000
0100
0000
0001
1000
0100
0000
,
0010
0010
0010
0010
,
0100
0000
0100
0000
1000
0001
0100
0000
,
0010
1000
0100
0000
0010
0000
0010
0000
,
0001
0100
0010
0000
1000
0000
1000
0000
,
0001
0000
0000
0001
0100
0000
0010
0000
,
1000
0100
0010
0001
1000
0000
1001
0000
,
0100
0000
0100
0000
0010
0001
0100
0000
,
0010
1000
0001
0100
0000
0010
0010
0000
,
1000
0000
0001
0000
0010
0100
1000
0000
,
0001
0100
0001
0010
0000
0100
0000
0100
,
1000
0000
0001
0100
0000
0010
0000
1000
,
0000
0001
0000
0010
0000
0100
0000
1000
,
0000
0001
1000
0000
0100
0000
0100
0000
,
0010
0000
0010
0000
0001
1000
0001
0100
,
0010
0000
0010
0000
1000
0100
0010
0000
,
0001
1000
0100
0000
0010
0000
0010
0000
,
0001
0000
0001
0000
1000
0010
0100
0000
,
0001
1000
0100
0000
0010
0000
0010
0000
,
0001
0000
1000
0100
0000
0100
0000
0100
,
0000
0100
0000
0010
0000
0001
1000
0000
,
0100
0000
0100
0010
0100
0000
0100
0010
,
0100
0000
0100
0010
0100
0000
0100
0010
,
0001
0000
0001
0000
1000
0010
1000
0100
,
0000
0100
0100
0000
0010
0000
1001
0000
,
0100
0000
0100
0000
0010
0001
0100
0001
,
0000
0010
0010
0000
0001
1000
0001
0100
,
0010
0000
0010
0000
1000
0100
0010
0001
,
0000
1000
1000
0000
0010
0000
0101
0000
,
1000
0000
1000
0000
0100
0010
0001
0010
,
0000
0100
0100
0000
1000
0001
1000
0001
,
0100
0000
0000
0000
;

//---------------dance-single - ----------------
#NOTES:
     dance-single:
     :
     Hard:
     12:
     0.719008,0.627790,0.279018,0.000000,0.107315,469.000000,443.000000,26.000000,0.000000,0.000000,0.000000,0.719008,0.627790,0.279018,0.000000,0.107315,469.000000,443.000000,26.000000,0.000000,0.000000,0.000000:
// measure 0
0000
0000
0000
0000
,  // measure 1
0000
0000
0000
0000
,  // measure 2
0000
0000
0000
0000
,  // measure 3
0000
1001
0000
0000
,  // measure 4
0000
0000
0000
0000
,  // measure 5
1000
0100
0001
0100
1000
0100
0001
0100
,  // measure 6
1000
0010
0001
0010
1000
0010
0001
0010
,  // measure 7
1000
0100
0001
0100
1000
0100
0001
0100
,  // measure 8
1000
0010
0100
0001
0010
0100
1000
0001
,  // measure 9
0110
0000
1001
0000
0100
0010
1000
0100
,  // measure 10
0010
0001
0100
0010
1000
0100
0010
0001
,  // measure 11
1000
0010
0100
0001
1000
0100
0010
0001
,  // measure 12
1000
0010
0000
0101
0000
0011
0000
1100
,  // measure 13
0000
0001
0100
0010
1000
0100
0001
0100
,  // measure 14
1000
0010
0001
0010
1000
0100
0010
0001
,  // measure 15
0100
0010
1000
0001
0010
0100
1000
0100
,  // measure 16
0010
0001
0000
1100
0000
1010
0000
0101
,  // measure 17
1000
1000
0100
0100
0010
0010
0001
1000
,  // measure 18
0100
0010
0001
0001
1000
0010
0100
0001
,  // measure 19
1000
0100
0010
0001
0100
0010
1000
0001
,  // measure 20
0010
0100
0010
0100
0010
0100
0010
0100
,  // measure 21
1000
1000
0100
0100
0010
0010
0001
0100
,  // measure 22
0010
1000
0100
0010
0001
1000
0001
0000
,  // measure 23
1000
0100
0010
0001
0100
0010
1000
0001
,  // measure 24
0010
0100
0000
1001
0000
0110
0000
1100
,  // measure 25
0101
0000
0010
0000
1000
0100
0010
0000
,  // measure 26
0001
0100
0000
0000
1100
0000
0000
0000
0001
0100
0000
0000
1100
0000
0000
0000
,  // measure 27
0010
0001
0100
0010
1000
0100
0010
0000
,  // measure 28
0001
0100
0000
0000
1100
0000
0000
0000
0001
0100
0000
0000
1100
0000
0000
0000
,  // measure 29
0010
0001
0100
0010
1000
0100
0010
0001
,  // measure 30
1000
0010
0100
0001
0010
0100
1000
0001
,  // measure 31
0100
0010
0010
0010
0010
0010
0010
0010
,  // measure 32
1000
0100
0100
0100
0100
0100
0100
0000
,  // measure 33
0010
0001
0000
0000
1000
0100
0000
0000
0010
0000
0001
0000
0100
0000
0000
0000
,  // measure 34
0010
1000
0000
0000
0100
0010
0000
0000
0001
0000
1000
0000
0100
0000
0000
0000
,  // measure 35
0010
0001
0000
0000
0100
0010
0000
0000
1000
0000
0001
0000
0100
0000
0000
0000
,  // measure 36
0010
1000
0000
0000
0001
0010
0000
0000
0100
0000
1000
0000
0001
0000
0100
0000
,  // measure 37
0010
1000
0010
0100
0001
0010
0100
1000
,  // measure 38
0001
0100
0010
1000
0010
0100
0001
0010
,  // measure 39
0100
1000
0001
0010
0100
1000
0001
0100
,  // measure 40
0010
1000
0010
1000
0010
1000
0010
1000
,  // measure 41
0100
0010
0001
0100
0010
1000
0001
0000
,  // measure 42
1000
0100
0000
0000
0101
0000
0000
0000
1000
0100
0000
0000
0101
0000
0000
0000
,  // measure 43
0010
1000
0100
0010
0001
1000
0100
0000
,  // measure 44
0101
0000
0000
0000
1000
0100
0000
0000
0101
0000
0000
0000
1000
0100
0000
0000
,  // measure 45
0010
0001
0100
0010
1000
0100
0010
0001
,  // measure 46
1000
0010
0100
0001
1000
0100
0010
0001
,  // measure 47
0100
0010
0010
0010
0010
0010
0010
0010
,  // measure 48
1000
0100
0100
0100
0100
0100
0100
0000
,  // measure 49
0010
0001
1000
0010
0100
0001
1000
0000
,  // measure 50
0001
0100
0000
0000
1100
0000
0000
0000
0001
0100
0000
0000
1100
0000
0000
0000
,  // measure 51
0010
0001
0100
0010
1000
0001
0010
0000
,  // measure 52
1100
0000
0000
0000
0001
0100
0000
0000
1100
0000
0000
0000
0001
0100
0000
0000
,  // measure 53
0010
1000
0100
0010
0001
1000
0010
0100
,  // measure 54
0001
0010
0100
1000
0001
0100
1000
0100
,  // measure 55
0001
0010
0010
0010
0010
0010
0010
0010
,  // measure 56
0100
1000
1000
1000
1000
1000
1000
0000
,  // measure 57
0001
0100
1000
0100
0001
0100
1000
0100
,  // measure 58
0001
0010
1000
0010
0001
0010
1000
0010
,  // measure 59
0001
0100
0010
1000
0100
0010
0001
0100
,  // measure 60
0010
1000
0100
1000
0010
1000
0100
1000
,  // measure 61
0010
0001
0010
1000
0010
0001
0010
1000
,  // measure 62
0100
0001
0100
1000
0100
0001
0100
1000
,  // measure 63
0010
0100
0001
0010
0100
1000
0010
0100
,  // measure 64
0001
1000
0100
0010
0001
0100
0010
1000
,  // measure 65
1100
0000
0000
0000
;

//---------------dance-double - ----------------
#NOTES:
     dance-double:
     :
     Easy:
     5:
     0.378667,0.383650,0.064389,0.000000,0.000000,247.000000,241.000000,6.000000,0.000000,0.000000,0.000000,0.378667,0.383650,0.064389,0.000000,0.000000,247.000000,241.000000,6.000000,0.000000,0.000000,0.000000:
00000000
00000000
00000000
00000000
,
00000000
00000000
00000000
00000000
,
00000000
00000000
00000000
00000000
,
10000000
10000000
00010000
00010000
,
10000000
00010000
01000000
00100000
,
10000000
01000000
00010000
00001000
,
00000010
00000001
00000100
00000010
,
00001001
00000100
00010000
00001000
,
00100000
00100000
00001000
00010000
,
00000100
00000100
00000010
00000010
,
00000001
00001000
00000010
00000100
,
00000001
00000100
00001000
00010000
,
00100000
10000000
00010000
01100000
,
00010000
10000000
01000000
01000000
,
00010000
00001000
00000100
00000100
,
00000010
00001000
00000001
00000010
,
00000100
00000100
00000100
00001000
,
00001001
00001000
00000010
00000100
,
00001000
00010000
01000000
01000000
,
10000000
00010000
01000000
00100000
,
00010000
00001000
00000010
00000001
,
00001000
00001000
00000100
00000100
,
00010000
00001000
00100000
00010000
,
10000000
00100000
01000000
00010000
,
00100000
01000000
01000000
00100000
,
10010000
00010000
10000000
01000000
,
00100000
00100000
00001000
00010000
,
00011000
00000010
00000100
00000001
,
00000010
00000010
00000100
00001000
,
00000001
00000100
00001000
00000100
,
00000001
00000100
00001000
00010000
,
01000000
10000000
10000000
10000000
,
00010000
01000000
01000000
01000000
,
00001000
00000000
00010000
00000000
,
00000100
00000000
00000010
00000000
,
00000001
00000000
00001000
00000000
,
00000010
00000000
00010000
00000000
,
00000100
00000010
00000001
00000100
,
00001000
00010000
00000100
00000010
,
00000001
00000001
00001000
00001000
,
00000100
00010000
00001000
00100000
,
00010000
00010000
10000000
10000000
,
00100000
01000000
00010000
10000000
,
01000000
01000000
00010000
00010000
,
00001000
00010000
00001000
00000100
,
00000001
00000010
00000100
00001000
,
00001000
00000001
00000100
00000010
,
00001000
00000100
00000100
00000100
,
00010000
00001000
00001000
00001000
,
00100000
00100000
00010000
00010000
,
10000000
00100000
01000000
00010000
,
00100000
00100000
00001000
00001000
,
00000010
00000001
00000100
00000010
,
00001000
00000100
00000010
00000001
,
00000001
00001000
00000100
00000010
,
00000001
00000100
00000100
00000100
,
00001000
00010000
00010000
00010000
,
00100000
00100000
10000000
10000000
,
01000000
00100000
01000000
00010000
,
00001000
00001000
00010000
00010000
,
00000100
00000010
00000001
00000100
,
00000010
00000010
00001000
00001000
,
00000100
00000100
00010000
00001000
,
00100000
00100000
01000000
01000000
,
10000000
00010000
01000000
00100000
,
10010000
00000000
00000000
00000000
,
00000000
00000000
00000000
00000000
;

//---------------dance-double - ----------------
#NOTES:
     dance-double:
     :
     Medium:
     9:
     0.505912,0.523158,0.075120,0.000000,0.000000,330.000000,323.000000,7.000000,0.000000,0.000000,0.000000,0.505912,0.523158,0.075120,0.000000,0.000000,330.000000,323.000000,7.000000,0.000000,0.000000,0.000000:
00000000
00000000
00000000
00000000
,
00000000
00000000
00000000
00000000
,
00000000
00000000
00000000
00000000
,
10000000
00000000
10000000
00000000
00010000
01000000
00010000
00000000
,
00100000
00001000
00100000
00000000
00010000
00000000
10000000
00000000
,
00100000
00000000
00100000
00000000
01000000
00010000
01000000
00000000
,
00001000
00010000
00001000
00000000
00100000
00000000
01000000
00000000
,
00010000
00000000
00001000
00000000
00000100
00000001
00000100
00000000
,
00000010
00001000
00000010
00000000
00000100
00000000
00000001
00000000
,
00000010
00000000
00000100
00001000
00000100
00000000
00000010
00000000
,
00000001
00000000
00000100
00000010
00000100
00000000
00000001
00000000
,
00001000
00000000
00000100
00010000
00000100
00000000
00001000
00000000
,
00000010
00010000
00001000
00000000
00100000
00010000
01000000
00000000
,
00100000
00000000
10000000
01000000
10000000
00000000
00100000
00000000
,
01000000
00000000
00010000
10000000
00010000
00000000
01000000
00000000
,
00100000
10000000
01000000
00000000
00100000
00010000
01000000
00000000
,
00001000
00000000
00010000
00000000
00000010
00001000
00000100
00000000
,
00000010
00000000
00000010
00000000
00000001
00001000
00000100
00000000
,
00000010
00000000
00000001
00000100
00000010
00000000
00001000
00000000
,
00000100
00000000
00000100
00000000
00010000
00001000
00010000
00000000
,
00100000
10000000
00010000
00100000
,
01000000
00000000
01000000
00000000
10000000
00010000
01000000
00000000
,
00100000
00000000
10000000
00010000
00100000
00000000
00001000
00000000
,
00010000
00010000
00001000
00001000
,
00000010
00000001
00000000
00001000
00000000
00000100
00000000
00001000
,
00000100
00000010
00000001
00000100
,
00001000
00010000
00001000
00000000
00100000
00010000
00100000
00000000
,
01000000
10000000
00010000
01000000
,
00001000
00010000
00001000
00000000
00000010
00000100
00000010
00000000
,
00000001
00000100
00000010
00001000
,
00000100
00010000
00001000
00100000
,
00010000
10000000
01000000
00000000
00100000
00000000
00010000
00000000
,
01000000
00001000
00010000
00000000
00000100
00000000
00000010
00000000
,
00000001
00001000
00000100
00000000
00000010
00000001
00000100
00000000
,
00001000
00010000
00001000
00000000
00100000
00000000
01000000
00000000
,
10000000
00010000
01000000
00000000
00100000
10000000
01000000
00000000
,
00010000
00001000
00010000
00000000
00000010
00000000
00000100
00000000
,
00000001
00000000
00000001
00000000
00000010
00000100
00001000
00000000
,
00000001
00000000
00000001
00000000
00000100
00000010
00001000
00000000
,
00000001
00000000
00000001
00000000
00000010
00000100
00001000
00000000
,
00000010
00000100
00001000
00000000
00001000
00010000
01000000
00000000
,
00100000
00000000
00100000
00000000
00010000
10000000
01000000
00000000
,
00100000
00010000
01000000
00000000
00100000
10000000
01000000
00000000
,
00100000
00000000
00100000
00000000
00001000
00010000
00000100
00000000
,
00000010
00000001
00000100
00000000
00000010
00001000
00000100
00000000
,
00010000
00001000
00010000
00001000
00010000
00000000
00011000
00000000
,
00100000
00010000
00100000
00010000
00100000
00000000
00110000
00000000
,
10000000
00100000
10000000
00000000
00010000
00100000
00010000
00000000
,
01000000
00100000
01000000
00000000
00010000
10000000
00010000
00000000
,
01100000
10010000
00100000
01000000
,
00001000
00010000
00001000
00000000
00100000
00010000
00100000
00000000
,
01000000
00010000
00001000
00000000
00010000
00001000
00000010
00000000
,
00000001
00000000
00000001
00000000
00001000
00000100
00001000
00000000
,
00000010
00000000
00000010
00000000
00010000
00001000
00010000
00000000
,
01000000
00000000
01000000
00000000
10000000
00100000
10000000
00000000
,
00010000
01000000
00010000
01000000
00010000
00000000
01010000
00000000
,
00001000
00010000
00001000
00010000
00001000
00000000
00011000
00000000
,
00000010
00000000
00000010
00000000
00000100
00000001
00000100
00000001
,
00000000
00000010
00000010
00000000
00000100
00000000
00010000
00000000
,
00001000
00000000
00001000
00000000
00100000
00010000
00100000
00010000
,
00000000
10000000
10000000
00000000
00100000
00000000
01010000
00000000
,
00001000
00000000
00001000
00000000
00010000
00000010
00001000
00000010
,
00000000
00000100
00000100
00000000
00000001
00000000
00000010
00000000
,
00000100
00000000
00000100
00000000
00010000
00001000
00100000
00010000
,
00000000
01000000
01000000
00000000
00100000
10000000
01000000
00010000
,
00001000
00000000
00000000
00000000
,
00000000
00000000
00000000
00000000
;

//---------------dance-double - ----------------
#NOTES:
     dance-double:
     :
     Hard:
     12:
     0.669949,0.627790,0.053657,0.000000,0.000000,437.000000,432.000000,5.000000,0.000000,0.000000,0.000000,0.669949,0.627790,0.053657,0.000000,0.000000,437.000000,432.000000,5.000000,0.000000,0.000000,0.000000:
00000000
00000000
00000000
00000000
,
00000000
00000000
00000000
00000000
,
00000000
00000000
00000000
00000000
,
10000000
01000000
00100000
00000000
00001000
00010000
00001000
00000000
,
00000010
00000001
00000100
00000000
00001000
00010000
00001000
00000000
,
00100000
00010000
00100000
00010000
00100000
00010000
00100000
00000000
,
01000000
10000000
01000000
10000000
01000000
10000000
01000000
00000000
,
00010000
01000000
00010000
01000000
00010000
01000000
00010000
00000000
,
00001000
00010000
00001000
00010000
00001000
00010000
00001000
00000000
,
00000010
00001000
00000100
00000010
00000001
00000100
00000010
00001000
,
00000100
00000001
00000100
00001000
00000010
00000100
00001000
00000000
,
00010000
01000000
10000000
00100000
01000000
00010000
00100000
01000000
,
10000000
00010000
01000000
00100000
10000000
00010000
01000000
00000000
,
00001000
00010000
00000010
00001000
00000100
00010000
00000010
00001000
,
00000001
00000010
00000100
00001000
00000010
00000100
00000001
00000000
,
00000010
00000100
00001000
00000001
00000100
00001000
00000100
00001000
,
00010000
01000000
00010000
01000000
10000000
00010000
01000000
00000000
,
11000000
00000000
00010000
01000000
00100000
00000000
10010000
00000000
,
01000000
00001000
00010000
00000000
00000010
00001000
00000100
00000000
,
00000010
00000001
00000100
00000010
00001000
00000100
00000010
00000001
,
00001000
00001000
00000100
00000100
00010000
00010000
00001000
00000000
,
00110000
00000000
10000000
00100000
01000000
00000000
10010000
00000000
,
01000000
00100000
00010000
00000000
01000000
00001000
00010000
00000000
,
00000010
00000100
00000001
00000010
00000100
00001000
00000001
00000100
,
00000010
00001000
00000100
00000010
00000001
00001000
00000100
00000000
,
00010000
00001000
00100000
00001000
00010000
00000100
00010000
00001000
,
00100000
00010000
10000000
01000000
00100000
00010000
01000000
00100000
,
00010000
00001000
00000010
00001000
00010000
00100000
00010000
00001000
,
00000010
00000001
00000100
00000010
00001000
00000100
00000010
00000001
,
00001000
00000100
00010000
00000100
00001000
00000100
00010000
00000100
,
00001000
00000100
00010000
00000100
00001000
00000100
00010000
00001000
,
00100000
00010000
01000000
00000000
00100000
10000000
01000000
00000000
,
00100000
00010000
01000000
00000000
00100000
10000000
01000000
00000000
,
00010000
00000000
00010000
00000000
00001000
00010000
00000000
00000010
,
00000000
00000010
00000100
00000000
00000001
00000000
00001000
00000000
,
00000100
00000000
00000100
00000000
00010000
00001000
00000000
00100000
,
00000000
00100000
01000000
10000000
00010000
00000000
01000000
00000000
,
00100000
00000000
00100000
00000000
10000000
00010000
00000000
01000000
,
00000000
01000000
00001000
00000000
00010000
00000000
00000010
00000000
,
00000100
00000000
00000100
00000000
00000001
00000010
00000000
00000100
,
00000000
00000100
00001000
00000010
00000100
00000000
00001000
00000000
,
00010000
01000000
00010000
00001000
00010000
00001000
00000100
00000001
,
00000010
00000100
00001000
00000010
00000100
00000001
00001000
00000100
,
00010000
00001000
00100000
00001000
00010000
00000100
00010000
00001000
,
00100000
01000000
10000000
00010000
01000000
00100000
10000000
01000000
,
00100000
00010000
01000000
00001000
00100000
00010000
01000000
00001000
,
00100000
00010000
01000000
00001000
00100000
00010000
01000000
00001000
,
00010000
00000010
00001000
00000000
00000100
00000010
00000001
00000000
,
00000100
00000010
00001000
00000000
00000100
00000010
00000001
00000000
,
00000100
00001000
00010000
00001000
00010000
01000000
10000000
00010000
,
01000000
00100000
10000000
01000000
00100000
00010000
01000000
00001000
,
00010000
00000010
00001000
00000100
00010000
00001000
00100000
00010000
,
01000000
00100000
10000000
01000000
00100000
00010000
01000000
00001000
,
00010000
00000100
00001000
00000010
00010000
00000100
00001000
00000010
,
00010000
00000100
00001000
00000010
00010000
00000100
00001000
00000010
,
00000100
00000001
00000010
00000000
00000100
00001000
00000010
00000000
,
00000100
00000001
00000010
00000000
00000100
00001000
00000010
00000000
,
00010000
00001000
00010000
00001000
00010000
00001000
00010000
00000000
,
00100000
00010000
00100000
00010000
00100000
00010000
00100000
00000000
,
10000000
01000000
10000000
01000000
10000000
01000000
10000000
00000000
,
00100000
00010000
00100000
00010000
01000000
00100000
10000000
01000000
,
00010000
00001000
00000010
00000001
00000100
00000010
00001000
00000100
,
00000010
00000001
00000100
00001000
00010000
00001000
00010000
01000000
,
10000000
00010000
01000000
00100000
10000000
01000000
00100000
00001000
,
00010000
00000100
00001000
00000001
00000100
00000010
00010000
00001000
,
00011000
00000000
00000000
00000000
,
00000000
00000000
00000000
00000000
;

//---------------dance-single - ----------------
#NOTES:
     dance-single:
     :
     Challenge:
     15:
     0.852384,1.081194,0.160972,0.000000,0.515110,556.000000,541.000000,15.000000,0.000000,0.000000,0.000000,0.852384,1.081194,0.160972,0.000000,0.515110,556.000000,541.000000,15.000000,0.000000,0.000000,0.000000:
// measure 0
0000
0000
0000
0000
,  // measure 1
0000
0000
0000
0000
,  // measure 2
0000
0000
0000
0000
,  // measure 3
0000
0000
0000
0000
,  // measure 4
0000
0000
0000
0000
,  // measure 5
1000
0100
0001
0100
1000
0100
0001
0100
,  // measure 6
1000
0100
0001
0100
1100
0000
0110
0000
,  // measure 7
0010
0001
0010
0000
0001
0000
0010
0000
0100
1000
0100
0000
0001
0000
0100
0000
,  // measure 8
0010
0001
0010
0001
1000
0010
1000
0010
0100
0010
0100
0010
0100
0010
0100
0010
,  // measure 9
0100
0000
0110
0000
0010
1000
0100
0010
,  // measure 10
0001
0100
0001
1000
0010
1000
0001
0010
,  // measure 11
0001
0100
0001
0100
1000
0100
1000
0100
,  // measure 12
0001
0000
0010
0000
0011
0000
0000
0001
1000
0000
0010
0000
1000
0000
0100
0000
,  // measure 13
0010
0000
0001
0010
0001
0010
1000
0010
,  // measure 14
1000
0010
0100
0010
0100
0010
0001
0010
,  // measure 15
0001
0010
0100
1000
0010
0100
0001
0010
,  // measure 16
0100
0000
1000
0000
0010
0000
0000
0010
1000
0001
1000
0001
1000
0001
1000
0001
,  // measure 17
1000
1000
0100
0100
0010
0010
0001
0001
,  // measure 18
0100
0000
0010
1000
0010
0000
1000
0000
0100
0000
0010
0000
0001
0100
0001
0000
,  // measure 19
0010
0001
1000
0010
1000
0001
0100
0001
,  // measure 20
1000
0100
0010
0001
1000
0100
0010
0001
,  // measure 21
0100
0010
0100
0010
1000
0001
1000
0001
,  // measure 22
0010
0100
0010
0000
0100
0000
1000
0000
0001
1000
0001
0000
1000
0000
0010
0000
,  // measure 23
0100
0001
1000
0100
0010
0001
0100
0010
,  // measure 24
1010
1001
0000
0011
0000
0110
0000
1100
,  // measure 25
1001
0000
0110
0000
0010
1000
0100
0010
,  // measure 26
0001
0001
1000
1000
0000
0010
0100
0001
,  // measure 27
0010
0001
1000
0100
1000
0001
0010
0100
,  // measure 28
1000
0010
0000
0000
1010
0000
0000
0000
1001
0000
0000
0100
0001
0000
0010
0000
,  // measure 29
0100
0000
1000
0000
0100
0000
1000
0001
0100
0000
0001
0000
0100
0000
0010
0000
,  // measure 30
0100
0010
1000
0100
1000
0100
0010
0001
,  // measure 31
0100
0000
0100
0000
0100
0000
0100
0000
0100
0010
0100
0010
0100
0010
0100
0000
,  // measure 32
0001
0000
0001
0000
0001
1000
0001
1000
0001
1000
0001
1000
0001
1000
0001
1000
,  // measure 33
0010
0100
0000
0000
0001
1000
0000
0000
0010
0000
1000
0000
0001
0000
0000
0000
,  // measure 34
1000
0100
0000
0000
0010
0001
0000
0000
0100
0010
0000
0000
1000
0001
0000
0000
,  // measure 35
1000
0100
0000
0000
1000
0010
0000
0000
0010
0100
0000
0000
0100
0001
0000
0000
,  // measure 36
0001
1000
0000
0000
1000
0010
0000
0010
0100
0000
0001
0000
0010
0000
0100
0000
,  // measure 37
1000
0001
0010
0001
1000
0001
0010
0001
,  // measure 38
1000
0000
0100
1000
0010
1000
0100
1000
,  // measure 39
0010
0100
0010
0100
0010
0000
1000
0000
0001
0100
0001
0100
0001
0100
0001
0100
,  // measure 40
0010
1000
0010
1000
0100
0010
0100
0010
0001
1000
0001
1000
0010
1000
0010
1000
,  // measure 41
0001
0010
0100
1000
0001
0100
0010
1000
,  // measure 42
0001
0100
0000
0000
0101
0000
0000
0000
1000
0010
0000
0000
1010
0000
0000
0000
,  // measure 43
0001
0010
0100
1000
0001
1000
0100
0010
,  // measure 44
0001
1000
0001
1000
0001
1000
0001
1000
0001
0000
0010
0000
0100
0000
1000
0000
,  // measure 45
0001
0000
0100
0000
0010
0100
0010
0000
1000
0000
0100
0000
1000
0000
0100
0000
,  // measure 46
0010
0001
0010
0001
0100
0010
0100
0010
,  // measure 47
1000
0000
1000
0000
1000
0000
1000
0000
1000
0001
1000
0001
1000
0001
1000
0001
,  // measure 48
0100
0000
0100
0000
0100
0000
0100
0001
0100
0001
0100
0001
0100
0001
0100
0001
,  // measure 49
0100
0010
1000
0010
0100
0001
0010
0100
,  // measure 50
1000
0001
0000
0000
0001
0000
1000
0000
0100
0000
0010
0000
0001
0000
0100
0000
,  // measure 51
0010
1000
0001
0100
0001
0010
0001
1000
,  // measure 52
0001
0010
0001
0010
0001
0000
1000
0100
0000
0100
1000
0000
0001
0000
0100
0000
,  // measure 53
0001
1000
0010
1000
0100
0010
0001
0100
,  // measure 54
0010
1000
0001
1000
0001
0100
0001
0100
,  // measure 55
0010
0000
0010
0000
0010
0000
0010
0000
0010
1000
0010
1000
0010
1000
0010
1000
,  // measure 56
0001
0000
0001
0000
0001
0000
0001
0000
0001
0100
0001
0100
0001
0100
0001
0100
,  // measure 57
0010
1000
0001
1000
0100
0010
0001
0100
,  // measure 58
0010
0100
0001
0010
0100
1000
0001
0010
,  // measure 59
0001
0000
0100
0000
0001
0000
0100
0000
0010
1000
0010
1000
0100
0010
0100
0010
,  // measure 60
0001
0100
0001
0100
0010
1000
0010
1000
,  // measure 61
0100
0001
0100
0001
0100
1000
0100
1000
,  // measure 62
0010
1000
0010
1000
0010
0001
0010
0001
,  // measure 63
0010
0010
0010
0010
0010
0010
0010
0010
,  // measure 64
1000
0001
1000
0001
1000
0001
1000
0001
0100
0000
0100
0000
0100
0000
0100
0000
,  // measure 65
0100
0000
0000
0000
;
