#TITLE:Burn Out;
#SUBTITLE:;
#ARTIST:Beatdrop;
#TITLETRANSLIT:;
#SUBTITLETRANSLIT:;
#ARTISTTRANSLIT:;
#GENRE:;
#CREDIT:;
#BANNER:Burn Out.png;
#BACKGROUND:Burn Out-bg.png;
#LYRICSPATH:Burn Out.lrc;
#CDTITLE:./CDTITLES/DanceDanceRevolution UNIVERSE3.png;
#MUSIC:Burn Out.mp3;
#OFFSET:-0.046000;
#SAMPLESTART:42.382999;
#SAMPLELENGTH:12.000000;
#SELECTABLE:YES;
#BPMS:0.000000=136.000000
;
#STOPS:
;
#BGCHANGES:;
#KEYSOUNDS:;
#ATTACKS:;

//---------------dance-single - ----------------
#NOTES:
     dance-single:
     :
     Easy:
     4:
     0.193349,0.222694,0.038395,0.191977,0.000000,117.000000,4.000000,20.000000,0.000000,0.000000,0.000000,0.193349,0.222694,0.038395,0.191977,0.000000,117.000000,4.000000,20.000000,0.000000,0.000000,0.000000:
0000
0000
0000
0000
,
0000
0000
0000
0000
,
0000
0000
0000
0000
,
0000
0000
0000
0000
,
2000
0000
0000
3000
,
0002
0000
0000
0003
,
0200
0000
0000
0300
,
0020
0000
0000
0030
,
1000
0000
0100
0000
,
0020
0000
0030
0000
,
0001
0000
0100
0000
,
0020
0000
0030
0000
,
1000
0000
0001
0000
,
0200
0000
0300
0000
,
0001
0000
1000
0000
,
0200
0300
0010
0001
,
1000
0000
0001
0000
,
2000
0000
3000
0000
,
0100
0000
0010
0000
,
0200
0000
0300
0000
,
1000
0000
0001
0000
,
0002
0000
0003
0000
,
0100
0000
0010
0000
,
0020
0000
0030
0000
,
1000
0000
0001
0000
,
0100
0100
0100
0000
,
0001
0000
0010
0000
,
0100
0000
1000
1000
,
1000
0000
0001
0000
,
0100
0000
0010
0010
,
0010
0000
0100
0000
,
0001
0001
1000
1000
,
0200
0000
0300
0000
,
0010
0010
0001
0001
,
2000
0000
3000
0000
,
0010
0010
0100
0100
,
0002
0000
0003
0000
,
1000
1000
0100
0100
,
0020
0000
0030
0000
,
0001
0001
1000
1000
,
0001
0000
0100
0000
,
0010
1000
0010
1000
,
0100
0000
1000
0000
,
0001
1000
0001
1000
,
0100
0000
0010
0000
,
0001
0010
0001
0010
,
0001
0000
0100
0000
,
0010
0100
0010
0100
,
0110
0000
0000
0000
,
0000
0000
0000
0000
,
0220
0000
0330
0000
,
0100
0010
1000
0001
,
2002
0000
3003
0000
,
0001
1000
0100
0010
,
0001
0000
1000
0000
,
0001
0100
0010
0000
,
1000
0000
0100
0000
,
0010
0001
1000
0000
,
1001
0000
0000
0000
;

//---------------dance-single - ----------------
#NOTES:
     dance-single:
     :
     Medium:
     7:
     0.320876,0.334040,0.163181,0.191977,0.000000,197.000000,17.000000,20.000000,0.000000,0.000000,0.000000,0.320876,0.334040,0.163181,0.191977,0.000000,197.000000,17.000000,20.000000,0.000000,0.000000,0.000000:
0000
0000
0000
0000
,
0000
0000
0000
0000
,
0000
0000
0000
0000
,
0000
0000
0000
0000
,
1000
1000
1000
0000
,
0001
0001
0001
0000
,
0100
0100
0100
0000
,
0010
0010
0010
0000
,
1000
1000
0001
0001
,
2002
0000
0000
3003
,
0100
0100
0010
0010
,
0220
0330
0220
0330
,
1000
1000
0100
0100
,
2200
0000
0000
3300
,
0001
0001
0100
0100
,
0202
0303
0001
0010
,
0100
1000
0001
0000
,
1000
0000
1000
0000
0001
1000
0001
0000
,
0010
0100
1000
0000
,
0001
0000
0001
0000
0100
0001
0100
0000
,
0010
1000
0001
0000
,
1000
0000
1000
0000
0010
1000
0010
0000
,
0100
0001
1000
0000
,
0001
1000
0001
0000
1000
0001
1000
0000
,
0001
0000
1000
0100
1000
0000
0001
0000
,
0100
0000
0010
0000
1000
0001
1000
0000
,
0000
0000
0100
1000
0100
0000
0010
0000
,
0001
0000
0100
0000
0010
1000
0010
0000
,
0000
0100
0001
1000
,
0001
1000
0001
0000
0010
0100
0010
0000
,
0000
0000
0001
1000
0001
0100
0001
0000
,
0010
0000
0100
0000
1000
0001
1000
0000
,
1001
0000
1100
0000
,
0001
1000
0100
0010
,
0011
0000
0101
0000
,
0001
0100
0010
1000
,
0110
0000
0101
0000
,
1000
0001
0100
0001
,
1010
0000
1001
0000
,
1000
0100
0001
0100
,
2000
0000
0002
3003
,
0001
0000
0100
0010
0100
0000
0001
0000
,
0200
0000
0020
0330
,
1000
0000
0001
0100
0001
0000
1000
0000
,
0200
0000
2000
3300
,
0001
0000
0100
0010
0100
0000
0001
0000
,
0020
0000
0002
0033
,
1000
0000
0001
0100
0001
1000
0001
0000
,
0110
0000
0000
0000
,
0000
0000
0000
0000
,
0210
0010
0010
0310
,
1000
0001
1000
0100
,
1002
1000
1000
1003
,
0100
0010
0001
0010
,
0001
0000
1000
0000
0001
0100
0010
0000
,
1000
0000
0001
0000
1000
0100
0010
0000
,
0100
0000
0010
0000
0001
1000
0100
0000
,
0010
0000
0001
0000
0100
0010
1000
0000
,
1001
0000
0000
0000
;

//---------------dance-single - ----------------
#NOTES:
     dance-single:
     :
     Hard:
     10:
     0.415494,0.417551,0.268768,0.134384,0.062393,261.000000,28.000000,14.000000,0.000000,0.000000,0.000000,0.415494,0.417551,0.268768,0.134384,0.062393,261.000000,28.000000,14.000000,0.000000,0.000000,0.000000:
// measure 0
0000
0000
0000
0000
,  // measure 1
0000
0000
0000
0000
,  // measure 2
0000
0000
0000
0000
,  // measure 3
0000
0000
0000
0000
,  // measure 4
1000
0000
0001
0100
0002
0000
0000
0000
,  // measure 5
0013
0000
0100
0010
0200
0000
0000
0000
,  // measure 6
1300
0000
0010
0100
0020
0000
0000
0000
,  // measure 7
0130
0000
0001
0010
0002
0000
0000
0000
,  // measure 8
1003
0000
0000
0000
0001
0000
0000
0000
0100
0000
0000
0000
0010
0000
0000
1000
,  // measure 9
0000
0001
0000
0000
0000
0000
0000
0000
,  // measure 10
1000
0000
0000
0000
0100
0000
0000
0000
0010
0000
0000
0000
0001
0000
0000
1000
,  // measure 11
0000
0001
0000
0000
0100
0010
1000
0000
,  // measure 12
1001
0000
0000
0000
1000
0000
0000
0000
0110
0000
0000
0000
0010
0000
0000
0001
,  // measure 13
0000
1000
0000
0000
0000
0000
0000
0000
,  // measure 14
1001
0000
0000
0000
0100
0000
0000
0000
0110
0000
0000
0000
1000
0000
0000
0100
,  // measure 15
0000
0010
0000
0000
0001
1000
0001
0000
,  // measure 16
1000
1100
0001
0101
,  // measure 17
0001
0100
0010
0000
0000
0000
0100
0000
,  // measure 18
0010
1010
0100
1100
,  // measure 19
1000
0100
0010
0000
0000
0000
0001
0000
,  // measure 20
1000
1010
0001
0011
,  // measure 21
0001
0100
0010
0000
0000
0000
0100
0000
,  // measure 22
0001
0101
0010
0011
,  // measure 23
0001
0010
0100
1000
0001
0000
1001
0000
,  // measure 24
1000
0000
0001
0000
1000
0100
0001
0000
,  // measure 25
0100
0000
1000
0000
0100
0010
0001
0000
,  // measure 26
0100
0000
0010
1000
0100
0000
0010
0001
,  // measure 27
0100
1000
0100
0000
0001
1000
0100
0000
,  // measure 28
0010
0000
0001
0100
1000
0000
0100
0001
,  // measure 29
0010
0100
1000
0010
0001
0010
1000
0000
,  // measure 30
0000
0000
0001
0010
1000
0010
0001
0100
,  // measure 31
1000
0100
0001
0010
0100
1000
0001
0000
,  // measure 32
1000
0100
0010
0001
,  // measure 33
1000
0100
0001
0100
1000
0010
0100
0000
,  // measure 34
0001
0100
0010
1000
,  // measure 35
0001
0100
1000
0100
0001
0010
0100
0000
,  // measure 36
1000
1100
0001
0011
,  // measure 37
0010
0001
0100
0001
0010
0100
1000
0000
,  // measure 38
0001
1001
0100
0110
,  // measure 39
0010
1000
0100
1000
0010
0100
0001
0000
,  // measure 40
2000
0002
0003
3010
,  // measure 41
0001
1000
0100
1000
0001
0100
1000
0000
,  // measure 42
0200
0020
0030
0301
,  // measure 43
1000
0100
0010
0001
1000
0010
0100
0000
,  // measure 44
1002
0010
1000
0103
,  // measure 45
0010
1000
0100
0001
0100
1000
0001
0000
,  // measure 46
0120
0001
1000
0031
,  // measure 47
1000
0001
0100
0001
1000
0100
0010
0000
,  // measure 48
1001
0000
0000
0000
,  // measure 49
0000
0000
0000
0000
,  // measure 50
1002
0103
2001
3100
,  // measure 51
0010
0001
1000
0100
0010
0001
1000
0000
,  // measure 52
0120
1030
0210
0301
,  // measure 53
1000
0100
0010
0001
1000
0001
1000
0000
,  // measure 54
0001
1000
0001
0000
0101
0000
0000
0000
0010
0000
0000
0001
0000
0000
1000
0001
,  // measure 55
0000
0000
0000
0000
1100
0000
0000
0000
0001
0000
0000
0100
0000
0000
0010
0100
,  // measure 56
0000
0000
0000
0000
0011
0000
0000
0000
0100
0000
0000
0010
0000
0000
1000
0010
,  // measure 57
0000
0000
0000
0000
1001
0000
0000
0000
0100
0000
0000
0001
0000
0000
1000
0001
,  // measure 58
1000
0000
0000
0000
;

//---------------dance-double - ----------------
#NOTES:
     dance-double:
     :
     Easy:
     2:
     0.193349,0.222694,0.038395,0.191977,0.000000,117.000000,4.000000,20.000000,0.000000,0.000000,0.000000,0.193349,0.222694,0.038395,0.191977,0.000000,117.000000,4.000000,20.000000,0.000000,0.000000,0.000000:
00000000
00000000
00000000
00000000
,
00000000
00000000
00000000
00000000
,
00000000
00000000
00000000
00000000
,
00000000
00000000
00000000
00000000
,
20000000
00000000
00000000
30000000
,
00020000
00000000
00000000
00030000
,
02000000
00000000
00000000
03000000
,
00002000
00000000
00000000
00003000
,
00010000
00000000
00000100
00000000
,
00000020
00000000
00000030
00000000
,
00000001
00000000
00001000
00000000
,
00000020
00000000
00000030
00000000
,
00000100
00000000
00001000
00000000
,
00020000
00000000
00030000
00000000
,
00001000
00000000
00100000
00000000
,
00020000
00030000
10000000
00010000
,
10000000
00000000
01000000
00000000
,
00020000
00000000
00030000
00000000
,
01000000
00000000
00010000
00000000
,
00002000
00000000
00003000
00000000
,
00010000
00000000
00001000
00000000
,
00000020
00000000
00000030
00000000
,
00001000
00000000
00000010
00000000
,
00000002
00000000
00000003
00000000
,
00001000
00000000
00000001
00000000
,
00000100
00000100
00000100
00000000
,
00000010
00000000
00010000
00000000
,
00001000
00000000
01000000
01000000
,
01000000
00000000
00010000
00000000
,
00100000
00000000
01000000
01000000
,
01000000
00000000
10000000
00000000
,
00010000
00010000
01000000
01000000
,
00002000
00000000
00003000
00000000
,
00010000
00010000
00000100
00000100
,
00000020
00000000
00000030
00000000
,
00000001
00000001
00001000
00001000
,
00000200
00000000
00000300
00000000
,
00010000
00010000
00001000
00001000
,
00020000
00000000
00030000
00000000
,
00001000
00001000
01000000
01000000
,
00100000
00000000
10000000
00000000
,
01000000
00100000
01000000
00100000
,
00010000
00000000
01000000
00000000
,
00001000
00010000
00001000
00010000
,
00000100
00000000
00000010
00000000
,
00000001
00001000
00000001
00001000
,
00000010
00000000
00000100
00000000
,
00001000
00010000
00001000
00010000
,
00011000
00000000
00000000
00000000
,
00000000
00000000
00000000
00000000
,
00022000
00000000
00033000
00000000
,
01000000
00010000
10000000
00100000
,
20020000
00000000
30030000
00000000
,
10000000
01000000
00100000
00001000
,
00010000
00000000
00001000
00000000
,
00010000
00000100
00000010
00000000
,
00000001
00000000
00001000
00000000
,
00000001
00001000
00000100
00000000
,
00011000
00000000
00000000
00000000
;

//---------------dance-double - ----------------
#NOTES:
     dance-double:
     :
     Medium:
     4:
     0.311277,0.278367,0.134384,0.163181,0.000000,196.000000,14.000000,17.000000,0.000000,0.000000,0.000000,0.311277,0.278367,0.134384,0.163181,0.000000,196.000000,14.000000,17.000000,0.000000,0.000000,0.000000:
00000000
00000000
00000000
00000000
,
00000000
00000000
00000000
00000000
,
00000000
00000000
00000000
00000000
,
00000000
00000000
00000000
00000000
,
10000000
10000000
10000000
00000000
,
00010000
00010000
00010000
00000000
,
00100000
00100000
00100000
00000000
,
00001000
00001000
00001000
00000000
,
00010000
00010000
00000100
00000100
,
00000020
00000000
00000000
00000030
,
00000001
00000001
00001000
00001000
,
00000020
00000030
00000200
00000300
,
00001000
00001000
00010000
00010000
,
00022000
00000000
00000000
00033000
,
00001000
00001000
01000000
01000000
,
00220000
00330000
00100000
01000000
,
10000000
00010000
10000000
00000000
,
00010000
00000000
00010000
00000000
01000000
00100000
01000000
00000000
,
00001000
00010000
00001000
00000000
,
00010000
00000000
00010000
00000000
00000100
00000010
00000100
00000000
,
00001000
00000001
00001000
00000000
,
00000010
00000000
00000010
00000000
00010000
00000100
00010000
00000000
,
00001000
00010000
00001000
00000000
,
01000000
00010000
01000000
00000000
00100000
10000000
00100000
00000000
,
10000000
00000000
00010000
10000000
00010000
00000000
10000000
00000000
,
01000000
00000000
00010000
00000000
00001000
00010000
00001000
00000000
,
00000000
00000000
00010000
00001000
00010000
00000000
00001000
00000000
,
00000010
00000000
00000001
00000000
00001000
00000001
00001000
00000000
,
00000000
00000001
00000100
00001000
,
00010000
00001000
00010000
00000000
00001000
00100000
00001000
00000000
,
00000000
00000000
00100000
00010000
00100000
01000000
00100000
00000000
,
00010000
00000000
10000000
00000000
01000000
00100000
01000000
00000000
,
01100000
00000000
00110000
00000000
,
00001000
00010000
00000100
00000010
,
00000011
00000000
00000101
00000000
,
00000010
00001000
00000100
00010000
,
00011000
00000000
01001000
00000000
,
00010000
10000000
01000000
10000000
,
11000000
00000000
00110000
00000000
,
00000000
00001000
00010000
00001000
,
00020000
00000000
00000020
00030030
,
00001000
00000000
00000001
00000100
00000001
00000000
00001000
00000000
,
00000020
00000000
00000200
00000330
,
00001000
00000000
00010000
00001000
00010000
00000000
00001000
00000000
,
02000000
00000000
00200000
03300000
,
10000000
00000000
01000000
00100000
01000000
00000000
00010000
00000000
,
00002000
00000000
00020000
00033000
,
00010000
00000000
00000100
00001000
00000100
00000010
00000100
00000000
,
00001001
00000000
00000000
00000000
,
00000000
00000000
00000000
00000000
,
00000102
00000100
00000100
00000103
,
00000010
00010000
00000010
00010000
,
00102000
00100000
00100000
00103000
,
00010000
00100000
01000000
10000000
,
00010000
00000000
10000000
00000000
00010000
01000000
00001000
00000000
,
00010000
00000000
00001000
00000000
00010000
00000100
00001000
00000000
,
00000001
00000000
00000100
00000000
00000010
00001000
00000100
00000000
,
00010000
00000000
00001000
00000000
01000000
00010000
00100000
00000000
,
01100000
00000000
00000000
00000000
;

//---------------dance-double - ----------------
#NOTES:
     dance-double:
     :
     Hard:
     7:
     0.412751,0.417551,0.268768,0.134384,0.057593,259.000000,28.000000,14.000000,0.000000,0.000000,0.000000,0.412751,0.417551,0.268768,0.134384,0.057593,259.000000,28.000000,14.000000,0.000000,0.000000,0.000000:
00000000
00000000
00000000
00000000
,
00000000
00000000
00000000
00000000
,
00000000
00000000
00000000
00000000
,
00000000
00000000
00000000
00000000
,
10000000
00000000
00010000
01000000
00020000
00000000
00000000
00000000
,
00130000
00000000
00001000
00010000
00002000
00000000
00000000
00000000
,
00013000
00000000
00000100
00000010
00000200
00000000
00000000
00000000
,
00001300
00000000
00000001
00000010
00000002
00000000
00000000
00000000
,
00001003
00000000
00000000
00000000
00000010
00000000
00000000
00000000
00000100
00000000
00000000
00000000
00001000
00000000
00000000
00010000
,
00000000
00001000
00000000
00000000
00000000
00000000
00000000
00000000
,
00010000
00000000
00000000
00000000
00100000
00000000
00000000
00000000
01000000
00000000
00000000
00000000
00010000
00000000
00000000
10000000
,
00000000
00010000
00000000
00000000
10000000
01000000
00010000
00000000
,
00011000
00000000
00000000
00000000
00001000
00000000
00000000
00000000
00001100
00000000
00000000
00000000
00000100
00000000
00000000
00000001
,
00000000
00001000
00000000
00000000
00000000
00000000
00000000
00000000
,
00000110
00000000
00000000
00000000
00000010
00000000
00000000
00000000
00001010
00000000
00000000
00000000
00001000
00000000
00000000
00000100
,
00000000
00010000
00000000
00000000
00001000
00010000
01000000
00000000
,
10000000
11000000
00010000
00110000
,
00100000
00001000
00010000
00000000
00000000
00000000
00000100
00000000
,
00001000
00001010
00000100
00000101
,
00000001
00000010
00000100
00000000
00000000
00000000
00001000
00000000
,
00000010
00001010
00000100
00010100
,
00001000
00010000
00001000
00000000
00000000
00000000
01000000
00000000
,
00010000
10010000
00100000
01100000
,
10000000
01000000
00100000
00001000
00010000
00000000
00011000
00000000
,
00001000
00000000
00010000
00000000
00001000
00000100
00000001
00000000
,
00000010
00000000
00000001
00000000
00000100
00001000
00010000
00000000
,
00001000
00000000
00010000
01000000
10000000
00000000
00100000
10000000
,
01000000
10000000
00100000
00000000
10000000
00100000
00010000
00000000
,
00001000
00000000
00010000
00001000
00000010
00000000
00001000
00000010
,
00000001
00000100
00000001
00000010
00000001
00000100
00001000
00000000
,
00000000
00000000
00010000
00001000
00010000
00100000
10000000
01000000
,
10000000
01000000
00010000
00001000
00010000
00001000
00000100
00000000
,
00000001
00001000
00000100
00000010
,
00000001
00000100
00001000
00010000
00001000
00010000
01000000
00000000
,
10000000
01000000
00100000
00010000
,
10000000
01000000
00010000
00001000
00010000
00001000
00000100
00000000
,
00000001
00001001
00001000
00001010
,
00000010
00000100
00000001
00000010
00001000
00010000
00001000
00000000
,
00010000
00011000
01000000
01010000
,
01000000
00100000
10000000
01000000
00010000
00001000
00010000
00000000
,
00000200
00020000
00030000
00001300
,
00000001
00001000
00000100
00000010
00000001
00000100
00001000
00000000
,
00020000
00002000
00003000
01030000
,
00100000
00010000
01000000
00100000
10000000
01000000
00100000
00000000
,
01002000
00010000
00100000
00013000
,
00000100
00001000
00000010
00000100
00000001
00000010
00000100
00000000
,
00020010
00000100
00001000
00030100
,
00001000
00010000
01000000
00100000
00010000
01000000
00100000
00000000
,
10010000
00000000
00000000
00000000
,
00000000
00000000
00000000
00000000
,
10020000
01030000
00210000
00301000
,
00010000
00001000
00000100
00000001
00000010
00000100
00001000
00000000
,
00000021
00000130
00002001
00003010
,
00010000
00000100
00001000
00000010
00000100
00001000
00010000
00000000
,
00001000
00000000
00000000
00000000
00110000
00000000
00000000
00000000
00010000
00000000
00000000
10000000
00000000
00000000
00010000
01000000
,
00000000
00000000
00000000
00000000
10100000
00000000
00000000
00000000
01000000
00000000
00000000
00001000
00000000
00000000
00010000
00001000
,
00000000
00000000
00000000
00000000
00010100
00000000
00000000
00000000
00001000
00000000
00000000
00000010
00000000
00000000
00001000
00000001
,
00000000
00000000
00000000
00000000
00000110
00000000
00000000
00000000
00001000
00000000
00000000
00000001
00000000
00000000
00001000
00000100
,
00010000
00000000
00000000
00000000
;

//---------------dance-single - ----------------
#NOTES:
     dance-single:
     :
     Beginner:
     1:
     0.097360,0.111347,0.076791,0.095989,0.000000,53.000000,8.000000,10.000000,0.000000,0.000000,0.000000,0.097360,0.111347,0.076791,0.095989,0.000000,53.000000,8.000000,10.000000,0.000000,0.000000,0.000000:
0000
0000
0000
0000
,
0000
0000
0000
0000
,
0000
0000
0000
0000
,
0000
0000
0000
0000
,
2000
0000
0000
3000
,
0000
0000
0000
0000
,
0002
0000
0000
0003
,
0000
0000
0000
0000
,
1000
0000
0000
0000
,
0100
0000
0000
0000
,
0010
0000
0000
0000
,
0001
0000
0000
0000
,
0001
0000
0000
0000
,
0100
0000
0000
0000
,
0010
0000
0000
0000
,
1000
0000
0001
0000
,
1000
0000
0000
0000
,
1001
0000
0000
0000
,
0100
0000
0000
0000
,
0110
0000
0000
0000
,
0001
0000
0000
0000
,
1001
0000
0000
0000
,
0010
0000
0000
0000
,
0110
0000
0000
0000
,
1000
0000
0000
0000
,
0000
0000
0000
0000
,
0001
0000
0000
0000
,
0000
0000
0000
0000
,
0100
0000
0000
0000
,
0000
0000
0000
0000
,
0010
0000
0000
0000
,
1000
0000
0001
0000
,
1001
0000
0000
0000
,
0002
0000
0000
0003
,
0000
0000
0000
0000
,
2000
0000
0000
3000
,
0000
0000
0000
0000
,
0200
0000
0000
0300
,
0000
0000
0000
0000
,
0020
0000
0000
0030
,
0000
0000
0000
0000
,
0001
0000
0001
0000
,
0001
0000
0000
0000
,
1000
0000
1000
0000
,
1000
0000
0000
0000
,
0010
0000
0010
0000
,
0010
0000
0000
0000
,
0100
0000
0100
0000
,
0100
0000
0000
0000
,
0000
0000
0000
0000
,
0220
0000
0000
0330
,
0000
0000
0000
0000
,
2002
0000
0000
3003
,
0000
0000
0000
0000
,
1000
0000
0001
0000
,
0001
0000
0100
0000
,
0100
0000
0010
0000
,
0010
0000
1000
0000
,
1001
0000
0000
0000
;

//---------------dance-double - ----------------
#NOTES:
     dance-double:
     :
     Beginner:
     1:
     0.097360,0.111347,0.076791,0.095989,0.000000,53.000000,8.000000,10.000000,0.000000,0.000000,0.000000,0.097360,0.111347,0.076791,0.095989,0.000000,53.000000,8.000000,10.000000,0.000000,0.000000,0.000000:
00000000
00000000
00000000
00000000
,
00000000
00000000
00000000
00000000
,
00000000
00000000
00000000
00000000
,
00000000
00000000
00000000
00000000
,
20000000
00000000
00000000
30000000
,
00000000
00000000
00000000
00000000
,
00020000
00000000
00000000
00030000
,
00000000
00000000
00000000
00000000
,
01000000
00000000
00000000
00000000
,
00001000
00000000
00000000
00000000
,
00010000
00000000
00000000
00000000
,
00001000
00000000
00000000
00000000
,
00010000
00000000
00000000
00000000
,
00000100
00000000
00000000
00000000
,
00001000
00000000
00000000
00000000
,
00000010
00000000
00000100
00000000
,
00000010
00000000
00000000
00000000
,
00000110
00000000
00000000
00000000
,
00000001
00000000
00000000
00000000
,
00001001
00000000
00000000
00000000
,
00000100
00000000
00000000
00000000
,
00000110
00000000
00000000
00000000
,
00010000
00000000
00000000
00000000
,
00011000
00000000
00000000
00000000
,
01000000
00000000
00000000
00000000
,
00000000
00000000
00000000
00000000
,
00010000
00000000
00000000
00000000
,
00000000
00000000
00000000
00000000
,
10000000
00000000
00000000
00000000
,
00000000
00000000
00000000
00000000
,
01000000
00000000
00000000
00000000
,
00100000
00000000
01000000
00000000
,
01100000
00000000
00000000
00000000
,
00200000
00000000
00000000
00300000
,
00000000
00000000
00000000
00000000
,
02000000
00000000
00000000
03000000
,
00000000
00000000
00000000
00000000
,
00002000
00000000
00000000
00003000
,
00000000
00000000
00000000
00000000
,
00020000
00000000
00000000
00030000
,
00000000
00000000
00000000
00000000
,
00000010
00000000
00000010
00000000
,
00000010
00000000
00000000
00000000
,
00001000
00000000
00001000
00000000
,
00001000
00000000
00000000
00000000
,
00000001
00000000
00000001
00000000
,
00000001
00000000
00000000
00000000
,
00000100
00000000
00000100
00000000
,
00000100
00000000
00000000
00000000
,
00000000
00000000
00000000
00000000
,
00022000
00000000
00000000
00033000
,
00000000
00000000
00000000
00000000
,
02200000
00000000
00000000
03300000
,
00000000
00000000
00000000
00000000
,
00100000
00000000
00010000
00000000
,
00010000
00000000
10000000
00000000
,
10000000
00000000
01000000
00000000
,
00100000
00000000
00010000
00000000
,
00011000
00000000
00000000
00000000
;

//---------------dance-single - ----------------
#NOTES:
     dance-single:
     :
     Challenge:
     12:
     0.586902,0.640244,0.105587,0.307164,0.239972,385.000000,11.000000,32.000000,0.000000,0.000000,0.000000,0.586902,0.640244,0.105587,0.307164,0.239972,385.000000,11.000000,32.000000,0.000000,0.000000,0.000000:
// measure 0
0000
0000
0000
0000
,  // measure 1
0000
0000
0000
0000
,  // measure 2
0000
0000
0000
0000
,  // measure 3
0000
0000
0000
0000
,  // measure 4
1001
0000
0000
0000
1000
0000
0010
0000
2000
0000
0000
0001
0000
0000
0001
0000
,  // measure 5
3100
0000
0000
0000
0010
0000
1000
0000
0020
0000
0000
0100
0000
0000
0100
0000
,  // measure 6
0031
0000
0000
0000
1000
0000
0001
0100
0002
0000
0000
0010
0000
0000
0010
0000
,  // measure 7
0103
0000
0000
0000
1000
0000
0010
0000
2000
0000
0000
0001
0000
0000
0001
0000
,  // measure 8
3200
0000
0010
0000
2300
0000
0001
0000
3020
0000
0001
0000
0230
0000
0000
0010
,  // measure 9
0300
0000
1000
0000
0001
0100
0001
0100
0001
0000
0000
0000
1000
0010
0000
0010
,  // measure 10
0100
0000
0001
0000
0200
0000
0000
0000
0320
0000
0000
0000
2030
0000
0000
0001
,  // measure 11
3000
0101
0000
0000
0100
0010
2000
0010
,  // measure 12
3200
0000
0000
0000
0302
0000
0000
0000
2003
0000
0000
0000
3020
0000
0000
1000
,  // measure 13
0030
1001
0000
0000
0001
1000
0001
1000
,  // measure 14
0020
0000
0000
0000
0230
0000
0000
0000
0302
0000
0000
0000
2003
0000
0000
0001
,  // measure 15
3000
0101
0000
0000
0100
0001
1000
0000
,  // measure 16
0001
0000
0100
0000
0001
0000
0100
0000
0001
1000
0001
1000
0001
0000
0000
0000
,  // measure 17
1000
0000
0100
0000
1000
0000
0100
0000
0010
0001
0010
0001
0010
0000
0000
0000
,  // measure 18
1000
0000
0010
0000
1000
0000
0010
0000
0100
0001
0100
0000
0001
0000
0000
0000
,  // measure 19
1000
0000
0010
0000
0001
0000
0010
0000
1000
0100
1000
0100
0010
0000
0000
0000
,  // measure 20
0001
0000
0010
0000
1000
0000
0010
0000
0001
0010
0001
0000
1000
0000
0000
0000
,  // measure 21
0100
0000
0001
0000
1000
0000
0010
0000
0001
0100
0001
0100
0002
0000
0000
0000
,  // measure 22
1003
0000
0100
0000
0001
0000
1000
0000
0010
0001
1000
0000
0001
0000
0000
0000
,  // measure 23
0100
0010
1000
0010
0100
0001
0010
0000
,  // measure 24
1000
0001
0010
0000
0001
0100
1000
0100
,  // measure 25
0001
0000
1001
0000
1000
0010
0001
1000
,  // measure 26
0100
0000
0001
1000
0001
0010
0100
0000
,  // measure 27
1000
0000
0010
0000
0100
0000
0010
0000
1000
0000
0001
0000
0100
0000
0001
0010
,  // measure 28
0001
0000
1000
0001
1000
0000
0001
0100
,  // measure 29
0010
0100
0001
0010
0100
1000
0001
0010
,  // measure 30
0002
0000
0103
0010
1000
0000
0010
0100
,  // measure 31
0001
0000
1000
0000
0010
0000
1000
0000
0100
0000
1000
0001
1000
0000
0001
0010
,  // measure 32
0001
0100
1000
0100
0001
0010
1000
0010
,  // measure 33
0001
0100
1000
0010
1000
0001
1000
0100
,  // measure 34
0001
0010
0001
0000
1000
0001
1000
0000
0010
0000
0100
0000
0001
0000
0100
0000
,  // measure 35
0010
1000
0100
1000
0001
0010
0001
0100
,  // measure 36
0020
0000
0130
0001
1000
0001
0010
0100
,  // measure 37
1000
0000
0010
0000
0001
0000
0010
0000
1000
0001
1000
0000
0010
0000
0100
0000
,  // measure 38
0001
0010
0001
0000
1000
0000
0010
0000
1000
0000
0001
0000
0100
0000
0000
0000
,  // measure 39
0010
0100
0001
0100
0010
1000
0100
0001
,  // measure 40
0100
1000
0001
0010
1000
0100
0001
0010
,  // measure 41
0100
1000
0001
0100
1000
0010
0001
0100
,  // measure 42
1000
0001
0010
0100
1000
0001
1000
0000
,  // measure 43
0010
0100
0001
0100
0010
0010
1000
1000
,  // measure 44
0002
0000
0023
0000
0230
1000
0302
0000
,  // measure 45
1003
0000
0010
0000
0100
0000
0010
0000
1000
0001
1000
0000
0010
0000
0100
0000
,  // measure 46
0002
0000
0023
0001
2030
0000
3002
0000
,  // measure 47
0103
0010
1000
0010
0100
0001
0010
1001
,  // measure 48
0000
0000
0000
0000
,  // measure 49
0000
0000
0000
0000
,  // measure 50
2001
0000
0000
0000
3010
0100
0010
0100
0010
0000
1000
0000
0001
0010
0001
0000
,  // measure 51
0100
0000
0100
0000
0010
1000
0010
1000
0010
0000
1000
0000
0001
0100
0001
0000
,  // measure 52
1000
0000
0001
0000
0100
0001
0100
0001
0100
0000
0010
0000
1000
0001
1000
0000
,  // measure 53
0001
0010
0001
0010
0100
1000
0100
1000
,  // measure 54
0001
1000
0001
0000
0101
0000
0000
0000
0010
0000
0000
0001
0000
0000
1000
0001
,  // measure 55
0000
0000
0000
0000
1100
0000
0000
0000
0001
0000
0000
0100
0000
0000
0010
0100
,  // measure 56
0000
0000
0000
0000
0011
0000
0000
0000
0100
0000
0000
0010
0000
0000
1000
0010
,  // measure 57
0000
0000
0000
0000
1001
0000
0000
0000
0100
0000
0000
0001
0000
0000
1000
0001
,  // measure 58
1000
0000
0000
0000
;
