#TITLE:Bang Pad(Werk Mix);
#SUBTITLE:;
#ARTIST:Oyubi;
#TITLETRANSLIT:;
#SUBTITLETRANSLIT:;
#ARTISTTRANSLIT:;
#GENRE:;
#CREDIT:;
#BANNER:Bang Pad(Werk Mix).png;
#BACKGROUND:;
#LYRICSPATH:;
#CDTITLE:;
#MUSIC:Bang Pad(Werk Mix).ogg;
#OFFSET:0.000000;
#SAMPLESTART:73.500000;
#SAMPLELENGTH:15.000000;
#SELECTABLE:YES;
#BPMS:0.000000=160.000000
;
#STOPS:
;
#BGCHANGES:;
#KEYSOUNDS:;
#ATTACKS:;

//---------------dance-single - ----------------
#NOTES:
     dance-single:
     :
     Beginner:
     3:
     0.153651,0.227111,0.071111,0.035556,0.000000,121.000000,113.000000,8.000000,4.000000,0.000000,0.000000,0.153651,0.227111,0.071111,0.035556,0.000000,121.000000,113.000000,8.000000,4.000000,0.000000,0.000000:
0000
0000
0000
0000
,
0000
0000
0000
0000
,
0000
0000
0000
0000
,
0000
0000
0000
0000
,
0000
0000
0000
0000
,
1000
0000
0000
0000
,
1000
0000
0000
0000
,
0001
0000
0000
0000
,
0001
0000
0000
0000
,
0100
0000
0100
0000
,
0100
0000
0000
0000
,
0010
0000
0010
0000
,
0010
0000
0000
0000
,
1000
0000
1000
0000
,
0100
0000
0000
0000
,
0010
0000
0010
0000
,
0001
0000
0000
0000
,
1000
1000
1000
0000
,
0001
0001
0001
0000
,
1000
0000
0001
0000
,
1001
0000
0000
0000
,
0010
0000
0010
0000
,
0100
0100
0100
0000
,
0001
0000
0001
0000
,
1000
1000
1000
0000
,
1000
0000
1000
0000
,
0001
0001
0001
0000
,
0100
0000
0100
0000
,
1001
0000
0000
0000
,
2000
0000
3000
0000
,
0002
0000
0003
0000
,
1000
0000
1000
0000
,
0001
0000
0001
0000
,
0020
0000
0030
0000
,
0200
0000
0300
0000
,
0010
0000
0010
0000
,
1001
0000
0000
0000
,
1000
0000
1000
0000
,
0010
0000
0010
0000
,
0100
0000
0100
0000
,
0001
0000
0001
0000
,
1000
0000
1000
0000
,
0010
0000
0010
0000
,
0100
0000
0100
0000
,
1001
0000
0000
0000
,
0000
0000
0000
0000
,
0000
0000
0000
0000
,
1000
0000
0000
0000
,
0001
0000
0000
0000
,
0010
0000
0000
0000
,
0010
0000
0000
0000
,
0100
0000
0000
0000
,
0100
0000
0000
0000
,
0010
0000
0010
0000
,
0100
0000
0100
0000
,
0010
0000
0010
0000
,
1001
0000
0000
0000
,
0001
0000
1000
0000
,
0001
0000
1000
0000
,
0001
0000
1000
0000
,
0001
0000
1000
0000
,
0010
0000
0100
0000
,
0010
0000
0100
0000
,
0010
0000
0100
0000
,
1001
0000
0000
0000
,
0001
0000
0010
0000
,
0001
0000
0010
0000
,
0100
0000
1000
0000
,
0100
0000
1000
0000
,
0001
0000
1000
0000
,
0001
0000
1000
0000
,
0010
0000
0100
0000
,
1001
0000
0000
0000
,
1001
0000
0000
0000
;

//---------------dance-single - ----------------
#NOTES:
     dance-single:
     :
     Easy:
     6:
     0.253968,0.356889,0.142222,0.364444,0.000000,200.000000,184.000000,16.000000,41.000000,0.000000,0.000000,0.253968,0.356889,0.142222,0.364444,0.000000,200.000000,184.000000,16.000000,41.000000,0.000000,0.000000:
0000
0000
0000
0000
,
0000
0000
0000
0000
,
0000
0000
0000
0000
,
0000
0000
0000
0000
,
0000
0000
0000
0000
,
1000
1000
0010
0000
,
0001
0001
0010
0000
,
0100
0100
0010
0000
,
0200
0000
0010
0310
,
2000
0000
3001
0001
,
0100
0010
1000
0000
,
0002
0000
1003
1000
,
0020
0000
0100
0130
,
0100
0100
0010
1000
,
0001
0010
0100
0000
,
0010
0010
0100
1000
,
0001
0100
0010
0000
,
0001
0001
0010
0100
,
1000
1000
0010
0100
,
0200
0000
0000
0000
,
0320
0000
0100
0130
,
0110
0100
0010
1000
,
0001
0100
0001
0000
,
0110
0100
0001
0010
,
0100
1000
0100
0000
,
1001
0001
0100
1000
,
0100
0001
1000
0000
,
2000
0000
3002
0000
,
0023
0000
0100
0130
,
0100
0100
0010
0010
,
0100
1000
0001
0000
,
1000
0010
1001
0000
,
0001
0100
1001
0000
,
0010
0010
0100
0100
,
0010
1000
0001
0000
,
2000
0000
3002
0000
,
0203
0000
0010
0310
,
0010
0000
0010
1000
,
0100
0000
0100
0010
,
0001
0000
0001
0100
,
0010
0000
0010
1000
,
0100
1000
0100
1001
,
0010
0001
0010
1001
,
0100
0010
1000
0001
,
0200
0000
0010
0310
,
0000
0000
0000
0000
,
0000
0000
0000
0000
,
0002
0000
0000
0000
,
0203
0000
0010
0310
,
0010
0000
0100
0000
,
0010
0000
0100
0000
,
0001
0000
1000
0000
,
0001
0000
1000
0000
,
0020
0000
0230
0000
,
0302
0000
2003
0000
,
3002
0000
2003
0000
,
3020
0000
0100
0130
,
0002
0000
0023
0000
,
0230
0000
2300
0000
,
3020
0000
0230
0000
,
0302
0000
0023
0000
,
0130
0000
1001
0000
,
0010
0000
1001
0000
,
0100
0000
0110
0000
,
0020
0000
0100
0130
,
0002
0003
1001
0000
,
2000
3000
0110
0000
,
2000
3000
1001
0000
,
0110
0000
1001
0000
,
0002
0000
0023
0000
,
0230
0000
0320
0000
,
0032
0000
2003
0000
,
3002
0000
1000
1003
,
1001
0000
0000
0000
;

//---------------dance-single - ----------------
#NOTES:
     dance-single:
     :
     Medium:
     9:
     0.452064,0.486667,0.240000,0.151111,0.382222,356.000000,329.000000,27.000000,17.000000,0.000000,0.000000,0.452064,0.486667,0.240000,0.151111,0.382222,356.000000,329.000000,27.000000,17.000000,0.000000,0.000000:
0000
0000
0000
0000
,
0000
0000
0000
0000
,
0000
0000
0000
0000
,
0000
0000
0000
0000
,
0000
0000
0000
0000
,
0110
0000
0010
1000
0010
0000
0100
0000
,
0110
0000
0001
0010
0001
0000
0100
0000
,
0010
1000
0001
0100
,
0020
0000
0000
0000
0130
0010
0100
0010
,
1000
0000
0000
0010
0000
0000
1000
0000
0100
0000
0000
0000
0010
0000
0000
0000
,
0001
0010
0001
0000
1000
0000
1001
0000
,
0001
0000
0000
0100
0000
0000
0001
0000
0010
0000
0000
0000
0100
0000
0000
0000
,
2000
0000
0000
0000
3001
1000
0001
1000
,
0010
0000
0100
0000
0001
1000
0001
0000
,
0010
0000
0100
0000
0010
0100
1000
0000
,
0100
0000
0010
0000
0001
1000
0001
0000
,
0100
0000
0010
0000
0100
0010
1000
0000
,
0100
0110
1000
1100
,
0001
0101
0010
0110
,
1000
0000
1000
0000
1000
0000
0001
0000
0001
0000
0001
0000
,
0020
0000
0000
0000
0130
0010
0100
0010
,
0001
0000
1100
0000
0001
0010
0100
0000
,
1000
0000
0001
0000
1000
0010
0100
0000
,
1000
0000
0011
0000
1000
0100
0010
0000
,
0001
0000
1000
0000
0001
0100
0010
0000
,
1000
1010
0001
0011
,
0001
1000
0010
0000
1000
0001
0010
0000
,
0100
0000
0100
0000
0100
0000
0010
0000
0010
0000
0010
0000
,
0200
0000
0000
0000
1300
0001
1000
0001
,
2000
0000
0000
0000
,
3200
0000
0310
0002
0000
0000
0000
0000
,
1003
0010
0010
0000
0110
0000
0001
0000
,
1000
0100
0010
0000
0001
0100
0010
0000
,
2000
0000
0000
0000
,
3002
0000
0103
0020
0000
0000
0000
0000
,
1030
0000
1000
0000
1000
0000
0001
0000
0001
0000
0001
0000
,
0200
0000
0000
0000
0301
1000
0001
1000
,
0010
0110
0001
0011
,
0100
1100
0001
1001
,
0100
0110
1000
1001
,
0001
0100
0010
0000
1000
0100
0010
0000
,
0001
0010
0000
0001
0010
0001
0000
1000
,
0010
1000
0000
0100
1000
0100
0000
0010
,
0001
0010
0000
0001
1000
0001
0000
0100
,
0020
0000
0000
0000
0130
0010
0100
0010
,
0200
0000
0000
0000
,
0000
0000
0000
0000
,
0301
0000
0001
0000
0001
0000
1000
0000
1000
0000
1000
0000
,
0020
0000
0000
0000
0130
0010
0100
0010
,
0100
0000
0000
0000
0100
0000
0001
0000
0000
0000
0001
0000
,
0010
0000
0000
0000
0010
0000
0100
0000
0100
0000
0100
0000
,
1000
0000
0000
0000
1000
0000
0010
0000
0000
0000
0010
0000
,
0100
0000
0100
0000
0100
0000
0010
0000
0010
0000
0010
0000
,
1000
0000
0000
0000
1000
0000
1001
0000
0000
0000
0001
0000
,
0010
0000
0000
0000
0001
0000
1001
0000
0000
0000
1000
0000
,
0001
0000
0100
0000
0010
0000
1000
0000
0100
0000
0010
0000
,
0002
0000
0000
0000
1003
0001
1000
0001
,
1000
0000
1000
0000
1000
0000
0110
0000
0000
0000
0010
0000
,
0001
0000
0001
0000
0001
0000
0110
0000
0000
0000
1000
0000
,
0001
0000
0100
0000
0010
0000
1010
0000
0000
0000
0001
0000
,
1000
0000
0100
0000
0010
0000
0001
0000
1000
0000
0100
0000
,
0110
0000
0000
0000
0001
0000
1001
0000
0000
0000
0100
0000
,
0110
0000
0000
0000
1000
0000
1001
0000
0000
0000
0010
0000
,
0001
0000
1000
0001
1000
0000
0010
0000
0100
0000
0010
0000
,
0200
0000
0000
0000
0310
0100
0010
0100
,
0001
0000
0001
0000
0001
0000
0010
0000
0010
0000
0010
0000
,
0100
0000
0100
0000
0100
0000
1000
0000
1000
0000
1000
0000
,
0001
0000
0001
0000
0100
0000
0010
0000
0010
0000
1000
0000
,
0100
0000
0010
0000
0001
0000
1000
0000
0100
0000
0010
0000
,
0001
0000
0001
0000
0001
0000
1000
0000
1000
0000
1000
0000
,
0010
0000
0010
0000
0010
0000
0100
0000
0100
0000
0100
0000
,
0001
0000
0010
0000
0001
0000
1000
0000
0100
0000
1000
0000
,
0020
0000
0000
0000
0130
0010
0100
0010
,
1000
0000
0000
0000
;

//---------------dance-single - ----------------
#NOTES:
     dance-single:
     :
     Hard:
     13:
     0.706032,0.811111,0.391111,0.088889,0.840000,556.000000,512.000000,44.000000,10.000000,0.000000,0.000000,0.706032,0.811111,0.391111,0.088889,0.840000,556.000000,512.000000,44.000000,10.000000,0.000000,0.000000:
// measure 0
0000
0000
0000
0000
,  // measure 1
0000
0000
0000
0000
,  // measure 2
0000
0000
0000
0000
,  // measure 3
0000
0000
0000
0000
,  // measure 4
0000
0000
0000
0000
,  // measure 5
0011
0000
0000
0000
0100
0000
0010
0000
1000
0000
0100
0000
0010
0100
0000
0000
,  // measure 6
0110
0000
1000
0001
0100
0000
0110
0000
,  // measure 7
1010
0000
0000
0000
0100
0000
0010
0000
0001
0000
0100
0000
0010
0100
0000
0000
,  // measure 8
0020
0000
0000
0000
1030
0001
1000
0001
,  // measure 9
0011
0000
0000
0001
0000
0000
0010
0000
0001
0000
0010
0000
0001
0100
0000
0010
,  // measure 10
0000
1000
0100
0000
1000
0000
0100
0000
1000
0000
0000
0100
0000
1000
0100
0000
,  // measure 11
1100
0000
0000
1000
0000
0000
0100
0000
1000
0000
0100
0000
1000
0010
0000
0100
,  // measure 12
0020
0000
0000
0000
1030
0001
1000
0001
,  // measure 13
0100
0000
0000
0110
0000
0000
0010
0000
1000
0000
0001
0000
0100
0010
0000
0100
,  // measure 14
0000
0010
0100
0000
0001
0000
0010
0000
0100
0000
0000
1000
0000
0001
1000
0000
,  // measure 15
0010
0000
0000
0110
0000
0000
0100
0000
0001
0000
1000
0000
0010
0100
0000
0010
,  // measure 16
0000
0100
0010
0000
1000
0000
0100
0000
0010
0000
0001
1000
0000
0001
1000
0000
,  // measure 17
0010
0100
0101
0000
0010
0100
1100
0000
,  // measure 18
0100
1000
1010
0000
0100
0001
0011
0000
,  // measure 19
0001
0000
0001
0000
1000
0000
0010
0000
0010
0000
0100
0000
,  // measure 20
0002
0000
0000
0000
0013
0100
0010
0100
,  // measure 21
0010
0001
0100
1000
0001
0010
0100
0010
,  // measure 22
1000
0100
0010
0001
1000
1000
0001
0001
,  // measure 23
0100
0001
0010
1000
0001
0100
0010
0100
,  // measure 24
1000
0010
0100
0001
1000
1000
0001
0001
,  // measure 25
1000
0010
1010
0000
0100
0001
0101
0000
,  // measure 26
0010
0001
0011
0000
1000
0100
1100
0000
,  // measure 27
0010
1000
0010
1000
0010
1000
0001
0010
0001
0010
0001
0010
,  // measure 28
0200
0000
0000
0000
1300
0010
1000
0010
,  // measure 29
0100
0000
0000
0101
0000
0000
0001
0000
0100
0000
0001
0100
0001
0000
0010
0000
,  // measure 30
0100
1000
0100
0000
0010
0000
0001
0010
0001
0000
1000
0000
0001
0000
0000
0000
,  // measure 31
0010
0000
0000
1010
0000
0000
1000
0000
0010
0000
1000
0010
1000
0000
0100
0000
,  // measure 32
0010
0001
0010
0000
0100
0000
1000
0000
0010
0100
0010
0000
0100
0000
0000
0000
,  // measure 33
0001
0000
0000
0011
0000
0000
0010
0000
0100
0000
1000
0100
1000
0000
0000
0000
,  // measure 34
0010
0000
0100
0000
0001
0000
1000
0000
0010
0000
0100
0010
0100
0000
0000
0000
,  // measure 35
0001
0000
0010
0000
0100
0000
1000
0000
0001
0000
0010
0000
,  // measure 36
0200
0000
0000
0000
1300
0001
1000
0001
,  // measure 37
0100
0010
0000
0100
0010
1000
0000
0001
,  // measure 38
0010
1000
0000
0010
0001
0100
0000
0001
,  // measure 39
0010
1000
0000
0001
0100
1000
0000
0100
,  // measure 40
0001
0000
1000
0000
0000
0010
1000
0000
0010
0000
0001
0000
0000
0000
0100
0000
,  // measure 41
1000
0001
0000
1000
0100
0001
0000
0100
,  // measure 42
0010
1000
0000
0010
1000
0100
0000
0001
,  // measure 43
0100
1000
0000
0010
0100
0001
0000
1000
,  // measure 44
0200
0000
0000
0000
1300
0001
1000
0001
,  // measure 45
1000
0000
0001
0000
1000
0000
0001
1000
0001
0000
1000
0000
,  // measure 46
0010
0000
0100
0000
0010
0000
0100
0000
0010
0000
0100
0000
,  // measure 47
0010
1000
0010
0000
1000
0000
0001
0000
0100
0000
0001
0000
,  // measure 48
0020
0000
0000
0000
0130
0010
0100
0010
,  // measure 49
0001
0010
0001
0000
0100
0000
0010
1000
0010
0000
0100
0000
,  // measure 50
0010
1000
0001
0000
0100
0000
0110
0000
1010
0000
0011
0000
,  // measure 51
0100
0010
1000
0000
0100
0000
0010
0001
1000
0000
0010
0000
,  // measure 52
0100
0010
1000
0100
0010
0000
0001
0010
0100
1000
0010
0000
,  // measure 53
1000
0010
0100
0000
0010
0000
1010
0000
0001
0000
0010
0000
,  // measure 54
0001
0010
0100
0000
0010
0000
0011
0000
1010
0000
0110
0000
,  // measure 55
1010
0000
0011
0000
0110
0000
0011
0000
0110
0000
1100
0000
,  // measure 56
2000
0000
0000
0000
3010
0100
0010
0100
,  // measure 57
0001
0010
0100
0010
0001
0000
1000
0010
0100
0010
1000
0000
,  // measure 58
0001
0100
0010
0100
0001
0000
1000
0100
0010
0100
1000
0000
,  // measure 59
0001
0100
1000
0100
0001
0000
1000
0100
0001
0100
1000
0000
,  // measure 60
0100
0010
0001
0100
0010
1000
0100
0010
0001
0100
0010
1000
,  // measure 61
1010
0000
1000
0010
1000
0000
0011
0000
0001
0010
0001
0000
,  // measure 62
0101
0000
0001
0100
0001
0000
1100
0000
1000
0100
1000
0000
,  // measure 63
1001
0000
0100
0010
0001
0000
0011
0000
1010
0000
0101
0000
,  // measure 64
2000
0000
0000
0000
3100
0010
0100
0010
,  // measure 65
0001
0100
0010
1000
0010
0000
1000
0100
0010
0001
0010
0000
,  // measure 66
0100
1000
0001
0100
0010
0000
0100
0001
0010
0100
1000
0000
,  // measure 67
0001
0100
0001
0010
1000
0000
0010
0001
0100
1000
0100
0000
,  // measure 68
0010
1000
0100
0001
0100
1000
0001
0100
1000
0100
0001
1000
,  // measure 69
0010
1000
0010
1000
0001
0010
1000
0010
0001
0010
0001
0100
,  // measure 70
1000
0100
0001
0010
1000
0010
0001
0100
0001
0100
0010
1000
,  // measure 71
0100
0010
0001
0000
1100
0000
0101
0000
0110
0000
1001
0000
,  // measure 72
2000
0000
0000
0000
0000
0000
0000
0000
3001
0100
0001
0000
1000
0100
1000
0000
,  // measure 73
0010
0000
0000
0000
;

//---------------dance-double - ----------------
#NOTES:
     dance-double:
     :
     Easy:
     6:
     0.253968,0.356889,0.142222,0.364444,0.000000,200.000000,184.000000,16.000000,41.000000,0.000000,0.000000,0.253968,0.356889,0.142222,0.364444,0.000000,200.000000,184.000000,16.000000,41.000000,0.000000,0.000000:
00000000
00000000
00000000
00000000
,
00000000
00000000
00000000
00000000
,
00000000
00000000
00000000
00000000
,
00000000
00000000
00000000
00000000
,
00000000
00000000
00000000
00000000
,
00000001
00000001
00000010
00000000
,
00000100
00000100
00001000
00000000
,
00000100
00000100
00010000
00000000
,
00002000
00000000
00010000
00013000
,
00200000
00000000
00310000
00010000
,
10000000
01000000
00010000
00000000
,
00002000
00000000
00013000
00010000
,
00000200
00000000
00000010
00000310
,
00000010
00000001
00000100
00000010
,
00001000
00000100
00010000
00000000
,
00001000
00100000
00010000
01000000
,
00100000
10000000
01000000
00000000
,
10000000
00100000
01000000
00010000
,
00100000
00100000
00001000
00010000
,
00020000
00000000
00000000
00000000
,
00032000
00000000
00010000
00013000
,
00011000
00001000
00010000
00000100
,
00000010
00000001
00000100
00000000
,
00001001
00000001
00000100
00001000
,
00010000
00001000
00100000
00000000
,
10010000
00100000
10000000
01000000
,
00010000
00001000
00010000
00000000
,
00002000
00000000
00023000
00000000
,
00032000
00000000
00010000
00013000
,
00010000
00010000
00000100
00000100
,
00000010
00000001
00001000
00000000
,
00000010
00000100
00000110
00000000
,
00001000
00010000
00011000
00000000
,
00001000
00001000
00010000
00010000
,
00100000
10000000
00010000
00000000
,
20000000
00000000
30020000
00000000
,
00230000
00000000
00001000
00301000
,
00010000
00000000
00001000
00000100
,
00000001
00000000
00000100
00000010
,
00010000
00000000
00001000
00100000
,
00010000
00000000
00100000
00010000
,
10000000
00100000
01000000
01100000
,
00010000
00100000
00010000
00011000
,
00001000
00000100
00000010
00001000
,
00000002
00000000
00001000
00001003
,
00000000
00000000
00000000
00000000
,
00000000
00000000
00000000
00000000
,
00002000
00000000
00000000
00000000
,
00003020
00000000
00000100
00000130
,
00000100
00000000
00000001
00000000
,
00000010
00000000
00000100
00000000
,
00001000
00000000
00000100
00000000
,
00010000
00000000
00001000
00000000
,
00020000
00000000
00032000
00000000
,
00203000
00000000
02300000
00000000
,
23000000
00000000
30200000
00000000
,
02300000
00000000
00100000
03100000
,
00020000
00000000
00230000
00000000
,
02300000
00000000
03200000
00000000
,
00302000
00000000
00023000
00000000
,
00032000
00000000
00003200
00000000
,
00000310
00000000
00000110
00000000
,
00001000
00000000
00011000
00000000
,
01000000
00000000
01100000
00000000
,
20000000
00000000
00010000
30010000
,
00200000
00300000
00011000
00000000
,
00000200
00000300
00011000
00000000
,
00200000
00300000
00011000
00000000
,
01100000
00000000
10010000
00000000
,
20000000
00000000
32000000
00000000
,
03020000
00000000
00032000
00000000
,
00003200
00000000
00000302
00000000
,
00002003
00000000
00000001
00003001
,
00001001
00000000
00000000
00000000
;

//---------------dance-double - ----------------
#NOTES:
     dance-double:
     :
     Medium:
     9:
     0.438095,0.454222,0.231111,0.168889,0.355556,345.000000,319.000000,26.000000,19.000000,0.000000,0.000000,0.438095,0.454222,0.231111,0.168889,0.355556,345.000000,319.000000,26.000000,19.000000,0.000000,0.000000:
00000000
00000000
00000000
00000000
,
00000000
00000000
00000000
00000000
,
00000000
00000000
00000000
00000000
,
00000000
00000000
00000000
00000000
,
00000000
00000000
00000000
00000000
,
11000000
00000000
10000000
01000000
00100000
00000000
00010000
00000000
,
00011000
00000000
00001000
00000100
00000010
00000000
00000100
00000000
,
00000001
00000010
00000100
00001000
,
00000002
00000000
00000000
00000000
00000103
00000010
00000100
00000010
,
00001000
00000000
00000000
00000010
00000000
00000000
00000100
00000000
00000001
00000000
00000000
00000000
00000010
00000000
00000000
00000000
,
00000001
00000100
00001000
00000000
00010000
00000000
00011000
00000000
,
00100000
00000000
00000000
00010000
00000000
00000000
01000000
00000000
00100000
00000000
00000000
00000000
10000000
00000000
00000000
00000000
,
00020000
00000000
00000000
00000000
10030000
00010000
10000000
00010000
,
01000000
00000000
00100000
00000000
10000000
00100000
01000000
00000000
,
00100000
00000000
01000000
00000000
00010000
00100000
01000000
00000000
,
10000000
00000000
01000000
00000000
00010000
00001000
00010000
00000000
,
00001000
00000000
00000100
00000000
00000010
00000100
00000001
00000000
,
00000010
00000011
00000100
00001100
,
00010000
00011000
00100000
01100000
,
20000000
00000000
30020000
00000000
,
00230000
00000000
00000000
00000000
01300000
00100000
01000000
00100000
,
00010000
00000000
11000000
00000000
10000000
01000000
00010000
00000000
,
00001000
00010000
00000100
00000010
,
00000001
00000000
00000011
00000000
00000001
00000010
00001000
00000000
,
00010000
00001000
00100000
01000000
,
00100000
01100000
00010000
00110000
,
00001000
00011000
00000100
00000110
,
00000001
00000000
00000001
00000000
00000001
00000000
00001000
00000000
00001000
00000000
00001000
00000000
,
00000020
00000000
00000000
00000000
00000130
00000010
00000100
00000010
,
00000200
00000000
00000000
00000000
,
00000302
00000000
00000013
00000200
00000000
00000000
00000000
00000000
,
00001300
00000010
00000010
00000000
00001100
00000000
00000100
00000000
,
00010000
00001000
00100000
00000000
00010000
01000000
00100000
00000000
,
20000000
00000000
00000000
00000000
,
32000000
00000000
03100000
00020000
00000000
00000000
00000000
00000000
,
00130000
00000000
00100000
00000000
00100000
00000000
00001000
00000000
00001000
00000000
00001000
00000000
,
00020000
00000000
00000000
00000000
00031000
00010000
00001000
00010000
,
00000100
00001100
00000010
00000110
,
00010000
00011000
01000000
00110000
,
10000000
10100000
01000000
01100000
,
10000000
00100000
10000000
00000000
00010000
00100000
00010000
00000000
,
10000000
00010000
00000000
01000000
00100000
10000000
00000000
01000000
,
00010000
00001000
00000000
00010000
00001000
00000010
00000000
00000001
,
00000100
00001000
00000000
00000100
00001000
00010000
00000000
00001000
,
00020000
00000000
00000000
00000000
00031000
00010000
00001000
00010000
,
00002000
00000000
00000000
00000000
,
00000000
00000000
00000000
00000000
,
00013000
00000000
00010000
00000000
00010000
00000000
00001000
00000000
00001000
00000000
00001000
00000000
,
00000200
00000000
00000000
00000000
00000310
00000100
00000010
00000100
,
00000001
00000000
00000000
00000000
00000010
00000000
00000001
00000000
00000000
00000000
00000001
00000000
,
00000010
00000000
00000000
00000000
00000010
00000000
00000100
00000000
00001000
00000000
00000100
00000000
,
00001000
00000000
00000000
00000000
00000100
00000000
00010000
00000000
00000000
00000000
00001000
00000000
,
00010000
00000000
00010000
00000000
00010000
00000000
00001000
00000000
00001000
00000000
00001000
00000000
,
00100000
00000000
00000000
00000000
00100000
00000000
00110000
00000000
00000000
00000000
00000000
00000000
,
10000000
00000000
00000000
00000000
00100000
00000000
01100000
00000000
00000000
00000000
00000000
00000000
,
10000000
00000000
01000000
00000000
00010000
00000000
00001000
00000000
00010000
00000000
00001000
00000000
,
00000200
00000000
00000000
00000000
00000310
00000100
00000010
00000100
,
00000001
00000000
00000001
00000000
00000001
00000000
00001000
00000000
00000000
00000000
00001000
00000000
,
00000100
00000000
00000100
00000000
00000100
00000000
00010000
00000000
00000000
00000000
00010000
00000000
,
00001000
00000000
00001000
00000000
00001000
00000000
00010000
00000000
00000000
00000000
00001000
00000000
,
00010000
00000000
01000000
00000000
10000000
00000000
00100000
00000000
01000000
00000000
00010000
00000000
,
10010000
00000000
00000000
00000000
00100000
00000000
00101000
00000000
00000000
00000000
00001000
00000000
,
00011000
00000000
00000000
00000000
00000010
00000000
00001010
00000000
00000000
00000000
00000100
00000000
,
00000010
00000000
00000100
00000010
00000100
00000000
00000010
00000000
00001000
00000000
00000001
00000000
,
00002000
00000000
00000000
00000000
00003001
00001000
00000001
00001000
,
00000001
00000000
00000001
00000000
00000001
00000000
00000010
00000000
00000010
00000000
00000010
00000000
,
00000100
00000000
00000100
00000000
00000100
00000000
00001000
00000000
00001000
00000000
00001000
00000000
,
00000100
00000000
00000100
00000000
00010000
00000000
00001000
00000000
00001000
00000000
01000000
00000000
,
00100000
00000000
10000000
00000000
00010000
00000000
00100000
00000000
01000000
00000000
10000000
00000000
,
00100000
00000000
00100000
00000000
01000000
00000000
00001000
00000000
00001000
00000000
00010000
00000000
,
00000100
00000000
00000100
00000000
00000010
00000000
00000001
00000000
00000001
00000000
00001000
00000000
,
00000001
00000000
00000100
00000000
00001000
00000000
00010000
00000000
01000000
00000000
10000000
00000000
,
00200000
00000000
00000000
00000000
01300000
00100000
01000000
00100000
,
10000000
00000000
00000000
00000000
;

//---------------dance-double - ----------------
#NOTES:
     dance-double:
     :
     Hard:
     13:
     0.706032,0.811111,0.382222,0.124444,0.848889,556.000000,513.000000,43.000000,14.000000,0.000000,0.000000,0.706032,0.811111,0.382222,0.124444,0.848889,556.000000,513.000000,43.000000,14.000000,0.000000,0.000000:
00000000
00000000
00000000
00000000
,
00000000
00000000
00000000
00000000
,
00000000
00000000
00000000
00000000
,
00000000
00000000
00000000
00000000
,
00000000
00000000
00000000
00000000
,
10100000
00000000
00000000
00000000
01000000
00000000
00100000
00000000
10000000
00000000
01000000
00000000
00100000
00010000
00000000
00000000
,
00011000
00000000
00001000
00000100
00000001
00000000
00000011
00000000
,
00001010
00000000
00000000
00000000
00000100
00000000
00000010
00000000
00000001
00000000
00000100
00000000
00000010
00001000
00000000
00000000
,
00000200
00000000
00000000
00000000
00010300
00001000
00010000
00001000
,
00011000
00000000
00000000
00001000
00000000
00000000
00100000
00000000
00010000
00000000
01000000
00000000
00100000
01000000
00000000
00100000
,
00000000
10000000
01000000
00000000
10000000
00000000
01000000
00000000
00010000
00000000
00000000
00001000
00000000
00010000
00001000
00000000
,
00011000
00000000
00000000
00010000
00000000
00000000
00000100
00000000
00001000
00000000
00000010
00000000
00000100
00000010
00000000
00000100
,
00000020
00000000
00000000
00000000
00000130
00000010
00000100
00000010
,
00001000
00000000
00000000
00001001
00000000
00000000
00000001
00000000
00000100
00000000
00001000
00000000
00010000
00001000
00000000
00010000
,
00000000
00001000
00010000
00000000
01000000
00000000
10000000
00000000
00100000
00000000
00000000
01000000
00000000
00100000
01000000
00000000
,
00010000
00000000
00000000
10010000
00000000
00000000
10000000
00000000
00100000
00000000
00010000
00000000
00001000
00010000
00000000
00001000
,
00000000
00010000
00001000
00000000
00000010
00000000
00000001
00000000
00000100
00000000
00000010
00000100
00000000
00000100
00000010
00000000
,
00000100
00000010
00002000
00000000
00003100
00010000
00002000
00000000
,
00013000
01000000
20000000
00000000
31000000
00010000
00002000
00000000
,
00013000
00000000
00001000
00000000
00010000
00000000
00100000
00000000
10000000
00000000
00010000
00000000
,
02000000
00000000
00000000
00000000
03100000
01000000
00100000
01000000
,
00100000
10000000
01000000
00010000
00001000
00010000
00001000
00000100
,
00000010
00001000
00000001
00000100
00001000
00001000
00010000
00010000
,
01000000
10000000
00010000
01000000
10000000
00010000
00100000
00010000
,
00001000
00000100
00000010
00000100
00000001
00000001
00001000
00001000
,
00000001
00000010
00000011
00000000
00001000
00000100
00001100
00000000
,
00100000
00010000
00110000
00000000
01000000
10000000
11000000
00000000
,
00100000
00010000
00100000
00010000
00100000
00010000
00001000
00000100
00001000
00000100
00001000
00000100
,
00020000
00000000
00000000
00000000
00031000
00010000
00001000
00010000
,
00001000
00000000
00000000
00011000
00000000
00000000
00001000
00000000
00000100
00000000
00000001
00000100
00000001
00000000
00000010
00000000
,
00000100
00001000
00000100
00000000
00000010
00000000
00000100
00001000
00000100
00000000
00010000
00000000
00001000
00000000
00000000
00000000
,
00010000
00000000
00000000
00011000
00000000
00000000
00010000
00000000
00100000
00000000
10000000
00100000
10000000
00000000
01000000
00000000
,
00100000
00010000
00100000
00000000
01000000
00000000
00100000
00010000
00100000
00000000
00001000
00000000
00010000
00000000
00000000
00000000
,
00001000
00000000
00000000
00110000
00000000
00000000
01000000
00000000
10000000
00000000
01000000
10000000
01000000
00000000
00000000
00000000
,
10000000
00000000
01000000
00000000
00010000
00000000
00001000
00000000
00010000
00000000
00001000
00010000
00000100
00000000
00000000
00000000
,
00000100
00000000
00001000
00000000
00000010
00000000
00000001
00000000
00000100
00000000
00001000
00000000
,
00000020
00000000
00000000
00000000
00000130
00000010
00000100
00000010
,
00001000
00000100
00000000
00000010
00000100
00001000
00000000
00000100
,
00001000
00010000
00000000
00100000
00001000
00010000
00000000
00001000
,
00010000
01000000
00000000
10000000
00100000
00010000
00000000
00100000
,
00010000
00000000
00001000
00000000
00000000
00010000
00001000
00000000
00000100
00000000
00000010
00000000
00000000
00000000
00000001
00000000
,
00000010
00000000
00000000
00000000
00001000
00000000
00000001
00000000
00000100
00000000
00001000
00000000
00010000
00001000
00000000
00000000
,
00011000
00000000
00010000
01000000
00100000
00000000
01100000
00000000
,
10010000
00000000
00000000
00000000
10000000
00000000
01000000
00000000
00010000
00000000
00001000
00000000
00010000
00001000
00000000
00000000
,
00020000
00000000
00000000
00000000
00031000
00010000
00001000
00010000
,
00001000
00000000
00000100
00000000
00000010
00000000
00000100
00000010
00000100
00000000
00000010
00000000
,
00001000
00000000
00000001
00000000
00001000
00000000
00000001
00000000
00001000
00000000
00000001
00000000
,
00000010
00000001
00000010
00000000
00000100
00000000
00001000
00000000
00000100
00000000
00010000
00000000
,
00002000
00000000
00000000
00000000
00013000
00100000
00010000
00100000
,
10000000
00100000
10000000
00000000
01000000
00000000
00100000
00010000
00100000
00000000
00001000
00000000
,
00010000
00001000
00010000
00000000
00000100
00000000
00000110
00000000
00000011
00000000
00001010
00000000
,
00000001
00000100
00001000
00000000
00000100
00000000
00000010
00001000
00000100
00000000
00010000
00000000
,
00001000
00010000
00001000
00100000
01000000
00000000
00100000
00010000
10000000
01000000
00100000
00000000
,
00010000
10000000
00100000
00000000
10000000
00000000
10100000
00000000
00010000
00000000
00100000
00000000
,
00001000
00100000
00010000
00000000
00100000
00000000
00011000
00000000
00001100
00000000
00000110
00000000
,
00000011
00000000
00000110
00000000
00001100
00000000
00011000
00000000
00110000
00000000
01010000
00000000
,
20000000
00000000
00000000
00000000
30010000
10000000
00010000
10000000
,
00100000
10000000
00100000
10000000
01000000
00000000
00100000
00010000
00100000
00010000
01000000
00000000
,
00001000
00010000
00001000
00010000
00000100
00000000
00001000
00000100
00001000
00000100
00000010
00000000
,
00000001
00000100
00001000
00000100
00001000
00000000
00010000
00001000
00010000
00001000
00100000
00000000
,
00010000
00100000
01000000
00010000
01000000
10000000
00100000
01000000
00010000
10000000
01000000
10000000
,
11000000
00000000
10000000
00100000
10000000
00000000
00110000
00000000
00010000
00100000
00010000
00000000
,
00011000
00000000
00010000
00001000
00010000
00000000
00001100
00000000
00001000
00000010
00001000
00000000
,
00000101
00000000
00000001
00000100
00000001
00000000
00000011
00000000
00001100
00000000
00000101
00000000
,
00000002
00000000
00000000
00000000
00000103
00000010
00000100
00000010
,
00001000
00000010
00000001
00000010
00001000
00000000
00000100
00000010
00000001
00000100
00001000
00000000
,
00000100
00001000
00010000
00100000
00010000
00000000
00100000
10000000
01000000
00010000
01000000
00000000
,
10000000
01000000
00100000
00010000
10000000
00000000
00010000
00100000
00001000
00010000
00000100
00000000
,
00000010
00000001
00000010
00001000
00000010
00000001
00001000
00000010
00000001
00000010
00001000
00000001
,
00000010
00000100
00000010
00000001
00000100
00001000
00010000
00001000
00000100
00001000
00010000
00100000
,
10000000
00100000
00010000
10000000
01000000
00010000
00100000
10000000
00010000
01000000
10000000
00100000
,
00010000
00001000
00010000
00000000
00011000
00000000
00001100
00000000
00000110
00000000
00000011
00000000
,
00002000
00000000
00000000
00000000
00000000
00000000
00000000
00000000
00003001
00000010
00000001
00000000
00001000
00000100
00001000
00000000
,
00000010
00000000
00000000
00000000
;

//---------------dance-single - ----------------
#NOTES:
     dance-single:
     :
     Challenge:
     17:
     0.961270,1.052444,0.515556,0.062222,1.551111,757.000000,699.000000,58.000000,7.000000,0.000000,0.000000,0.961270,1.052444,0.515556,0.062222,1.551111,757.000000,699.000000,58.000000,7.000000,0.000000,0.000000:
// measure 0
0000
0000
0000
0000
,  // measure 1
0000
0000
0000
0000
,  // measure 2
0000
0000
0000
0000
,  // measure 3
0000
0000
0000
0000
,  // measure 4
0000
0000
0000
0000
,  // measure 5
1001
0000
0000
0000
1000
0000
0010
0000
0100
0000
0100
0000
0001
0010
0000
0000
,  // measure 6
0011
0000
0001
0100
1000
0000
1001
0000
,  // measure 7
0011
0000
0000
0000
0001
0000
0010
0000
0100
0000
1000
0000
0001
1000
0000
0000
,  // measure 8
0010
0100
0010
0100
0010
0100
0010
0100
0001
0000
0001
0000
1000
0000
1000
0000
,  // measure 9
0020
0000
0000
0100
0000
0000
0001
0000
0100
0000
0100
0000
0031
1000
0000
0001
,  // measure 10
0000
1000
0100
0000
1000
0000
1000
0000
0001
0000
0000
0010
0000
0001
0100
0000
,  // measure 11
0010
0000
0100
0000
0010
0000
0100
0000
0000
0010
0000
0000
0000
0000
0000
0000
0000
0000
1000
0000
0000
0000
0000
0000
0100
0000
0000
0000
0000
0000
0010
0000
0000
0000
0000
0000
0001
0000
0000
0100
0000
0000
0000
0000
0000
0001
0000
0000
,  // measure 12
1000
0010
1000
0010
1000
0010
1000
0010
1000
0000
1000
0000
0001
0000
0001
0100
,  // measure 13
0010
0000
0000
0110
0000
0000
0100
0000
0001
0000
0001
0000
1000
0001
0000
1000
,  // measure 14
0000
0100
0010
0000
0100
0000
1000
0000
0001
0000
0000
0011
0000
0010
0100
0000
,  // measure 15
0010
0001
0000
0001
0100
0000
0010
0000
0110
0000
0100
0000
0001
1000
0000
1001
,  // measure 16
0000
0001
0010
0000
0011
0000
0001
0000
1001
0000
1000
0010
0000
0010
1000
0000
,  // measure 17
1100
0000
0000
0000
0101
0000
0000
0000
0001
0000
0010
0000
0001
0100
0000
0110
,  // measure 18
0000
0100
0001
0000
1001
0000
1000
0000
1100
0000
0000
0110
0000
0100
0010
0000
,  // measure 19
0011
0000
0000
0000
0000
0000
0000
0000
0000
1001
0000
0000
0000
0000
0000
0000
0000
0000
1010
0000
0000
0000
0000
0000
1000
0000
0000
0000
0100
0000
0000
0000
0010
0000
0000
0000
0001
0000
0000
0000
0010
0000
0000
0000
0100
0000
0000
0000
,  // measure 20
1000
0001
0010
0100
1000
0100
0010
0001
1000
0000
1000
0000
0010
0000
0010
0000
,  // measure 21
0101
0000
0000
1001
0000
0000
1000
0000
0001
0000
0001
0000
0100
0001
0000
0101
,  // measure 22
0000
0100
0010
0000
1000
0000
1000
0000
0001
0000
0000
0011
0000
0010
0001
0000
,  // measure 23
1001
0000
0000
1100
0000
0000
1010
0000
1000
0000
1000
0000
0001
1000
0000
1010
,  // measure 24
0000
0010
0001
0000
0011
0000
0010
0100
0001
0000
0001
1000
0000
1000
0100
0000
,  // measure 25
0100
0010
0000
0010
0001
0000
1000
0000
1001
0000
0001
0000
0100
0001
0000
1001
,  // measure 26
0000
1000
0100
0000
1000
0000
0010
0000
1010
0000
0000
1001
0000
1000
0001
0000
,  // measure 27
1000
0100
1000
0100
0001
0100
0001
0100
0010
0100
0001
0100
,  // measure 28
0010
0001
0010
0001
1000
0010
1000
0010
0100
0000
0100
0000
1001
0000
0001
0000
,  // measure 29
0200
0000
0000
0010
0000
0000
0010
0000
0320
0000
0000
0000
1000
0000
0000
0000
,  // measure 30
2030
0000
0001
0000
0000
0000
0001
0000
3002
0000
0000
0100
0000
0000
0100
0000
,  // measure 31
0023
0000
0000
1000
0000
0000
1000
0000
0031
0000
1000
0001
1000
0000
0100
0000
,  // measure 32
0010
0100
0010
0000
0001
0000
1000
0000
1001
0000
0000
0101
0000
0000
0110
0000
,  // measure 33
1010
0000
0000
1000
0001
0000
0010
0000
0001
0000
1000
0001
0100
0000
0001
0000
,  // measure 34
0100
0001
0100
0001
1000
0000
0010
0000
1000
0000
0001
1000
0001
0000
0100
0000
,  // measure 35
0101
0000
0000
0000
0000
0000
0000
0000
0000
1001
0000
0000
0000
0000
0000
0000
0000
0000
1100
0000
0000
0000
0000
0000
1000
0000
0000
0000
0100
0000
0000
0000
0010
0000
0000
0000
0001
0000
0000
0000
0100
0000
0000
0000
0010
0000
0000
0000
,  // measure 36
1000
0001
1000
0001
0010
0001
0010
0001
0100
0000
0100
0000
1010
0000
1000
0000
,  // measure 37
0001
0100
1000
0000
1000
0100
0001
0000
,  // measure 38
1000
0010
0001
0000
0001
0010
1000
0000
,  // measure 39
0001
0010
1000
0000
1000
0010
0001
0000
,  // measure 40
1000
0100
0001
0000
0001
0100
1000
0000
,  // measure 41
0110
0000
0000
0000
0001
0000
1000
0000
0100
0000
0010
0000
0100
1000
0000
0000
,  // measure 42
0001
0000
1000
0010
1000
0000
1001
0000
,  // measure 43
0001
0000
0000
0000
0001
0000
0100
0000
0001
0000
1000
0000
0100
1000
0000
0000
,  // measure 44
0001
0010
0100
1000
0001
1000
0100
0010
0001
0000
0001
0000
1010
0000
1000
0000
,  // measure 45
1001
0000
0101
0000
0011
0000
0001
1000
0001
0000
1100
0000
,  // measure 46
1010
0000
1001
0000
0101
0000
0110
0000
0101
0000
0110
0000
,  // measure 47
0100
0001
0100
0000
1100
0000
0110
0000
1010
0000
0011
0000
,  // measure 48
1000
0000
0000
0000
0100
0000
0000
0000
0010
0000
0000
0000
0001
0000
0000
0000
0100
0000
0000
0000
0010
0000
0000
0000
1000
0000
0000
0100
0000
0000
1000
0000
0000
0000
0000
0000
0001
0000
0000
0010
0000
0000
0001
0000
0000
0000
0000
0000
,  // measure 49
0100
0000
0010
0000
0100
0000
0010
0000
0100
0000
0010
0000
0100
0000
0010
0000
0100
0000
0010
0100
0010
0000
0100
0000
,  // measure 50
0001
0000
1000
0000
0001
0000
1000
0000
0001
0000
1000
0000
0001
0000
1000
0000
0001
0000
1000
0000
0001
0000
1000
0001
,  // measure 51
1000
0000
0100
0000
1000
0000
0100
0000
1000
0000
0100
0000
1000
0000
0100
0000
1000
0000
0100
1000
0100
0000
1000
0000
,  // measure 52
0001
0000
0001
0000
0010
0000
0100
0000
1000
0000
0001
0000
1000
0000
0100
0000
0010
0000
0001
0100
0001
0100
0001
0000
,  // measure 53
1000
0000
0001
0000
1000
0000
0001
0000
0100
0000
0001
0000
0100
0000
0001
0000
0010
0000
0001
0010
0001
0000
0010
0000
,  // measure 54
0001
0000
0010
0000
0100
0000
1000
0000
0001
0000
1000
0000
0100
0010
0100
0000
1000
0000
0001
0000
0010
0000
0001
1000
,  // measure 55
0001
0000
1000
0000
0100
0000
0010
0000
0001
0000
1000
0000
0001
0100
0001
0000
1000
0000
0001
0010
0001
0000
0100
0000
,  // measure 56
0001
0010
0100
1000
1000
0100
0010
0001
0010
0001
1000
0001
,  // measure 57
1000
0000
0100
0000
0001
0000
0100
0000
0001
0000
0100
0000
1000
0001
1000
0000
0010
0000
1000
0001
1000
0000
0010
0000
,  // measure 58
1000
0000
0001
0000
0010
0000
0100
0000
0010
0000
0001
0000
0100
0010
0100
0000
0001
0000
1000
0000
0100
0000
0010
0100
,  // measure 59
1000
0000
0010
0000
1000
0000
0010
0000
0100
0000
1000
0000
0100
0010
0100
0000
0010
0000
0100
0010
0100
0000
0001
0000
,  // measure 60
1000
0000
0100
0000
0010
0000
0001
0000
0100
0000
0010
0000
1000
0000
0100
0000
0010
0000
0001
0000
0010
0100
0010
0000
,  // measure 61
0001
0000
0100
0000
0001
0000
0100
0000
1000
0000
0100
0000
1000
0100
1000
0000
0100
0000
0001
0100
0001
0000
1000
0000
,  // measure 62
0010
0000
0100
0000
0001
0000
0100
0000
0010
0000
0001
0000
0010
0001
0010
0000
0100
0000
1000
0000
0100
0000
0010
0000
,  // measure 63
1000
0000
1000
0000
0100
0000
0010
0000
0001
0000
0010
0000
0100
0000
1000
0000
0001
1000
0001
0000
0100
0000
1000
0000
,  // measure 64
0001
0010
1000
0001
0100
1000
0001
0010
1000
0001
0010
0100
,  // measure 65
1000
0000
0100
0000
0001
0000
0100
0000
1000
0000
0001
0000
1000
0000
0100
0000
0010
0000
0001
0100
0001
0000
0010
0000
,  // measure 66
0001
0000
0100
0000
1000
0000
0100
0000
0001
0000
0010
0000
0100
0010
0100
0000
0010
0000
0001
0000
1000
0000
0100
0000
,  // measure 67
1000
0000
0100
0000
0001
0000
0100
0000
1000
0000
0010
0000
0100
0001
0100
0000
0001
0000
0010
0001
0010
0000
0001
0000
,  // measure 68
1000
0000
1000
0000
0100
0000
0001
0000
1000
0000
1000
0000
0010
0000
0001
0000
0100
0000
0010
0000
0100
0000
0001
1000
,  // measure 69
0001
0000
0001
0000
0010
0000
0010
0000
0100
0000
0100
0000
0010
0001
0010
0000
0001
0000
1000
0100
1000
0000
0010
0000
,  // measure 70
0100
0010
0100
0000
0001
0000
1000
0001
1000
0000
0100
0000
0010
0100
1000
0000
0001
0000
0010
0100
0010
0000
0001
0000
,  // measure 71
1000
1000
1000
0001
0010
0100
1000
0100
0010
0001
1000
0001
,  // measure 72
1000
0000
0000
0000
0100
0000
0000
0000
0010
0000
0000
0000
0001
0000
0000
0000
0010
0000
0000
0000
0100
0000
0000
0000
1000
0000
0000
0001
0000
0000
1000
0000
0000
0001
0000
0000
1000
0000
0000
0001
0000
0000
1000
0000
0000
0010
0000
0000
,  // measure 73
0200
1000
0001
0010
,  // measure 74
0300
0000
0000
0000
;
