#TITLE:Baby's Tears (スカイガールズ オープニングテーマ);
#SUBTITLE:;
#ARTIST:小坂りゆ;
#TITLETRANSLIT:Baby's Tears (SKY GIRLS opening theme);
#SUBTITLETRANSLIT:;
#ARTISTTRANSLIT:RIYU KOSAKA;
#GENRE:;
#CREDIT:;
#BANNER:Baby's Tears (SKY GIRLS opening theme).png;
#BACKGROUND:Baby's Tears (SKY GIRLS opening theme)-bg.png;
#LYRICSPATH:;
#CDTITLE:;
#MUSIC:Baby's Tears (SKY GIRLS opening theme).ogg;
#OFFSET:0.000000;
#SAMPLESTART:57.889999;
#SAMPLELENGTH:15.000000;
#SELECTABLE:YES;
#DISPLAYBPM:170.000000;
#BPMS:0.000000=170.212997
,8.000000=169.996994
,227.750000=150.000000
,228.000000=170.039993
,256.000000=163.636002
,258.000000=134.328003
,259.000000=124.999992
;
#STOPS:
;
#BGCHANGES:;
#KEYSOUNDS:;
#ATTACKS:;

//---------------dance-single - ----------------
#NOTES:
     dance-single:
     :
     Beginner:
     2:
     0.163937,0.231035,0.010155,0.000000,0.000000,113.000000,112.000000,1.000000,0.000000,0.000000,0.000000,0.163937,0.231035,0.010155,0.000000,0.000000,113.000000,112.000000,1.000000,0.000000,0.000000,0.000000:
0000
0000
0000
0000
,
0000
0000
0000
0000
,
0000
0000
0000
0000
,
0010
0000
0000
0000
,
0010
0000
0000
0000
,
0100
0000
0000
0000
,
0100
0000
0000
0000
,
1000
0000
0000
0000
,
0010
0000
0000
0000
,
1000
0000
1000
0000
,
0100
0000
0000
0000
,
0001
0000
0001
0000
,
0010
0000
0000
0000
,
1000
0000
0000
0000
,
0001
0000
0000
0000
,
0100
0000
0000
0000
,
1000
0000
1000
0000
,
0100
0000
0000
0000
,
0001
0000
0001
0000
,
0100
0000
0000
0000
,
1000
0000
0000
0000
,
0100
0000
0000
0000
,
0001
0000
0000
0000
,
0010
0000
0010
0000
,
0001
0000
1000
0000
,
0100
0000
0010
0000
,
0001
0000
1000
0000
,
0100
0000
0000
0000
,
0010
0000
0100
0000
,
1000
0000
0010
0000
,
1000
0000
0001
0000
,
0010
0000
0000
0000
,
1000
1000
1000
0000
,
0010
0010
0010
0000
,
0001
0001
0001
0000
,
0100
0100
0100
0000
,
1000
0000
0100
0000
,
0010
0000
1000
0000
,
0100
0000
0001
0000
,
0100
0000
0000
0000
,
1001
0000
0000
0000
,
1000
0000
0010
0000
,
0001
0000
0010
0000
,
0100
0000
0001
0000
,
1000
0000
0010
0000
,
0001
0001
0001
0000
,
1000
1000
1000
0000
,
0001
0000
1000
0000
,
0001
0000
1000
0000
,
0100
0000
0010
0000
,
1000
0000
0100
0000
,
1000
0000
0001
0000
,
0100
0000
1000
0000
,
0001
0001
0001
0000
,
1000
1000
1000
0000
,
0010
0000
0001
0000
,
0100
0000
0001
0000
,
1000
0000
0000
0000
,
0001
0000
0001
0000
,
0100
0000
0000
0000
,
0010
0000
0010
0000
,
0001
0000
0100
0000
,
1000
0000
0100
0000
,
0001
0000
1000
0000
,
0010
0010
0010
0000
,
0100
0000
0000
0000
;

//---------------dance-single - ----------------
#NOTES:
     dance-single:
     :
     Easy:
     4:
     0.271294,0.338936,0.081243,0.142175,0.000000,187.000000,179.000000,8.000000,14.000000,0.000000,0.000000,0.271294,0.338936,0.081243,0.142175,0.000000,187.000000,179.000000,8.000000,14.000000,0.000000,0.000000:
0000
0000
0000
0000
,
0000
0000
0000
0000
,
0000
0000
0000
0000
,
0100
0000
0001
0000
,
0100
0000
1000
0000
,
0010
0000
0100
0000
,
0001
0000
1000
0000
,
2002
0000
0000
3003
,
0100
0000
1000
0000
,
0001
0001
0001
0000
,
0010
0000
0100
0000
,
1000
1000
1000
0000
,
1000
0100
0001
0000
,
0001
0100
1000
0000
,
1001
0000
0000
0100
,
0010
0000
1000
0000
,
0001
0000
1000
0000
,
0010
0100
0001
0000
,
1000
0000
0010
0000
,
0001
0100
1000
0000
,
0001
0000
0100
0000
,
0010
0000
0100
0000
,
1000
0001
0010
0000
,
0100
0000
2002
3003
,
0100
1000
0001
0000
,
0010
1000
0100
0000
,
1000
0010
0001
0000
,
0010
0100
1000
0000
,
0010
1000
0010
0000
,
0001
1000
0100
0000
,
0001
0010
1000
0010
,
0100
0001
1000
0000
,
0001
1000
1001
0000
,
0100
0001
0101
0000
,
0010
1000
1010
0000
,
0001
1000
0001
1000
,
0001
0100
0010
0000
,
0100
1000
0001
0000
,
0010
1000
0001
0000
,
0001
0100
1000
0000
,
2002
0000
0000
3003
,
0001
1000
0100
0001
,
1000
0001
0100
0010
,
0100
1000
0100
0010
,
0001
0010
0100
0000
,
0100
0010
0001
0000
,
0100
0010
1000
0000
,
1000
0010
1000
0000
,
0001
1000
0001
1000
,
0010
0001
0100
1000
,
0001
1000
0100
0010
,
0001
1000
0100
0001
,
0010
1000
0001
0000
,
1000
0001
0100
0000
,
0010
0001
1000
0000
,
0100
0010
1000
0001
,
0010
0001
1000
0000
,
0020
0000
0200
0330
,
0010
0001
1000
0000
,
0002
0000
0200
0303
,
0010
1000
0001
0000
,
1000
0100
0020
0030
,
0001
0100
0020
0030
,
1000
0001
0100
0010
,
1000
0100
0001
0000
,
2002
0000
0000
0000
,
0000
0000
0000
3003
;

//---------------dance-single - ----------------
#NOTES:
     dance-single:
     :
     Medium:
     6:
     0.338029,0.406723,0.233574,0.182797,0.000000,233.000000,210.000000,23.000000,18.000000,0.000000,0.000000,0.338029,0.406723,0.233574,0.182797,0.000000,233.000000,210.000000,23.000000,18.000000,0.000000,0.000000:
0000
0000
0000
0000
,
0000
0000
0000
0000
,
0000
0000
0000
0000
,
0010
0000
0001
0000
,
0010
0100
1000
0000
,
0001
0000
1000
0000
,
0010
1000
0001
0000
,
2002
0000
0000
3003
,
0010
0001
1000
0100
,
0001
0000
0100
1000
,
0001
0000
0010
0000
,
0100
1000
0001
0000
,
1000
0010
0001
0100
,
0001
0010
0100
0000
,
1001
0000
0100
0010
,
0100
0000
1000
0100
,
0001
0010
1000
0000
,
0100
0010
0001
0000
,
1000
0001
0100
0000
,
0001
0010
1000
0100
,
0001
1000
0010
0000
,
0100
0001
0010
0000
,
0010
0001
0100
1000
,
0100
0010
2002
3003
,
0010
1000
0001
0010
,
0100
1000
0010
0001
,
1000
0100
0001
1000
,
0100
0010
1000
0001
,
0100
1000
0100
0010
,
0001
1000
0010
0100
,
0001
0100
1000
0100
,
0010
0001
1000
0110
,
0001
0000
0000
1000
0000
0000
1100
0000
,
0010
0000
0000
0001
0000
0000
1010
0000
,
0100
0000
0000
0001
0000
0000
1001
0000
,
0010
0100
0001
1000
,
0001
0010
0100
0001
,
0010
1000
0001
0010
,
0100
1000
0001
0100
,
0001
0010
1000
0001
,
0100
0010
0100
1001
,
0001
1000
0010
0101
,
1000
0001
0010
1100
,
0010
1000
0010
0100
,
0001
0000
0000
0100
0010
0000
1001
0000
,
0010
0000
0000
0100
0000
0000
1001
0000
,
0100
0000
0000
0001
0000
0000
0110
0000
,
1000
0100
1000
0001
,
0110
0000
0000
1001
0000
0000
0110
0000
,
1000
0001
0010
1100
,
0001
1000
0010
0101
,
0100
1000
0010
0001
,
0100
0000
0000
1000
0001
0000
0110
0000
,
1000
0000
0000
0001
0000
0000
0011
0000
,
0100
0000
0000
0001
0000
0000
1100
0000
,
0010
0000
0000
0100
0000
0000
1001
0000
,
0010
0100
1000
0001
,
0200
0000
0020
0300
,
0230
0302
2003
3000
,
0002
0000
0020
0003
,
0230
2300
3002
0003
,
1000
0010
0200
0300
,
1000
0010
0200
0300
,
1000
0001
0010
0100
,
1000
0010
0001
1000
,
0220
0000
0000
0000
,
0000
0000
0000
0330
;

//---------------dance-single - ----------------
#NOTES:
     dance-single:
     :
     Hard:
     9:
     0.448287,0.474510,0.091398,0.132020,0.010155,309.000000,300.000000,9.000000,13.000000,0.000000,0.000000,0.448287,0.474510,0.091398,0.132020,0.010155,309.000000,300.000000,9.000000,13.000000,0.000000,0.000000:
0000
0000
0000
0000
,
0000
0000
0000
0000
,
0000
0000
0000
0000
,
0010
0000
0001
1000
0000
0001
0100
0000
,
0010
0100
0001
0000
,
1000
0000
0010
0001
0000
1000
0100
0000
,
0010
0001
1000
0010
,
2002
0000
0000
3003
,
0010
0000
1000
0000
0001
0100
0001
0000
,
1000
0000
0000
0000
0100
0000
0001
0100
,
1000
0000
0100
0010
0000
0001
0100
0000
,
0010
0001
1000
0000
,
0001
0000
0010
0000
0100
1000
0100
0000
,
1000
0000
0010
1000
0100
0000
0000
0000
,
1001
0000
0000
0000
0100
0000
0010
0100
,
0010
0000
0001
0100
,
1000
0000
0010
1000
0001
0000
0000
0000
,
0100
0000
0010
0100
1000
0000
0000
0000
,
0001
0000
1000
0010
0000
0100
0010
0000
,
1000
0000
0010
0000
0001
0000
0100
0001
,
1000
0000
0000
0001
0010
0000
0000
0001
,
0100
0000
1000
0000
0010
0000
0001
1000
,
0010
0000
1000
0000
0100
0000
1000
0001
,
1000
0010
0202
0303
,
0010
0000
0001
0000
1000
0001
0010
0000
,
0100
0000
0001
0100
0010
0100
1000
0000
,
0001
0000
0010
0000
1000
0010
0001
0000
,
0100
0000
0010
0000
1001
0000
1000
0001
,
0100
0000
1000
0000
0100
0001
0010
0000
,
1000
0000
0001
1000
0010
1000
0100
0000
,
0001
0000
0100
0000
0001
0010
0100
0000
,
0010
0000
1000
0000
0101
0000
0010
0001
,
1000
0000
0100
0001
1000
0000
0100
0000
,
0010
0000
0001
0100
1000
0000
0010
0000
,
0100
0000
0001
1000
0100
0000
1000
0000
,
0010
0000
0100
1000
0010
0000
0001
0010
,
1000
0000
0010
0100
0000
0001
1000
0000
,
0010
0000
0001
0010
0000
1000
0010
0000
,
0100
0000
0001
1000
0000
0100
0010
0100
,
1000
0000
0010
0000
0001
0000
1000
0001
,
0100
0000
0000
0001
0000
0000
1000
0000
0010
0000
1000
0000
0100
0000
0000
0000
,
1010
0000
0101
0000
0010
0000
0100
1000
,
0010
0000
0100
0000
1000
0000
0001
1000
,
0010
0000
0001
0000
0010
0001
0100
0000
,
1000
0000
0001
0100
0010
0000
1001
0000
,
0010
0000
0001
0100
0000
0001
1000
0000
,
0100
0000
0010
0100
0000
1000
0010
0000
,
0001
0000
0100
0010
0000
0100
1000
0000
,
0010
0000
0001
0100
0000
0010
0001
1000
,
0100
0000
0010
0000
0001
0000
1000
0001
,
0010
0000
0100
0000
1000
0000
0010
1000
,
0100
0000
0001
0000
1000
0010
0100
0000
,
0001
0000
0010
0001
1000
0000
0110
0000
,
0001
0000
0010
1000
0000
0001
0010
0000
,
0100
0000
1000
0100
0000
0001
0100
0000
,
0010
0000
0100
1000
0000
0010
0100
0001
,
0010
0000
0000
0000
0100
0000
0010
0000
0001
0000
0000
1000
0000
0000
0010
0000
,
0100
0000
0001
0010
0100
1000
0010
1000
,
0200
2300
3002
0003
,
0010
0000
1000
0001
0100
1000
0100
0001
,
0020
0230
0302
0003
,
1000
0000
0010
0100
0020
0000
0030
0000
,
0001
0000
0010
0100
0020
0000
0030
0000
,
0100
1000
0010
0001
,
0100
0010
0001
1000
0010
0100
0001
1000
,
0200
0000
0000
0000
,
0000
0000
0000
0300
;

//---------------dance-double - ----------------
#NOTES:
     dance-double:
     :
     Easy:
     3:
     0.237926,0.305042,0.050777,0.111709,0.000000,164.000000,159.000000,5.000000,11.000000,0.000000,0.000000,0.237926,0.305042,0.050777,0.111709,0.000000,164.000000,159.000000,5.000000,11.000000,0.000000,0.000000:
00000000
00000000
00000000
00000000
,
00000000
00000000
00000000
00000000
,
00000000
00000000
00000000
00000000
,
00100000
00000000
00010000
00000000
,
00100000
00000000
10000000
00000000
,
01000000
00000000
00100000
00000000
,
00010000
00000000
00001000
00000000
,
00022000
00000000
00000000
00033000
,
00001000
00000000
00000100
00000000
,
00000001
00000000
00000010
00000000
,
00000100
00000000
00000010
00000000
,
00000001
00000000
00000100
00000000
,
00001000
00000000
00010000
00000000
,
00100000
00000000
10000000
00000000
,
10010000
00000000
00000000
00100000
,
01000000
00000000
10000000
00000000
,
00010000
00000000
10000000
00000000
,
00000000
00100000
00010000
00000000
,
10000000
00000000
01000000
00000000
,
00000000
00010000
00001000
00000000
,
00000010
00000000
00000100
00000000
,
00001000
00000000
00000001
00000000
,
00000010
00000000
00001000
00000000
,
00010000
00000000
00022000
00033000
,
00100000
10000000
00010000
00000000
,
01000000
00000000
00100000
00000000
,
10000000
01000000
00010000
00000000
,
00001000
00000000
00010000
00000000
,
01000000
10000000
01000000
00000000
,
00010000
00001000
00010000
00000000
,
00001000
00000100
00000010
00000000
,
00000001
00001000
00000100
00000000
,
00000002
00000000
00000103
00000000
,
00002000
00000000
00013000
00000000
,
00200000
00000000
10300000
00000000
,
00010000
10000000
00010000
00000000
,
00010000
00100000
01000000
00000000
,
00100000
10000000
00010000
00000000
,
01000000
00000000
00010000
00000000
,
00001000
00010000
00001000
00000000
,
00022000
00000000
00000000
00033000
,
00000010
00001000
00000100
00000000
,
00001000
00000001
00000010
00000000
,
00000010
00001000
00000010
00000100
,
00001000
00010000
00001000
00000000
,
00100000
01000000
00010000
00000000
,
00100000
01000000
10000000
00000000
,
00100000
00000000
01000000
00000000
,
00010000
10000000
00010000
10000000
,
00100000
00010000
00001000
00000000
,
00000010
00000001
00000100
00000000
,
00000001
00001000
00000010
00000001
,
00000100
00001000
00000001
00000000
,
00000001
00000100
00001000
00000000
,
00010000
01000000
10000000
00000000
,
00100000
01000000
10000000
00010000
,
01000000
00010000
10000000
00000000
,
01000000
00000000
00010000
00000000
,
00001000
00000010
00000001
00000000
,
00001000
00000000
00000010
00000000
,
00000100
00001000
00000001
00000000
,
00001000
00000010
00000100
00000000
,
00001000
00010000
01000000
00000000
,
00010000
00100000
01000000
10000000
,
00100000
00010000
00001000
00000000
,
00022000
00000000
00000000
00000000
,
00000000
00000000
00000000
00033000
,
00000000
00000000
00000000
00000000
;

//---------------dance-double - ----------------
#NOTES:
     dance-double:
     :
     Medium:
     5:
     0.319169,0.406723,0.132020,0.101554,0.000000,220.000000,207.000000,13.000000,10.000000,0.000000,0.000000,0.319169,0.406723,0.132020,0.101554,0.000000,220.000000,207.000000,13.000000,10.000000,0.000000,0.000000:
00000000
00000000
00000000
00000000
,
00000000
00000000
00000000
00000000
,
00000000
00000000
00000000
00000000
,
00100000
00000000
00010000
00000000
,
00100000
01000000
10000000
00000000
,
00010000
00000000
10000000
00000000
,
00100000
00010000
00001000
00000000
,
00022000
00000000
00000000
00033000
,
00000010
00000001
00001000
00000100
,
00000001
00000000
00000100
00001000
,
00000001
00000000
00000010
00000000
,
00000100
00001000
00000001
00000000
,
00000100
00001000
00010000
01000000
,
10000000
00100000
01000000
00000000
,
10010000
00000000
01000000
00100000
,
01000000
00000000
10000000
00000000
,
00010000
00100000
10000000
00000000
,
01000000
00100000
00010000
00000000
,
10000000
00010000
01000000
00000000
,
00010000
00100000
10000000
01000000
,
00010000
10000000
00100000
00000000
,
00010000
00001000
00000010
00000000
,
00001000
00000001
00000100
00001000
,
00000100
00000010
00002002
00003003
,
00000010
00001000
00000001
00000010
,
00000100
00001000
00010000
00100000
,
10000000
01000000
00010000
10000000
,
01000000
00100000
10000000
00010000
,
01000000
10000000
01000000
00010000
,
00001000
00100000
00001000
01000000
,
00010000
00001000
00000100
00000001
,
00000010
00000001
00001000
00000110
,
00000001
00000010
00000100
00001100
,
00000010
00010000
00001000
00011000
,
01000000
00010000
00100000
10010000
,
00100000
01000000
00010000
10000000
,
01000000
00010000
00001000
00000010
,
00000001
00000100
00000010
00000100
,
00001000
00010000
00100000
10000000
,
00010000
00100000
00010000
01000000
,
20020000
00000000
00000000
30030000
,
00100000
00010000
00001000
00000010
,
00001000
00010000
00100000
00010000
,
00001000
00000100
00000001
00000010
,
00000100
00001000
00000010
00000101
,
00000010
00000000
00000000
00001000
00000000
00000000
00000100
00000000
,
00000010
00000000
00000000
00000001
00000000
00000000
00000100
00000000
,
00001000
00010000
00100000
10000000
,
00010000
00000000
00000000
10000000
00000000
00000000
01100000
00000000
,
10000000
01000000
00010000
00001000
,
00100000
00001000
01000000
00001000
,
00010000
00000010
00001000
00000100
,
00001000
00000010
00000100
00001001
,
00000010
00000000
00000000
00000100
00000000
00000000
00000001
00000000
,
00000010
00000000
00000000
00000100
00000000
00000000
00001000
00000000
,
00000001
00000100
00001000
00010000
,
00022000
00000000
00000000
00033000
,
01000000
00000000
10000000
00000000
,
00100000
10000000
01000000
00000000
,
00010000
00000000
00001000
00000000
,
00000010
00000001
00000100
00000000
,
00001000
00010000
01000000
00000000
,
00010000
00001000
00000100
00000000
,
00000001
00000010
00001000
00010000
,
00100000
10000000
01000000
00010000
,
00022000
00000000
00000000
00000000
,
00000000
00000000
00000000
00033000
,
00000000
00000000
00000000
00000000
;

//---------------dance-double - ----------------
#NOTES:
     dance-double:
     :
     Hard:
     7:
     0.410567,0.508404,0.182797,0.071088,0.010155,283.000000,265.000000,18.000000,7.000000,0.000000,0.000000,0.410567,0.508404,0.182797,0.071088,0.010155,283.000000,265.000000,18.000000,7.000000,0.000000,0.000000:
00000000
00000000
00000000
00000000
,
00000000
00000000
00000000
00000000
,
00000000
00000000
00000000
00000000
,
00000010
00000000
00000000
00000001
00000000
00000000
00000100
00000000
,
00000010
00000100
00001000
00000000
,
00000001
00000000
00000000
00001000
00000000
00000000
00000100
00000000
,
00000010
00001000
00010000
00000000
,
00022000
00000000
00000000
00033000
,
00100000
00000000
00010000
00000000
10000000
01000000
10000000
00000000
,
00010000
00000000
00000000
00000000
01000000
00000000
10000000
01000000
,
00010000
00000000
00000000
00100000
00000000
00000000
10000000
00000000
,
01000000
10000000
00100000
00000000
,
00010000
00000000
00001000
00000000
00000100
00000001
00000100
00000000
,
00000001
00000010
00000100
00000000
,
00001001
00000000
00000000
00000000
00000100
00000000
00000010
00000100
,
00000010
00000000
00001000
00000000
,
00000001
00000000
00000000
00000010
00000000
00000000
00000001
00000000
,
00000100
00000000
00000010
00000100
00000001
00000000
00000000
00000000
,
00001000
00000000
00000000
00000010
00000000
00000000
00010000
00000000
,
00100000
00000000
10000000
00010000
01000000
00000000
00000000
00000000
,
00010000
00000000
00000000
10000000
00100000
00000000
00000000
10000000
,
01000000
00010000
00100000
10000000
,
00100000
00000000
00010000
00000000
01000000
00000000
10000000
01000000
,
00010000
00001000
00022000
00033000
,
00000010
00000000
00001000
00000000
00000001
00001000
00000010
00000000
,
00000100
00000000
00001000
00000010
00000000
00000100
00000001
00000000
,
00000010
00000000
00001000
00000000
00010000
00001000
00100000
00000000
,
01000000
00000000
00100000
00010000
00000000
10000000
00010000
00000000
,
01000000
00000000
00000000
00100000
01000000
00000000
00000000
10000000
,
01000000
00010000
00100000
00010000
,
10000000
00000000
01000000
00000000
00010000
00001000
00000100
00000000
,
00000010
00000001
00001000
00000110
,
00000001
00000000
00000010
00001000
00000001
00000000
00000100
00000000
,
00000010
00000000
00001000
00000100
00000001
00000000
00000010
00000000
,
00000100
00000000
00001000
00000001
00000100
00000000
00000001
00000000
,
00000010
00001000
00010000
00100000
,
10000000
00000000
00100000
01000000
00000000
10000000
00010000
00000000
,
00100000
00000000
10000000
00100000
00000000
00010000
00100000
00000000
,
01000000
00000000
10000000
00010000
00000000
01000000
00100000
00000000
,
00010000
00100000
10000000
01000000
,
00010000
00000000
00000000
00001000
00000000
00000000
00010000
00000000
00000010
00000000
00001000
00000000
00000100
00000000
00000000
00000000
,
00000011
00000000
00001100
00000000
00000010
00000001
00000100
00000000
,
00001001
00000000
00000110
00000000
00000001
00000100
00001000
00000000
,
00010000
00110000
01000000
10010000
,
00100000
00000000
10000000
01000000
00100000
00000000
10010000
00000000
,
01000000
00000000
00001000
00010000
00000000
00001000
00100000
00000000
,
00001000
00000000
00010000
00000100
00000000
00010000
00000010
00000000
,
00001000
00000000
00000100
00000010
00001000
00000000
00000001
00000000
,
00000010
00000000
00001000
00000100
00000000
00000010
00001000
00000000
,
00000011
00000000
00001100
00000000
00010000
00001000
00010000
00000000
,
00110000
00000000
11000000
00000000
00010000
10000000
00100000
00000000
,
01000000
10010000
00100000
10010000
,
01000000
00000000
00010000
00001000
00010000
00000000
00011000
00000000
,
00001000
00000000
00000010
00000001
00000000
00001000
00000010
00000000
,
00000100
00000000
00000001
00000100
00000000
00001000
00000100
00000000
,
00000010
00000000
00000100
00000001
00000000
00000010
00001000
00000000
,
00010000
00000000
00000000
00000000
01000000
00000000
00100000
00000000
00010000
00000000
00000000
10000000
00000000
00000000
00100000
00000000
,
01000000
00000000
00000000
10000000
00000000
00000000
00100000
00000000
,
01000000
00010000
10000000
00000000
,
01000000
00000000
00000000
00010000
00000000
00000000
00001000
00000000
,
00000010
00000100
00001000
00000000
,
00000001
00000000
00001000
00000100
00000020
00000000
00000030
00000000
,
00001000
00000000
00000001
00000100
00000020
00000000
00000030
00000000
,
00000100
00000001
00000010
00001000
,
00000001
00000100
00001000
00010000
01000000
10000000
00100000
10000000
,
02000000
00000000
00000000
00000000
,
00000000
00000000
00000000
03000000
,
00000000
00000000
00000000
00000000
;

//---------------dance-single - ----------------
#NOTES:
     dance-single:
     :
     Challenge:
     11:
     0.529530,0.598660,0.142175,0.507769,0.020311,365.000000,351.000000,14.000000,50.000000,0.000000,0.000000,0.529530,0.598660,0.142175,0.507769,0.020311,365.000000,351.000000,14.000000,50.000000,0.000000,0.000000:
// measure 0
0000
0000
0000
0000
,  // measure 1
0000
0000
0000
0000
,  // measure 2
0000
0000
0000
0000
,  // measure 3
0200
0000
0000
0301
2000
0000
3020
0000
,  // measure 4
0230
0010
0001
0010
,  // measure 5
0302
0000
0100
0000
0013
1000
0001
1000
,  // measure 6
0010
0000
0100
0010
0100
0000
0001
1000
,  // measure 7
0002
0100
0000
0000
0000
0000
0000
0000
,  // measure 8
0023
0000
2030
0000
3010
0001
0010
0000
,  // measure 9
2000
0000
0000
0000
3010
0000
0100
0001
,  // measure 10
0200
0000
0000
0310
2000
0000
3002
0000
,  // measure 11
2003
0000
3010
0100
0020
0000
2030
0000
,  // measure 12
3002
0203
0320
0230
,  // measure 13
0302
0000
0103
0010
0100
0000
0000
0000
,  // measure 14
1001
0000
0000
0000
0010
0000
0100
0001
,  // measure 15
0200
0000
0001
0000
0301
0000
1000
0010
,  // measure 16
1000
0000
0010
0100
0001
0000
0100
0010
,  // measure 17
1000
0000
0001
0000
0100
0010
0100
0001
,  // measure 18
1000
0000
0001
0100
0000
0100
0010
1000
,  // measure 19
0010
0000
0100
0000
0001
0100
0010
1000
,  // measure 20
0010
0000
0000
0100
0001
0000
0000
0001
,  // measure 21
2000
3020
0230
0320
,  // measure 22
1030
0001
1000
0001
1000
0000
0010
0100
,  // measure 23
0010
1000
0001
1000
0002
0000
0103
0010
,  // measure 24
2000
0000
3010
0100
0001
0100
0020
0000
,  // measure 25
2030
0000
3001
0100
0010
0100
0002
0000
,  // measure 26
1003
0000
0010
0100
0010
1000
0002
0000
,  // measure 27
0203
0000
0310
0000
1001
0000
0100
0010
,  // measure 28
2000
0000
0000
3001
0100
0010
0100
0000
,  // measure 29
0010
0000
1000
0100
0001
0100
1000
0010
,  // measure 30
0100
0000
0001
0000
1000
0010
0100
0010
,  // measure 31
2000
0000
0000
0000
3001
0000
0100
0100
,  // measure 32
0010
1000
0010
0100
0000
0001
0100
0010
,  // measure 33
0100
0000
0010
1000
0002
0000
0203
0000
,  // measure 34
0320
0000
1030
0001
0100
0001
1000
0010
,  // measure 35
0100
0000
0001
0100
0010
0100
0001
0000
,  // measure 36
1001
0000
1000
0010
0100
0010
1000
0000
,  // measure 37
0001
0100
0010
0100
,  // measure 38
0001
0000
0100
0010
0100
0000
0010
1000
,  // measure 39
0010
0100
0001
0100
0001
1000
0001
1000
,  // measure 40
0001
0000
0000
0100
0010
0000
0000
0100
0010
0000
1000
0001
1000
0000
0000
0000
,  // measure 41
1001
0000
0110
0000
1010
0000
1000
0001
,  // measure 42
0100
0000
0001
1000
0010
0000
0100
0010
,  // measure 43
1000
0010
0100
0001
0100
0000
0001
1000
,  // measure 44
0010
0200
0302
2003
,  // measure 45
3001
0100
0010
0100
0000
0001
1000
0010
,  // measure 46
1000
0000
0001
0100
0001
0000
1000
0010
,  // measure 47
0100
0010
1000
0001
0000
0000
0100
0010
,  // measure 48
1000
0010
0100
0001
0100
0001
0100
0010
,  // measure 49
0100
0000
0101
0000
1001
0000
0010
0100
,  // measure 50
0002
0000
1003
0010
0200
0000
0310
1000
,  // measure 51
0001
0101
0110
1010
,  // measure 52
2002
0000
3003
0010
0100
0001
0100
0000
,  // measure 53
0010
1000
0001
1000
0000
0001
0100
0010
,  // measure 54
0100
0000
0010
1000
0000
0001
1000
0001
,  // measure 55
0100
0000
0010
1000
0000
1000
0001
0100
,  // measure 56
0001
0000
0000
0000
0100
0000
0010
0000
1000
0000
0000
1001
0000
0000
0101
0000
,  // measure 57
0010
1000
0100
0001
0100
1000
0010
0100
,  // measure 58
0010
1000
0002
0000
0103
0010
0100
0001
,  // measure 59
2000
0000
0000
0000
3010
0100
0001
0100
,  // measure 60
0010
1000
0100
0010
0001
1000
0001
0100
,  // measure 61
0002
0000
0000
0000
1003
0010
0100
0010
,  // measure 62
2000
0000
0000
0000
3001
0100
0010
0100
,  // measure 63
0002
0000
0000
0000
0103
0010
1000
0010
,  // measure 64
0100
0001
0100
0010
1000
0001
0100
0001
,  // measure 65
2000
0000
3000
0000
;
