#TITLE:BRILLIANT 2U(Orchestra Groove);
#SUBTITLE:;
#ARTIST:NAOKI;
#TITLETRANSLIT:;
#SUBTITLETRANSLIT:;
#ARTISTTRANSLIT:;
#GENRE:;
#CREDIT:;
#BANNER:BRILLIANT 2U(Orchestra Groove).png;
#BACKGROUND:BRILLIANT 2U(Orchestra Groove)-bg.png;
#LYRICSPATH:;
#CDTITLE:;
#MUSIC:BRILLIANT 2U(Orchestra Groove).ogg;
#OFFSET:0.000000;
#SAMPLESTART:27.205999;
#SAMPLELENGTH:15.000000;
#SELECTABLE:YES;
#DISPLAYBPM:150.000000;
#BPMS:0.000000=150.125000
,20.000000=150.065002
;
#STOPS:
;
#BGCHANGES:;
#KEYSOUNDS:;
#ATTACKS:;

//---------------dance-single - ----------------
#NOTES:
     dance-single:
     :
     Beginner:
     4:
     0.173573,0.240643,0.035389,0.000000,0.000000,103.000000,100.000000,3.000000,0.000000,0.000000,0.000000,0.173573,0.240643,0.035389,0.000000,0.000000,103.000000,100.000000,3.000000,0.000000,0.000000,0.000000:
0000
0000
0000
0000
,
0000
0000
0000
0000
,
0000
0000
0000
0000
,
0000
0000
0000
0000
,
0000
0000
0000
0000
,
0000
0000
0000
0000
,
0000
0000
0000
0000
,
0001
0000
1000
0000
,
0001
0000
0000
0000
,
1000
0000
1000
0000
,
0001
0000
0001
0000
,
1000
0000
1000
0000
,
0001
0000
0001
0000
,
0010
0000
0000
0000
,
0100
0000
0100
0100
,
0000
0001
0000
1000
,
0000
0001
0000
1000
,
1000
1000
0000
0000
,
0100
0000
0000
0100
,
0100
0000
0010
0010
,
0000
0001
0001
0001
,
0001
0001
0000
0000
,
0100
0000
0000
0100
,
0100
0000
0010
0010
,
0000
1000
1000
1000
,
1000
0000
1000
0000
,
0100
0100
0100
0000
,
0001
0000
1001
0000
,
0110
0000
0100
0000
,
1000
0000
1000
0000
,
0100
0100
0100
0000
,
0001
0000
1001
0000
,
0100
0100
0100
0000
,
1000
0000
1000
0000
,
0001
0000
0001
0000
,
1000
0000
1000
0000
,
0001
0000
0001
0000
,
0010
0000
0000
0000
,
0100
0000
0100
0100
,
0000
0001
0000
1000
,
0000
0001
0000
1000
,
1000
1000
0000
0000
,
0100
0000
0000
0100
,
0100
0000
0010
0010
,
0000
0001
0001
0001
,
0001
0001
0000
0000
,
0100
0000
0000
0100
,
0100
0000
0010
0010
,
0000
1000
1000
1000
,
1000
0000
1000
0000
,
0100
0000
0100
0100
,
0100
0000
0000
0000
,
0000
0000
0000
0000
;

//---------------dance-single - ----------------
#NOTES:
     dance-single:
     :
     Easy:
     6:
     0.306701,0.391044,0.188739,0.000000,0.005898,182.000000,166.000000,16.000000,0.000000,0.000000,0.000000,0.306701,0.391044,0.188739,0.000000,0.005898,182.000000,166.000000,16.000000,0.000000,0.000000,0.000000:
0000
0000
0000
0000
,
0000
0000
0000
0000
,
0000
0000
0000
0000
,
0000
0000
0000
0000
,
0000
0000
0000
0000
,
0000
0000
0000
0000
,
0000
0000
0000
0000
,
0001
0010
1000
0010
,
0001
0000
0000
0001
0000
0000
0001
0000
0000
0000
0001
0000
0000
0000
0000
0000
,
0010
0000
0010
0000
,
0010
0000
0100
0000
0010
0001
1000
0000
,
0010
0000
0010
0000
,
0001
0100
1000
0100
,
0010
0000
0000
0000
0000
0010
0000
0010
,
0001
1000
0100
0000
0100
0000
0100
0000
,
0001
0001
1000
1000
,
0010
0000
0100
0000
0010
0001
1000
0000
,
0010
0100
0001
0101
,
1000
1100
0010
0100
,
0010
0100
0010
1001
,
0100
0001
1000
0100
,
0010
0100
0010
0011
,
1000
1100
0010
0110
,
0010
0100
0010
1001
,
0100
1000
1000
1000
,
0010
0000
0010
0000
,
0010
0100
0110
0000
,
0010
0000
0010
0000
,
0001
0100
1000
0000
,
0010
0100
0001
0100
,
1000
0100
1001
0000
,
0010
0100
1000
0010
,
0001
0010
0001
0100
,
0010
0000
0010
0000
,
0010
0000
0100
0000
0010
0001
1000
0000
,
0010
0000
0010
0000
,
0001
0100
1000
0100
,
0010
0000
0010
0000
,
0001
1000
0100
0000
0100
0000
0100
0000
,
0001
0001
1000
1000
,
0010
0000
0100
0000
0010
0001
1000
0000
,
0010
0100
0001
0101
,
1000
1100
0010
0100
,
0010
0100
0010
1001
,
0100
0001
1000
0100
,
0010
0100
0010
0011
,
1000
1100
0010
0110
,
0010
0100
0010
1001
,
0000
1000
1000
1000
,
0100
0100
0000
0000
0000
0000
0000
0001
,
0001
0001
0000
0001
0001
0001
0001
1000
,
0001
0000
0000
0000
,
0000
0000
0000
0000
;

//---------------dance-single - ----------------
#NOTES:
     dance-single:
     :
     Medium:
     7:
     0.372423,0.421125,0.401071,0.000000,0.076675,221.000000,187.000000,34.000000,0.000000,0.000000,0.000000,0.372423,0.421125,0.401071,0.000000,0.076675,221.000000,187.000000,34.000000,0.000000,0.000000,0.000000:
0000
0000
0000
0000
,
0000
0000
0000
0000
,
0000
0000
0000
0000
,
0000
0000
0000
0000
,
0000
0000
0000
0000
,
0000
0000
0000
0000
,
0000
0000
0000
0000
,
0001
0010
1000
0010
,
0001
0000
0000
0001
0000
0000
0001
0000
0000
0000
1000
0000
0001
0000
0000
0000
,
0000
0010
0000
0010
,
0011
0000
1100
0000
0010
0001
1000
0000
,
0010
0001
1100
0010
,
0001
0100
1000
0101
,
0010
0000
0000
0000
0000
0010
0000
0010
,
0001
0000
1000
0000
0100
0000
0000
0000
1000
0100
0000
0000
1000
0100
0000
0000
,
0001
0101
1000
1100
,
0010
0000
0100
0000
0010
0001
1000
0000
,
0010
0100
0010
0110
,
0001
1100
1000
0101
,
0010
0000
0000
0100
0000
0000
0010
0000
0000
1000
0000
0000
0001
0000
0100
0000
,
0000
0100
0010
0100
,
0010
0001
0010
0110
,
0010
0001
0100
1000
,
0010
0000
0000
0100
0000
0000
0010
0000
0000
1000
0000
0000
0001
0000
0100
0000
,
0000
1000
1000
1000
,
0100
0010
1100
0101
,
0010
0100
1001
0100
,
0010
1010
0100
1100
,
0001
0100
1000
0100
,
0010
0100
0101
1100
,
1000
0100
1001
0100
,
1000
0001
1010
0101
,
0001
0010
0101
1010
,
0010
0000
0010
0000
,
0011
0000
1100
0000
0001
1000
0100
0000
,
0010
0001
1100
0010
,
0001
0100
1000
0101
,
0010
0000
0010
0000
,
0001
0000
1000
0000
0100
0000
0000
0000
1000
0100
0000
0000
1000
0100
0000
0000
,
0011
0001
1010
1000
,
0010
0000
0100
0000
0001
1000
0100
0000
,
0010
0100
0010
0110
,
1000
0101
0001
1100
,
0010
0000
0000
0100
0000
0000
0010
0000
0000
1000
0000
0000
0001
0000
0100
0000
,
0000
0101
0001
1100
,
0010
0001
0010
0110
,
0010
0001
0100
1000
,
0010
0000
0000
0100
0000
0000
0010
0000
0000
1000
0000
0000
0001
0000
0100
0000
,
0000
1000
1000
1000
,
0100
1000
0000
0000
0000
0000
0000
0100
,
1000
0010
0000
1000
0100
1000
0010
1000
,
0001
0000
0000
0000
;

//---------------dance-single - ----------------
#NOTES:
     dance-single:
     :
     Hard:
     10:
     0.412867,0.451205,0.224128,0.000000,0.064879,245.000000,226.000000,19.000000,0.000000,0.000000,0.000000,0.412867,0.451205,0.224128,0.000000,0.064879,245.000000,226.000000,19.000000,0.000000,0.000000,0.000000:
0000
0000
0000
0000
,
0000
0000
0000
0000
,
0000
0000
0000
0000
,
0000
0000
0000
0000
,
0000
0000
0000
0000
,
0000
0000
0000
0000
,
0000
0000
0000
0000
,
1000
0000
0010
0001
1000
0000
1000
1000
,
0001
0000
0000
0010
0000
0000
0001
0000
0000
0000
0100
0000
1000
0000
0000
0000
,
0000
0001
0010
0100
,
0010
0001
0100
0000
0010
0001
1000
0000
,
0010
0100
0001
0000
1000
0100
0010
0000
,
0001
0100
0100
0000
1000
0100
0100
0000
,
0010
0001
0100
0000
0001
0010
0100
0000
,
0001
1000
0100
0000
1000
0000
0100
0000
,
0001
0010
0001
0000
1000
0100
0001
0000
,
0010
0001
0100
0000
0010
0001
1000
0000
,
1010
0000
0100
0000
0010
0001
0100
0000
,
0001
1100
1000
0101
,
0010
0100
0010
0000
1000
0000
0001
0000
,
1000
0000
0101
0000
0001
0000
1000
0100
,
0010
1010
0010
0110
,
0010
0001
0100
1000
,
0100
0000
1001
0000
0100
0001
1001
0000
,
0010
0000
1000
0100
0001
0100
0010
0000
,
0100
0001
0010
0000
1100
0000
0101
0000
,
0010
0001
0100
0000
1010
0000
0100
0000
,
1100
0010
0011
0110
,
0001
0100
0010
1000
0001
0000
0000
0000
,
0010
0000
0000
0000
0010
0000
0000
0000
0010
1000
0000
0000
0100
0000
0000
0000
,
0010
0000
0000
0000
0010
0000
0000
0000
0010
0001
0000
0000
0100
0000
0000
0000
,
0010
0000
0000
0000
0010
0000
0000
0000
0010
1000
0000
0000
0001
0000
0000
0000
,
0100
0000
0000
0000
0100
0000
0000
0000
0100
1000
0000
0000
0001
0000
0000
0000
,
0010
0101
0010
1100
,
0010
0000
0100
0000
0010
0001
1000
0000
,
0010
0001
1100
0010
,
0001
0100
0100
0000
1000
0100
0001
0000
,
0010
0000
0100
0000
1001
0100
0100
0000
,
0001
1000
0100
0000
1000
0100
0101
0000
,
0001
0010
0001
0000
1000
0100
0001
0000
,
0010
0001
1000
0100
0010
0001
1000
0000
,
0010
0000
0000
0000
0100
0000
0000
0000
0010
1000
0000
0000
0100
0000
0000
0000
,
0010
0000
0000
0000
0100
0000
0000
0000
0010
1000
0000
0000
0100
0000
0000
0000
,
0010
0000
0000
0000
0010
0000
0000
0000
0010
0100
0000
0000
0010
0000
0000
0000
,
1000
0000
0000
0000
1000
0000
0000
0000
1000
0001
0000
0000
0010
0000
0000
0000
,
0010
0000
0000
0000
1000
0000
0000
0000
0010
1000
0000
0000
0001
0000
0000
0000
,
0010
0000
0000
0000
0001
0000
0000
0000
0010
0001
0000
0000
1000
0000
0000
0000
,
0010
0100
0010
0000
1000
0000
0001
0000
,
0010
1000
0001
0000
1000
0000
0100
0000
,
0100
0100
0000
0000
0000
0000
0000
0001
,
0100
1000
0000
0010
0001
0100
1000
0010
,
0100
0000
0000
0000
;

//---------------dance-single - ----------------
#NOTES:
     dance-single:
     :
     Challenge:
     12:
     0.572959,0.571526,0.365682,0.000000,0.005898,340.000000,309.000000,31.000000,0.000000,0.000000,0.000000,0.572959,0.571526,0.365682,0.000000,0.005898,340.000000,309.000000,31.000000,0.000000,0.000000,0.000000:
// measure 0
0000
0000
0000
0000
,  // measure 1
0000
0000
0000
0000
,  // measure 2
0000
0000
0000
0000
,  // measure 3
0000
0000
0000
0000
,  // measure 4
0000
0000
0000
0000
,  // measure 5
0000
0000
0000
0000
,  // measure 6
0000
0000
0000
0000
,  // measure 7
0100
0100
0010
0010
0001
0001
1000
1000
,  // measure 8
0100
0000
0000
0100
0000
0000
0100
0000
0000
0000
0010
0000
1001
0000
0000
0000
,  // measure 9
0010
1000
0100
0001
0010
0001
0100
1000
,  // measure 10
0010
0001
0010
1000
0100
0001
0110
0000
,  // measure 11
0010
0001
0100
1000
0010
1000
0100
0001
,  // measure 12
0010
1000
0010
0001
0100
1000
0110
0000
,  // measure 13
0100
0001
0010
1000
0100
1000
0010
0001
,  // measure 14
0100
1000
0100
0001
0010
1000
0110
0000
,  // measure 15
0100
1000
0010
0001
0100
0001
0010
1000
,  // measure 16
0100
0001
0100
1000
0010
0001
0110
0000
,  // measure 17
1000
0100
1000
0000
0001
0100
0010
0000
,  // measure 18
1000
0000
0001
0000
0100
0010
1000
0001
,  // measure 19
0010
1000
0010
0000
0001
0100
0001
0010
,  // measure 20
0001
1000
0100
1000
0001
0100
0110
0000
,  // measure 21
0001
0100
0001
0000
1000
0100
0010
0000
,  // measure 22
0001
0000
1000
0000
0100
0010
0001
1000
,  // measure 23
0010
0001
0010
0000
1000
0100
1000
0010
,  // measure 24
1000
0001
0100
0001
1000
0100
0110
0010
,  // measure 25
0001
1000
0001
0000
0100
0110
0000
1000
,  // measure 26
0000
0001
1000
1000
0100
0000
0110
0000
,  // measure 27
0001
1000
0001
0000
0100
0110
0000
1000
,  // measure 28
0000
0001
1000
1000
0100
0100
0110
0010
,  // measure 29
0001
0100
1000
0100
0001
0010
0110
0000
,  // measure 30
1000
0100
0001
0100
1000
0010
0110
0000
,  // measure 31
0001
0010
0011
0000
0100
1000
1100
0000
,  // measure 32
0001
0010
0001
0100
1010
0000
0101
0000
,  // measure 33
1000
0100
0001
0010
0001
0100
1000
0010
,  // measure 34
0001
0100
0001
0010
1000
0100
0110
0000
,  // measure 35
0001
0100
1000
0010
1000
0100
0001
0010
,  // measure 36
1000
0100
1000
0010
0001
0100
0110
0000
,  // measure 37
1000
0010
0001
0100
0001
0010
1000
0100
,  // measure 38
0001
0010
0001
0100
1000
0010
0110
0000
,  // measure 39
0001
0010
1000
0100
1000
0010
0001
0100
,  // measure 40
1000
0010
1000
0100
0001
0010
0110
0000
,  // measure 41
0100
0001
0010
0001
0100
1000
0010
0001
,  // measure 42
0100
0001
0010
1000
0100
0010
1001
0000
,  // measure 43
0100
1000
0010
1000
0100
0001
0010
1000
,  // measure 44
0100
1000
0010
0001
0100
0010
1001
0000
,  // measure 45
0010
0001
0100
0001
0010
1000
0100
0001
,  // measure 46
0010
0001
0100
1000
0010
0100
1001
0000
,  // measure 47
0010
1000
0100
1000
0010
0001
0100
1000
,  // measure 48
0010
1000
0100
0001
0010
0100
1001
0000
,  // measure 49
0110
1010
0000
0001
0000
0001
0000
0001
,  // measure 50
0110
0011
0000
0110
1000
0100
0001
0100
,  // measure 51
1001
0000
0000
0000
;

//---------------dance-double - ----------------
#NOTES:
     dance-double:
     :
     Easy:
     6:
     0.315127,0.360964,0.188739,0.000000,0.005898,187.000000,171.000000,16.000000,0.000000,0.000000,0.000000,0.315127,0.360964,0.188739,0.000000,0.005898,187.000000,171.000000,16.000000,0.000000,0.000000,0.000000:
00000000
00000000
00000000
00000000
,
00000000
00000000
00000000
00000000
,
00000000
00000000
00000000
00000000
,
00000000
00000000
00000000
00000000
,
00000000
00000000
00000000
00000000
,
00000000
00000000
00000000
00000000
,
00000000
00000000
00000000
00000000
,
00010000
00100000
10000000
01000000
,
00010000
00000000
00000000
00010000
00000000
00000000
00010000
00000000
00000000
00000000
00010000
00000000
00001000
00000000
00000000
00000000
,
00000000
00000010
00000000
00000100
,
00000010
00000000
00000001
00000000
00000100
00001000
00010000
00000000
,
00100000
00010000
11000000
01010000
,
00010000
00100000
10000000
01000000
,
00100000
00000000
00000000
00000000
00000000
00100000
00000000
00100000
,
01000000
00010000
00001000
00000000
00000100
00000000
00000100
00000000
,
00001000
00010000
00000100
00000001
,
00000010
00000000
00000001
00000000
00000100
00001000
00010000
00000000
,
00100000
01000000
10000000
01000000
,
00010000
00001000
00000010
00000001
,
00000010
00000100
00001000
00011000
,
00000000
01000000
00100000
00010000
,
00100000
01000000
00010000
00011000
,
00001000
01000000
00010000
00000100
,
00000010
00000100
00000010
00001001
,
00000000
00001000
00010000
01000000
,
00000000
00100000
00000000
00100000
,
00100000
01000000
11000000
01010000
,
01000000
00010000
00001000
00000100
,
00001000
00010000
00011000
00000000
,
00000010
00000100
00000001
00000100
,
00001000
00000100
00001001
00000110
,
00000100
00001000
00010000
01000000
,
00010000
00001000
00011000
00000000
,
00000000
00000010
00000000
00000100
,
00000010
00000000
00000001
00000000
00000100
00001000
00010000
00000000
,
00100000
00010000
11000000
01010000
,
00010000
00100000
10000000
01000000
,
00100000
00000000
00100000
00000000
,
01000000
00010000
00001000
00000000
00000100
00000000
00000100
00000000
,
00001000
00010000
00000100
00000001
,
00000010
00000000
00000001
00000000
00000100
00001000
00010000
00000000
,
00100000
01000000
10000000
01000000
,
00010000
00001000
00000010
00000001
,
00000010
00000100
00001000
00011000
,
00000000
01000000
00100000
00010000
,
00100000
01000000
00010000
00011000
,
00001000
01000000
00010000
00000100
,
00000010
00000100
00000010
00001001
,
00000000
00001000
00010000
01000000
,
00000100
00000100
00000000
00000000
00000000
00000000
00000000
00000001
,
00000100
00001000
00000000
00010000
00100000
10000000
01000000
00010000
,
10000000
00000000
00000000
00000000
,
00000000
00000000
00000000
00000000
;

//---------------dance-double - ----------------
#NOTES:
     dance-double:
     :
     Medium:
     8:
     0.375793,0.451205,0.424664,0.000000,0.076675,223.000000,187.000000,36.000000,0.000000,0.000000,0.000000,0.375793,0.451205,0.424664,0.000000,0.076675,223.000000,187.000000,36.000000,0.000000,0.000000,0.000000:
00000000
00000000
00000000
00000000
,
00000000
00000000
00000000
00000000
,
00000000
00000000
00000000
00000000
,
00000000
00000000
00000000
00000000
,
00000000
00000000
00000000
00000000
,
00000000
00000000
00000000
00000000
,
00000000
00000000
00000000
00000000
,
00010000
00100000
10000000
01000000
,
10000000
00000000
00000000
01000000
00000000
00000000
00010000
00000000
00000000
00000000
00001000
00000000
00000100
00000000
00000000
00000000
,
00000000
00000010
00000000
00000010
,
00000011
00000000
00001100
00000000
00000100
00001000
00010000
00000000
,
00100000
00010000
11000000
01010000
,
00010000
00110000
10000000
11000000
,
00100000
00000000
00000000
00000000
00000000
00100000
00000000
00100000
,
01000000
00000000
00010000
00000000
00001000
00000000
00000000
00000000
00000100
00001000
00000000
00000000
00000100
00001000
00000000
00000000
,
00000001
00000101
00001000
00001100
,
00000010
00000000
00000001
00000000
00000100
00001000
00010000
00000000
,
01010000
00001000
00010000
00011000
,
00000010
00001100
00000010
00000101
,
00000010
00000000
00000000
00000100
00000000
00000000
00000010
00000000
00000000
00000100
00000000
00000000
00001000
00000000
00010000
00000000
,
00000000
01000000
00100000
00010000
,
00100000
01000000
00010000
00011000
,
00001000
01000000
00010000
00000100
,
00000010
00000000
00000000
00000100
00000000
00000000
00000010
00000000
00000000
00000100
00000000
00000000
00001000
00000000
00010000
00000000
,
00000000
00001000
00010000
01000000
,
00100000
01000000
11000000
01010000
,
00001000
00010000
01010000
10000000
,
00010000
00001000
00010000
10000000
,
00001000
00000001
00001000
00010000
,
00100000
01000000
00110000
01010000
,
00001010
00001100
00000010
00000100
,
00110000
01010000
00100000
01000000
,
00001010
00001100
00000010
00000100
,
00000000
00000010
00000000
00000010
,
00000011
00000000
00001100
00000000
00000100
00001000
00010000
00000000
,
00100000
00010000
11000000
01010000
,
00010000
00110000
10000000
11000000
,
00100000
00000000
00100000
00000000
,
01000000
00000000
00010000
00000000
00001000
00000000
00000000
00000000
00000100
00001000
00000000
00000000
00000100
00001000
00000000
00000000
,
00000001
00000101
00001000
00001100
,
00000010
00000000
00000001
00000000
00000100
00001000
00010000
00000000
,
00100000
01000000
10000000
01100000
,
00010000
00001000
00000010
00000001
,
00000010
00000000
00000000
00000100
00000000
00000000
00000010
00000000
00000000
00000100
00000000
00000000
00001000
00000000
00010000
00000000
,
00000000
01010000
00010000
11000000
,
00100000
01000000
00010000
00011000
,
00001000
01000000
00010000
00000100
,
00000010
00000000
00000000
00000100
00000000
00000000
00000010
00000000
00000000
00000100
00000000
00000000
00001000
00000000
00010000
00000000
,
00000000
10000000
10000000
10000000
,
01000000
01000000
00000000
00000000
00000000
00000000
00000000
10000000
,
01000000
00010000
00000000
00001000
00000010
00000001
00000100
00001000
,
00010000
00000000
00000000
00000000
,
00000000
00000000
00000000
00000000
;

//---------------dance-double - ----------------
#NOTES:
     dance-double:
     :
     Hard:
     9:
     0.419608,0.451205,0.153351,0.000000,0.023592,249.000000,236.000000,13.000000,0.000000,0.000000,0.000000,0.419608,0.451205,0.153351,0.000000,0.023592,249.000000,236.000000,13.000000,0.000000,0.000000,0.000000:
00000000
00000000
00000000
00000000
,
00000000
00000000
00000000
00000000
,
00000000
00000000
00000000
00000000
,
00000000
00000000
00000000
00000000
,
00000000
00000000
00000000
00000000
,
00000000
00000000
00000000
00000000
,
00000000
00000000
00000000
00000000
,
00100000
00010000
00100000
00000000
00000000
00010000
00000000
00000000
,
10000000
00000000
01000000
00000000
00000000
00010000
00100000
00000000
,
00001000
00000000
00000000
00010000
00000000
00000000
00000100
00000000
00000000
00000000
00000010
00000000
00000001
00000000
00000000
00000000
,
00001000
00000000
00000000
00000100
00000000
00000000
00010000
00000000
00000000
00000000
00001000
00000000
01000000
00000000
00000000
00000000
,
00100000
00000000
00000000
10000000
00000000
00000000
01000000
00000000
00000000
00000000
00100000
00000000
00010000
00000000
00000000
00000000
,
01000000
00000000
00000000
00001000
00000000
00000000
00010000
00000000
00000000
00000000
00000100
00000000
00000000
00000000
00000010
00000000
,
00000001
00000000
00001000
00000000
00000100
00010000
00001000
00000000
,
00100000
00000000
00010000
00000000
10000000
00100000
01000000
00000000
,
00001000
00000000
00010000
00000000
00000100
00000010
00000001
00000000
,
00001000
00000100
00010000
00001000
00100000
00010000
10000000
00000000
,
00100000
01000000
00010000
00100000
00000000
00001000
00010000
00000000
,
00000100
00000010
00000001
00000100
00000000
00000010
00001000
00000000
,
00000100
00010000
00001000
00100000
00010000
00000000
11000000
00000000
,
00100000
00001000
00010000
00000100
00000010
00000000
00001001
00000000
,
00000010
00000100
00010000
00001000
00000000
00100000
01000000
00000000
,
10000000
00010000
01000000
00001000
00000000
00010000
00000100
00000000
,
00000010
00000001
00000100
00000010
00001000
00000000
00011000
00000000
,
00100000
00010000
10000000
01000000
00100000
00000000
10010000
00000000
,
00100000
00000000
00001000
00000000
00010000
00000100
00000000
00000010
,
00000000
00000001
00001000
00000000
00000100
00000000
00010000
00000000
,
00001000
00000000
00100000
00000000
01000000
10000000
00000000
00010000
,
00000000
01000000
00001000
00000000
00010010
00000000
01001000
00000000
,
00010000
00000000
00100000
00000000
01000000
10000000
00000000
00010000
,
00000000
01000000
00001000
00000000
00010000
00000000
00000100
00000000
,
00000010
00000000
00000001
00000000
00000100
00000010
00000000
00001000
,
00000000
00000100
00010000
00000000
00101000
00000000
00010100
00000000
,
00000010
00000000
00000100
00000000
00000001
00001000
00000100
00000000
,
00010000
00000000
00001000
00000000
00100000
01000000
10000000
00000000
,
00010000
00000000
01000000
00000000
00001000
00010000
00000010
00000000
,
00001000
00000000
00000100
00000000
00010000
00001000
00100000
00000000
,
00010000
00000000
10000000
00000000
01000000
00100000
00001000
00000000
,
00010000
00000000
00000100
00000000
00000010
00000001
00000100
00000000
,
00000010
00000000
00010000
00000000
00001000
01000000
00100000
00000000
,
10000000
01000000
00100000
00010000
01000000
00001000
00010000
00000000
,
00000100
00000010
00000001
00000100
00000000
00000010
00001000
00000000
,
00000100
00010000
00000000
00001000
00000000
00100000
01000000
00000000
,
10000000
00100000
01000000
00010000
00100000
00000000
00011000
00000000
,
00000010
00000100
00000001
00001000
00000100
00000000
00011000
00000000
,
00100000
00010000
10000000
01000000
00000000
00100000
00010000
00000000
,
01000000
00001000
00000000
00010000
00000000
00000010
00000100
00000000
,
00000001
00000010
00000100
00010000
00001000
00000000
10010000
00000000
,
00100000
00001000
00010000
00000100
00000010
00000000
00001001
00000000
,
00000010
00010000
00001000
00000000
00100000
01000000
10000000
00000000
,
00010000
01000000
00001000
00010000
00000010
00001000
00000001
00000000
,
00011000
00000000
00000000
00000000
,
00000000
00000000
00000000
00000000
;

//---------------dance-double - ----------------
#NOTES:
     dance-double:
     :
     Challenge:
     12:
     0.583070,0.571526,0.259517,0.000000,0.005898,346.000000,324.000000,22.000000,0.000000,0.000000,0.000000,0.583070,0.571526,0.259517,0.000000,0.005898,346.000000,324.000000,22.000000,0.000000,0.000000,0.000000:
00000000
00000000
00000000
00000000
,
00000000
00000000
00000000
00000000
,
00000000
00000000
00000000
00000000
,
00000000
00000000
00000000
00000000
,
00000000
00000000
00000000
00000000
,
00000000
00000000
00000000
00000000
,
00000000
00000000
00000000
00000000
,
00000010
00000010
00001000
00001000
00010000
00010000
00100000
00100000
,
10000000
00000000
00000000
10000000
00000000
00000000
10000000
00000000
00000000
00000000
00010000
00000000
01100000
00000000
00000000
00000000
,
10000000
00100000
00010000
01000000
00100000
10000000
01000000
00010000
,
00001000
00000010
00000100
00000001
00000100
00001000
00000110
00000000
,
00000001
00000100
00001000
00000010
00000100
00001000
00010000
00100000
,
10000000
01000000
00010000
01000000
00100000
00010000
01100000
00000000
,
00010000
01000000
10000000
00100000
00010000
00001000
00000100
00000010
,
00001000
00000100
00000010
00000001
00000100
00000010
00000110
00000000
,
00001000
00000100
00000001
00000100
00001000
00010000
00100000
10000000
,
01000000
00010000
01000000
10000000
00100000
01000000
01100000
00000000
,
10000000
01000000
00100000
01000000
00010000
10000000
01000000
00010000
,
00001000
00010000
01000000
00100000
00001000
00010000
00000100
00010000
,
00000010
00000100
00000010
00000001
00000010
00001000
00000100
00000001
,
00000100
00001000
00000010
00001000
00000100
00000010
00000110
00000000
,
00000001
00000100
00000010
00000100
00001000
00000001
00000100
00001000
,
00010000
00001000
00000100
00000010
00010000
00001000
01000000
00001000
,
00100000
01000000
00100000
10000000
00100000
00010000
01000000
10000000
,
01000000
00010000
00100000
00010000
01000000
00100000
01100000
00000000
,
10000000
01000000
00100000
00000000
00010000
00001000
00000000
00010000
,
00000000
00001000
00100000
00001000
00010000
00000010
00000100
00000001
,
00001000
00000100
00000010
00000000
00000001
00000100
00000000
00000010
,
00000000
00010000
00000100
00001000
00000100
00000010
00000110
00000000
,
00000001
00000100
00000100
00000010
00000001
00000100
00001000
00010000
,
00001000
00000100
00000010
00010000
00001000
00100000
01000000
10000000
,
00010000
01000000
00100000
10000000
01000000
00010000
00001000
00000010
,
00001000
00010000
01000000
10000000
00100000
01000000
01100000
00000000
,
00100000
10000000
00100000
01000000
00010000
00100000
01000000
00010000
,
00001000
00000100
00000010
00001000
00000100
00000010
00000110
00000000
,
00000010
00000001
00000010
00000100
00001000
00000010
00000100
00001000
,
00010000
01000000
00100000
00010000
01000000
00100000
01100000
00000000
,
10000000
01000000
00100000
01000000
00010000
10000000
01000000
00010000
,
00001000
00000100
00000010
00001000
00000100
00000010
00000110
00000000
,
00000001
00000100
00000010
00000100
00001000
00000001
00000100
00001000
,
00010000
01000000
00100000
00010000
01000000
00100000
01100000
00000000
,
01000000
00100000
10000000
01000000
00100000
00001000
00010000
00000100
,
00000010
00000001
00000100
00000010
00001000
00000100
00000110
00000000
,
00000100
00000010
00000001
00000100
00000010
00010000
00001000
01000000
,
00100000
10000000
01000000
00100000
00010000
01000000
01100000
00000000
,
10000000
01000000
00010000
01000000
00100000
10000000
01000000
00010000
,
00001000
00000100
00000001
00000100
00000010
00001000
00001100
00000000
,
00000001
00000100
00001000
00000100
00000010
00000001
00000100
00001000
,
00010000
01000000
10000000
01000000
00100000
00010000
01010000
00000000
,
01100000
10100000
00000000
01000000
00000000
01000000
00000000
01000000
,
01100000
00101000
00000000
00010000
00001000
00000100
00000001
00000010
,
00000110
00000000
00000000
00000000
,
00000000
00000000
00000000
00000000
;

//---------------dance-couple - ----------------
#NOTES:
     dance-couple:
     :
     Easy:
     5:
     0.271313,0.330884,0.094370,0.000000,0.005898,161.000000,153.000000,8.000000,0.000000,0.000000,0.000000,0.271313,0.330884,0.094370,0.000000,0.005898,161.000000,153.000000,8.000000,0.000000,0.000000,0.000000:
00000000
00000000
00000000
00000000
,
00000000
00000000
00000000
00000000
,
00000000
00000000
00000000
00000000
,
00000000
00000000
00000000
00000000
,
00000000
00000000
00000000
00000000
,
00000000
00000000
00000000
00000000
,
00000000
00000000
00000000
00000000
,
00010001
00100010
10001000
00100010
,
00010001
00000000
00000000
00010001
00000000
00000000
00010001
00000000
00000000
00000000
00010001
00000000
00000000
00000000
00000000
00000000
,
00100010
00000000
00100010
00000000
,
00100010
00000000
01000100
00000000
00100010
00010001
10001000
00000000
,
00100010
00000000
00100010
00000000
,
00010001
01000100
10001000
01000100
,
00100010
00000000
00000000
00000000
00000000
00100010
00000000
00100010
,
00010001
10001000
01000100
00000000
01000100
00000000
01000100
00000000
,
00000001
00010001
00001000
10001000
,
00100010
00000000
01000100
00000000
00100010
00010001
10001000
00000000
,
00000010
01000100
00000010
01000110
,
00000000
10000100
00000000
00010100
,
00100010
00000000
00100010
10011001
,
00000000
01000100
01000100
01000100
,
01000000
00010001
00100000
01100100
,
00000000
00100010
00100000
00100010
,
00100010
01000100
00100010
10011001
,
00000000
10001000
10001000
10001000
,
00100010
00000000
00100010
00000000
,
01000010
00001000
01000100
00000001
,
00100010
00000000
00100010
00000000
,
00010001
01000000
10001000
00100000
,
00100010
00000100
00010001
00000100
,
10001000
01000100
01000100
10011001
,
00100010
01000000
10001000
00100000
,
10001000
00100010
00010001
10011001
,
00100000
00010100
10000000
01000100
,
00100010
00000000
01000100
00000000
00100010
00010001
10001000
00000000
,
00100010
00000001
00101000
00000100
,
00010001
01000100
10001000
01000100
,
00100010
00000000
00100010
00000000
,
00010001
10001000
01000100
00000000
01000100
00000000
01000100
00000000
,
00010001
00010000
10001000
10000001
,
00100010
00000000
01000100
00000000
00100010
00010001
10001000
00000000
,
00100010
00000100
00100010
00000110
,
00100000
00010100
10000000
01000100
,
00100010
01000100
00100010
10011001
,
00000000
10001000
01000100
00010001
,
00100010
00010001
00100010
01101000
,
00000000
00010001
01000100
10001000
,
00100010
01000100
00100010
10011001
,
00000000
10001000
10001000
10001000
,
01000100
01000100
00000000
00000000
00000000
00000000
00000000
00010001
,
00010001
00010001
00000000
00010001
00010001
00010001
00010001
00010001
,
00010001
00000000
00000000
00000000
,
00000000
00000000
00000000
00000000
;

//---------------dance-couple - ----------------
#NOTES:
     dance-couple:
     :
     Medium:
     6:
     0.335349,0.421125,0.283109,0.000000,0.088472,199.000000,175.000000,24.000000,0.000000,0.000000,0.000000,0.338720,0.391044,0.306701,0.000000,0.082573,201.000000,175.000000,26.000000,0.000000,0.000000,0.000000:
00000000
00000000
00000000
00000000
,
00000000
00000000
00000000
00000000
,
00000000
00000000
00000000
00000000
,
00000000
00000000
00000000
00000000
,
00000000
00000000
00000000
00000000
,
00000000
00000000
00000000
00000000
,
00000000
00000000
00000000
00000000
,
00011000
00100010
10000001
00100010
,
00011000
00000000
00000000
00001000
00000000
00000000
00001000
00000000
00000000
00000000
00000001
00000000
00000000
00011000
00000000
00000000
,
00100010
00000000
00100010
00000000
,
00101010
00000000
01000101
00000000
00100010
00011000
10000001
00000000
,
00100010
00011000
10000101
00100010
,
00001000
01000100
00000001
01010100
,
00100010
00000000
00000000
00000000
00000000
00100010
00000000
00100000
,
00011000
00000000
10000001
00000000
01000100
00000000
00000000
00000000
10000100
01000000
00000000
00000000
10000100
01000000
00000000
00000000
,
00011000
01011000
10000001
01010001
,
00100010
00000000
01000100
00000000
00100010
00011000
10000001
00000000
,
00100010
01000100
00100010
01100110
,
00011000
01000101
10000001
01001100
,
00100010
00000000
00000000
01000100
00000000
00000000
00000000
00100010
00000000
00001000
00000000
00000000
10010001
00000000
00000100
00000000
,
10000000
01001100
00011000
10000101
,
00100010
00011000
00100010
01100110
,
00100010
00011000
01000100
10000001
,
00100010
00000000
00000000
01000100
00000000
00000000
00000000
00100010
00000000
10000000
00000000
00000000
00011001
00000000
01000000
00000000
,
00000000
10000001
10000001
10000001
,
01000100
00100010
11000001
01011000
,
00100010
01000100
10011001
00000000
,
11000101
00000000
10100011
01000000
,
00011000
01000100
10011001
00000000
,
00100010
01000100
00011100
10000101
,
10000001
01000100
10011001
00000000
,
10000001
00011000
10100010
01010100
,
00011000
00100010
01010100
10100001
,
00100010
00000000
00100010
00000000
,
00101010
00000000
01000101
00000000
00011000
10000001
01000100
00000000
,
00100010
00011000
11000101
00100010
,
00011000
01000100
10000001
01011000
,
00100010
00000000
00100010
00000000
,
00011000
00000000
10000001
00000000
01000100
00000000
00000000
00000000
10000001
01000100
00000000
00000000
10000001
01000100
00000000
00000000
,
00100010
00011000
01000011
10000001
,
00100010
00000000
01000100
00000000
00011000
10000001
01000100
00000000
,
00100010
01000100
00100010
01100110
,
10000001
01010100
00011000
11000100
,
00100010
00000000
00000000
01000100
00000000
00000000
00000000
00100010
00000000
00001000
00000000
00000000
10010001
00000000
00000100
00000000
,
00000000
01001100
00011000
01000101
,
00100010
00011000
00100010
01100110
,
00100010
00011000
01000100
10000001
,
00100010
00000000
00000000
01000100
00000000
00000000
00000000
00100010
00000000
10000000
00000000
00000000
00011001
00000000
01000000
00000000
,
00000000
10000001
10000001
10000001
,
01000100
10000001
00000000
00000000
00000000
00000000
00000000
01000100
,
10000001
00100010
00000000
10000001
01000100
10000001
00100010
10000001
,
00011000
00000000
00000000
00000000
,
00000000
00000000
00000000
00000000
;

//---------------dance-couple - ----------------
#NOTES:
     dance-couple:
     :
     Hard:
     7:
     0.396016,0.451205,0.224128,0.000000,0.064879,235.000000,216.000000,19.000000,0.000000,0.000000,0.000000,0.396016,0.451205,0.212332,0.000000,0.064879,235.000000,217.000000,18.000000,0.000000,0.000000,0.000000:
00000000
00000000
00000000
00000000
,
00000000
00000000
00000000
00000000
,
00000000
00000000
00000000
00000000
,
00000000
00000000
00000000
00000000
,
00000000
00000000
00000000
00000000
,
00000000
00000000
00000000
00000000
,
00000000
00000000
00000000
00000000
,
10000000
00000000
00000010
00000001
10000000
00000000
00001000
00001000
,
00100000
00000000
00000000
00100000
00000000
00000000
00010000
00000000
00000000
00000000
00000100
00000000
00000000
00001000
00000000
00000000
,
00100000
00000001
00100000
00000100
,
00100010
00010000
01000100
00000000
00100010
00000001
10001000
00000000
,
00100010
01000000
00010001
00000000
10001000
00000100
00100010
00000000
,
00010001
01000100
01000100
00000000
10001000
01000100
01000100
00000000
,
00100010
00010000
01000100
00000000
00010001
00000010
01000100
00000000
,
00010001
10001000
01000100
00000000
10001000
00000000
01000100
00000000
,
00010001
00100010
00010001
00000000
10001000
01000100
00010001
00000000
,
00100010
00010001
01000100
00000000
00100010
00010001
10001000
00000000
,
10101010
00000000
01000100
00000000
00100010
00010001
01000100
00000000
,
00010001
11001100
10001000
01010101
,
00100010
01000100
00100010
00000000
10001000
00000000
00010001
00000000
,
10001000
00000000
01010101
00000000
00010001
00000000
10001000
01000100
,
00100010
10101010
00100010
01100110
,
00100010
00010001
01000100
10001000
,
01000100
00000000
10011001
00000000
01000100
00010001
10011001
00000000
,
00100010
00000000
10001000
01000100
00010001
01000100
00100010
00000000
,
01000100
00010000
00100010
00000000
11000100
00000001
01010010
00000000
,
00101100
00010000
01000101
00000000
10100010
00001000
01000100
00000000
,
11001100
00100010
00110011
01100110
,
00010001
01000100
00100010
10001000
00010001
00000000
00000000
00000000
,
00100010
00000000
00000000
00000000
00100010
00000000
00000000
00000000
00100010
10001000
00000000
00000000
01000100
00000000
00000000
00000000
,
00100010
00000000
00000000
00000000
00100010
00000000
00000000
00000000
00100010
00010001
00000000
00000000
01000100
00000000
00000000
00000000
,
00100010
00000000
00000000
00000000
00100010
00000000
00000000
00000000
00100010
10001000
00000000
00000000
00010001
00000000
00000000
00000000
,
01000100
00000000
00000000
00000000
01000100
00000000
00000000
00000000
01000100
10001000
00000000
00000000
00010001
00000000
00000000
00000000
,
00100010
01010101
00100010
11001100
,
00100010
00000000
01000100
00000000
00100010
00010001
10001000
00000000
,
00100010
00010001
11001100
00100010
,
00010001
01000100
01000100
00000000
10001000
01000100
00010001
00000000
,
00100010
00000000
01000100
00000000
10011001
01000100
01000100
00000000
,
00010001
10001000
01000100
00000000
10001000
01000100
01010101
00000000
,
00010001
00100010
00010001
00000000
10001000
01000100
00010001
00000000
,
00100010
00010001
10001000
01000100
00100010
00010001
10001000
00000000
,
00100010
00000000
00000000
00000000
01000100
00000000
00000000
00000000
00100010
10001000
00000000
00000000
01000100
00000000
00000000
00000000
,
00100010
00000000
00000000
00000000
01000100
00000000
00000000
00000000
00100010
10001000
00000000
00000000
01000100
00000000
00000000
00000000
,
00100010
00000000
00000000
00000000
00100010
00000000
00000000
00000000
00100010
01000100
00000000
00000000
00100010
00000000
00000000
00000000
,
10001000
00000000
00000000
00000000
10001000
00000000
00000000
00000000
10001000
00010001
00000000
00000000
00100010
00000000
00000000
00000000
,
00100010
00000000
00000000
00000000
10001000
00000000
00000000
00000000
00100010
10001000
00000000
00000000
00010001
00000000
00000000
00000000
,
00100010
00000000
00000000
00000000
00010001
00000000
00000000
00000000
00100010
00010001
00000000
00000000
10001000
00000000
00000000
00000000
,
00100010
01000100
00100010
00000000
10001000
00000000
00010001
00000000
,
00100010
10001000
00010001
00000000
10001000
00000000
01000100
00000000
,
01000100
01000100
00000000
00000000
00000000
00000000
00000000
00010001
,
01000100
10001000
00000000
00100010
00010001
01000100
10001000
00100010
,
01000100
00000000
00000000
00000000
,
00000000
00000000
00000000
00000000
;

//---------------dance-solo - ----------------
#NOTES:
     dance-solo:
     :
     Easy:
     4:
     0.294905,0.391044,0.188739,0.000000,0.000000,175.000000,159.000000,16.000000,0.000000,0.000000,0.000000,0.294905,0.391044,0.188739,0.000000,0.000000,175.000000,159.000000,16.000000,0.000000,0.000000,0.000000:
000000
000000
000000
000000
,
000000
000000
000000
000000
,
000000
000000
000000
000000
,
000000
000000
000000
000000
,
000000
000000
000000
000000
,
000000
000000
000000
000000
,
000000
000000
000000
000000
,
000010
000100
000001
010000
,
010000
010000
010000
000000
,
000100
000000
000100
000000
,
000100
000000
001000
000000
000010
100000
001000
000000
,
000100
000000
000100
000000
,
000001
001000
100000
001000
,
000100
000000
000010
000010
,
000010
000000
001000
001000
,
000001
000001
100000
100000
,
000100
000000
001000
000000
000010
100000
001000
000000
,
000100
000001
100000
001010
,
000100
100010
010000
000001
,
000100
001000
000010
000101
,
010000
000010
100000
000100
,
001000
010000
001000
100100
,
000010
010001
001000
000101
,
001000
000100
001000
100001
,
001000
010000
010000
010000
,
000100
000000
000100
000000
,
000100
100000
001010
000000
,
000100
000000
000100
000000
,
000001
100000
001000
000000
,
010000
001000
000001
001000
,
100000
001000
010001
000000
,
000100
001000
000010
010000
,
001000
000100
000001
001000
,
000100
000000
000100
000000
,
000010
000000
100000
000000
000100
010000
001000
000000
,
000100
000000
000100
000000
,
000001
001000
100000
001000
,
010000
000000
010000
000000
,
000001
000100
000010
000000
000010
000000
000010
000000
,
100000
100000
000100
000100
,
001000
000000
000001
000000
000100
001000
010000
000000
,
000100
100000
000001
001100
,
100000
011000
000001
001000
,
000100
001000
000100
100001
,
001000
000001
100000
001000
,
010000
000001
100000
001010
,
100000
011000
000001
100010
,
001000
000100
001000
100001
,
000000
010000
010000
010000
,
000010
000000
000100
000100
,
000100
000000
001000
001000
,
001000
000000
000000
000000
;

//---------------dance-solo - ----------------
#NOTES:
     dance-solo:
     :
     Medium:
     6:
     0.365682,0.391044,0.401071,0.000000,0.058981,217.000000,183.000000,34.000000,0.000000,0.000000,0.000000,0.365682,0.391044,0.401071,0.000000,0.058981,217.000000,183.000000,34.000000,0.000000,0.000000,0.000000:
000000
000000
000000
000000
,
000000
000000
000000
000000
,
000000
000000
000000
000000
,
000000
000000
000000
000000
,
000000
000000
000000
000000
,
000000
000000
000000
000000
,
000000
000000
000000
000000
,
000001
000100
100000
000100
,
000010
000000
000000
000010
000000
000000
000010
000000
000000
000000
010000
000000
000000
000001
000000
000000
,
000000
000100
000000
000100
,
010010
000000
100100
000000
001000
000010
100000
000000
,
001000
000001
101000
010000
,
000001
001000
000100
100010
,
001000
000000
000000
000000
000000
000100
000000
000100
,
000001
010000
001000
000000
100000
000000
100000
000000
,
000001
001010
100000
001100
,
010000
000000
000001
000000
000100
001000
100000
000000
,
000100
001000
000010
100001
,
001000
010001
000100
001010
,
100000
000000
000000
000001
000000
000000
000100
000000
000000
001000
000000
000000
010000
000000
000001
000000
,
000000
001000
000100
001000
,
000100
100000
000010
001100
,
100000
001000
010000
000001
,
000100
000000
000000
001000
000000
000000
010000
000000
000000
000001
000000
000000
001000
000000
000100
000000
,
000000
100000
100000
100000
,
001000
010000
100001
001010
,
100000
001000
100001
001000
,
000100
100001
010000
001100
,
000001
001000
000010
100000
,
000100
010000
000110
100001
,
001000
000100
100001
001000
,
010000
000001
100010
010100
,
000010
000100
100001
011000
,
000100
000000
000100
000000
,
010001
000000
100010
000000
010000
001000
000100
000000
,
000001
100000
001100
000010
,
100000
001000
010000
000101
,
001000
000000
001000
000000
,
000100
100000
001000
000000
010000
000000
010000
000000
,
000101
100000
001010
000001
,
000100
000000
001000
000000
100000
000001
001000
000000
,
000010
100000
001000
000101
,
100000
001010
100000
011000
,
000001
000000
000000
001000
000000
000000
000100
000000
000000
100000
000000
000000
000001
000000
001000
000000
,
000000
100010
000001
011000
,
100000
000001
000100
101000
,
000100
000001
001000
000010
,
000100
000000
000000
001000
000000
000000
010000
000000
000000
000001
000000
000000
100000
000000
000100
000000
,
000000
010000
010000
010000
,
001000
000100
000000
000000
000000
000000
000000
000001
,
100000
000100
000000
010000
001000
000100
000001
010000
,
001000
000000
000000
000000
;

//---------------dance-solo - ----------------
#NOTES:
     dance-solo:
     :
     Hard:
     7:
     0.407812,0.451205,0.188739,0.000000,0.070777,242.000000,226.000000,16.000000,0.000000,0.000000,0.000000,0.407812,0.451205,0.188739,0.000000,0.070777,242.000000,226.000000,16.000000,0.000000,0.000000,0.000000:
000000
000000
000000
000000
,
000000
000000
000000
000000
,
000000
000000
000000
000000
,
000000
000000
000000
000000
,
000000
000000
000000
000000
,
000000
000000
000000
000000
,
000000
000000
000000
000000
,
010000
000000
000100
001000
000001
000000
100000
100000
,
000010
000000
000000
001000
000000
000000
000100
000000
000000
000000
100000
000000
000000
001000
000000
000000
,
000000
000001
000100
001000
,
010000
000001
001000
000000
000100
100000
001000
000000
,
010000
001000
000010
000000
000100
001000
100000
000000
,
000001
001000
001000
000000
100000
001000
001000
000000
,
000100
000001
001000
000000
000010
000100
001000
000000
,
010000
000100
001000
000000
000001
000000
100000
000000
,
000010
000100
000010
000000
010000
001000
000001
000000
,
000100
000001
001000
000000
100000
000010
010000
000000
,
000101
000000
001000
000000
000100
100000
001000
000000
,
010000
100001
001000
100010
,
010000
001000
010000
000000
000001
000000
001000
000000
,
100000
000000
011000
000000
000001
000000
001000
000010
,
100000
101000
000100
010001
,
001000
000100
100000
001000
,
000100
000000
100001
000000
001000
000010
100000
000000
,
000100
000000
010000
001000
000010
001000
000100
000000
,
000001
100000
000100
000000
011000
000000
100001
000000
,
001000
000010
100000
000000
010001
000000
001000
000000
,
100100
000010
011000
001001
,
000100
001000
010000
000001
001000
000000
000000
000000
,
000100
000000
000000
000000
000100
000000
000000
000000
000100
100000
000000
000000
001000
000000
000000
000000
,
010000
000000
000000
000000
010000
000000
000000
000000
010000
000001
000000
000000
001000
000000
000000
000000
,
000010
000000
000000
000000
000010
000000
000000
000000
000010
100000
000000
000000
000001
000000
000000
000000
,
001000
000000
000000
000000
001000
000000
000000
000000
001000
000100
000000
000000
100000
000000
000000
000000
,
000010
001001
000100
011000
,
000001
000000
001000
000000
000100
100000
000010
000000
,
010000
001000
000101
100000
,
000100
001000
001000
000000
000010
100000
001000
000000
,
000100
000000
000001
000000
100000
001000
001000
000000
,
000001
010000
001000
000000
000100
000001
000001
000000
,
010000
000010
010000
000000
001000
000100
000001
000000
,
010000
000010
100000
001000
000100
000001
100000
000000
,
000100
000000
000000
000000
001000
000000
000000
000000
000100
100000
000000
000000
001000
000000
000000
000000
,
000100
000000
000000
000000
000001
000000
000000
000000
010000
001000
000000
000000
000100
000000
000000
000000
,
000001
000000
000000
000000
010000
000000
000000
000000
000100
001000
000000
000000
000100
000000
000000
000000
,
100000
000000
000000
000000
001000
000000
000000
000000
010000
000001
000000
000000
000100
000000
000000
000000
,
001000
000000
000000
000000
100000
000000
000000
000000
000100
001000
000000
000000
000001
000000
000000
000000
,
010000
000000
000000
000000
000010
000000
000000
000000
100000
000001
000000
000000
001000
000000
000000
000000
,
000010
100000
000010
000000
010000
000000
001000
000000
,
000100
000001
001000
000000
000100
000000
010000
000000
,
001000
001000
000000
000000
000000
000000
000000
000010
,
001000
010000
000000
000100
100000
001000
010000
000001
,
000100
000000
000000
000000
;

//---------------dance-single - ANOTHER----------------
#NOTES:
     dance-single:
     :
     Edit:
     14:
     0.788661,0.885158,0.578014,0.188739,0.648791,468.000000,419.000000,49.000000,16.000000,0.000000,0.000000,0.788661,0.885158,0.578014,0.188739,0.648791,468.000000,419.000000,49.000000,16.000000,0.000000,0.000000:
// measure 0
0000
0000
0000
0000
,  // measure 1
0000
0000
0000
0000
,  // measure 2
0000
0000
0000
0000
,  // measure 3
0000
0000
0000
0000
,  // measure 4
0000
0000
0000
0000
,  // measure 5
1001
1010
0110
0101
,  // measure 6
0011
0000
0110
0100
1000
0001
1000
0010
,  // measure 7
0100
0100
0001
0001
1000
1000
0001
0001
,  // measure 8
0101
0000
0000
0110
0000
0000
1010
0000
0000
0000
1000
0000
1002
0000
0000
0000
,  // measure 9
0103
0010
0000
0100
0010
0000
1000
0001
0000
1000
0001
0000
0100
0000
0001
0000
,  // measure 10
0010
0100
0000
0010
0100
0000
1000
0001
0000
1000
0001
0000
0100
0000
0001
0000
,  // measure 11
0010
0001
0000
0010
0001
0000
1000
0100
0000
1000
0100
0000
0010
0000
0001
0000
,  // measure 12
0011
0000
0000
0101
0000
0000
0110
0000
0000
1010
0000
0000
1000
0000
0001
0000
,  // measure 13
0100
0010
1000
0100
0001
0100
1000
0010
,  // measure 14
0110
0000
0100
0000
0101
0000
0001
0000
1000
0010
0000
1000
0010
0000
0100
0000
,  // measure 15
0101
0000
0000
0000
0011
0000
0000
0000
0110
0000
0000
0000
0100
1000
0001
0000
,  // measure 16
1000
0010
1000
0000
0001
0100
0001
0000
0010
0000
0001
0000
0100
0000
0010
0000
,  // measure 17
0100
0001
0000
0001
0010
0000
0100
0000
1000
0010
1000
0000
0001
0000
0000
0000
,  // measure 18
0100
0000
0000
0000
0010
0000
1000
0001
1000
0000
0001
0000
0100
0000
0010
0000
,  // measure 19
0100
0001
0000
0001
0010
0000
0010
0100
0000
0100
1000
0000
1000
0000
0001
0000
,  // measure 20
0010
0000
0010
0000
0100
0000
0100
0000
1000
0001
1000
0000
1001
0000
0001
0000
,  // measure 21
0100
0001
0010
0000
0001
0000
1001
0000
1000
0010
0000
1000
0001
0000
0100
0000
,  // measure 22
0001
0000
0001
0000
1000
0000
1000
0000
0010
1000
0010
0000
1001
0000
0001
0000
,  // measure 23
0011
0000
0000
0110
0000
0000
1100
0000
0000
1001
0000
0000
0101
0000
1001
0000
,  // measure 24
1000
0001
1000
0001
0010
0001
0010
0001
0100
0010
0100
0010
1000
0001
1000
0001
,  // measure 25
0100
0010
0210
0000
0301
2001
0000
3002
,  // measure 26
0000
1003
1200
0000
0320
0000
0032
0000
,  // measure 27
1003
0010
1020
0000
0230
0302
0000
0023
,  // measure 28
0000
0032
2003
0010
3010
0001
0100
0010
,  // measure 29
1000
0000
0000
0000
1001
0000
0000
0000
0001
0010
0001
0000
0101
0000
0000
0000
,  // measure 30
0100
0000
0010
0000
1000
0000
0001
0000
1000
0100
0010
0000
0012
0000
0100
0000
,  // measure 31
0103
0000
1000
0000
1010
0000
0000
0000
1000
0001
0100
0000
0001
0000
1000
0000
,  // measure 32
0010
1000
0010
1000
0100
0010
0100
0010
0001
0100
0001
0100
0010
1000
0010
1000
,  // measure 33
0001
0000
0100
0010
0100
0000
0010
1000
0000
1000
0001
0000
0010
0000
0001
0000
,  // measure 34
0100
0000
0010
0000
0110
0000
0010
0000
1000
0100
0010
0001
0010
0100
1000
0000
,  // measure 35
0011
0000
0010
0000
0110
0000
0100
0000
1100
0000
1000
0000
0001
0010
0001
0000
,  // measure 36
1000
0100
0010
0001
1000
0001
0010
0100
1000
0100
0010
0001
1000
0001
0010
0100
,  // measure 37
1000
0100
0010
0001
0100
0001
0010
0000
,  // measure 38
0001
0000
1000
0000
0001
0000
0000
0000
1000
0100
0010
0001
1000
0001
0010
0100
,  // measure 39
1000
0000
0110
0000
0001
0000
0110
0000
1000
0000
0001
0000
0100
1000
0100
0000
,  // measure 40
0001
0010
0001
0010
0001
0010
0001
0000
1000
0010
1000
0010
0100
0001
0100
0001
,  // measure 41
0010
0000
0100
0000
1000
0001
1000
0000
0100
0010
0100
0000
0011
0000
0000
0000
,  // measure 42
1010
0000
1000
0000
1001
0000
0001
0000
0100
0001
0100
0000
0110
0000
0010
0000
,  // measure 43
1000
0100
0000
0100
0010
0000
0010
0001
0000
0001
0100
0000
0010
0000
1000
0000
,  // measure 44
0001
0010
0000
1000
0010
0000
0001
0000
1000
0100
0010
0000
0001
0000
0100
0000
,  // measure 45
0010
0100
0010
0000
0001
0000
0010
0000
1000
0100
0000
0010
0100
0000
1000
0000
,  // measure 46
0001
0010
0000
0001
0100
0000
0010
0000
1000
0001
0100
0000
0001
0000
0010
0000
,  // measure 47
0001
0100
0000
0001
1000
0000
0010
1000
0000
0100
1000
0000
0001
0000
0100
0000
,  // measure 48
0010
0100
0010
0100
0001
0010
0001
0010
0100
1000
0100
1000
0100
0010
0100
0010
,  // measure 49
0001
1001
0001
0100
0000
0010
0000
1000
,  // measure 50
0001
0000
0011
0000
0000
0000
0100
0000
0010
0000
1000
0000
0001
1000
0001
0000
,  // measure 51
0202
0000
0000
0303
;
